<?xml version="1.0" standalone="no"?>
<!DOCTYPE svg PUBLIC "-//W3C//DTD SVG 1.1//EN" "http://www.w3.org/Graphics/SVG/1.1/DTD/svg11.dtd" >
<svg xmlns="http://www.w3.org/2000/svg" xmlns:xlink="http://www.w3.org/1999/xlink" version="1.1">
<metadata>
Created by FontForge 20170731 at Mon Jul  6 11:05:38 2020
 By Aleksey,,,
Copyright (c) 2020 by Subectype &#38; Mans Greback. All rights reserved.
</metadata>
<defs>
<font id="AmerthaPERSONALUSEONLY" horiz-adv-x="721" >
  <font-face 
    font-family="Amertha PERSONAL USE ONLY"
    font-weight="400"
    font-stretch="normal"
    units-per-em="1000"
    panose-1="2 0 6 0 0 0 0 0 0 0"
    ascent="750"
    descent="-250"
    x-height="455.5"
    cap-height="940"
    bbox="-1009.34 -388 3965.85 1254.15"
    underline-thickness="150"
    underline-position="-442"
    unicode-range="U+000D-E0EE"
  />
<missing-glyph horiz-adv-x="0" 
 />
    <glyph glyph-name="Am" unicode="Am" horiz-adv-x="1569" 
d="M1512 391q12 -17 3 -52q-5 -17 -12 -37t-16 -42q-17 -44 -30 -85q-10 -34 -15.5 -63t-6.5 -54q-3 -47 11 -87q5 -19 -14 -28q-20 -11 -43 -8t-32 22q-18 71 8 176q27 103 63 179q-15 -7 -34 -30q-10 -12 -21 -26t-23 -31q-32 -44 -66 -84q-38 -42 -70 -62q-35 -20 -66 -2
q-29 21 -20 76q10 55 36 118q14 31 26 57.5t23 49.5q5 8 8 15t6 13q-49 -49 -127 -156q-77 -105 -126 -189q-20 -27 -48 -27q-29 2 -47 21q-20 21 -9 53q7 17 16 37t20 43q14 29 26 57t23 55q21 56 11 81q-16 27 -94 35q-64 -110 -105 -238q-40 -127 -27 -181q6 -24 -20 -35
q-26 -10 -56 -4q-29 4 -34 28q-5 90 40 203q23 57 50 114.5t59 114.5q-128 -5 -288 -33q-179 -258 -239 -525q-6 -20 -34 -21q-27 -1 -52 14q-24 15 -16 49q71 234 217 457q-82 -20 -156.5 -43t-141.5 -52q-26 -9 -44 11q-19 19 -22 44t17 34q18 7 55.5 17t94.5 24t121.5 27
t139.5 26q9 12 18.5 23.5t18.5 22.5q135 154 267 251q135 99 228 118q95 19 116 -61q4 -33 -36 -105q-20 -36 -44.5 -76.5t-53.5 -86.5q-10 -16 -20 -31.5t-20 -32.5q57 -11 91 -33q36 -24 45 -62q5 -50 -14 -98q-18 -49 -26 -62q-4 -6 -1 -2t12 18t24.5 36t36.5 53
q22 30 44.5 58.5t45.5 54.5q45 51 89 76q43 24 74 -1q22 -21 10 -60q-5 -20 -13.5 -40t-19.5 -42q-5 -9 -8.5 -17.5t-7.5 -16.5q-17 -38 -33 -78q-8 -20 -13.5 -37t-10.5 -31q-9 -27 -3 -24q4 4 12 14.5t22 27.5q17 23 37 47.5t44 53.5q49 56 94 87q47 30 76 0zM554 465
q70 9 134.5 12.5t124.5 1.5q28 52 57 99q27 46 46.5 82t32.5 62q26 53 -4 44q-199 -71 -391 -301z" />
    <glyph glyph-name="An" unicode="An" horiz-adv-x="1335" 
d="M1253 446q31 -21 23 -56q-6 -34 -27 -81q-19 -43 -33 -95q-36 -153 -6 -224q4 -19 -15 -29t-43 -7q-24 2 -31 21q-18 73 6 186q24 114 60 190q-3 18 -25 -6q-11 -11 -25 -29.5t-31 -43.5q-17 -24 -33.5 -50.5t-33.5 -55.5t-31.5 -55t-27.5 -50q-16 -28 -47 -28
q-32 1 -52 22q-22 21 -11 53q7 17 16 37t20 43q14 29 26.5 57t22.5 55q21 56 11 81q-16 27 -94 35q-32 -56 -58 -115.5t-47 -122.5q-40 -127 -27 -181q6 -25 -20 -35t-56 -4q-29 4 -34 28q-5 90 40 203q23 57 50 114.5t59 114.5q-128 -5 -288 -33q-179 -258 -239 -525
q-6 -20 -34 -21q-27 -1 -52 14q-24 15 -16 49q71 234 217 457q-82 -20 -156 -43t-142 -52q-26 -9 -44 11q-19 19 -22 44t17 34q18 7 55.5 17t94.5 24t121.5 27t139.5 26q20 26 38 46q132 153 266 251q135 99 228 118q97 20 116 -61q4 -32 -35 -105q-20 -36 -45 -76.5
t-54 -86.5q-10 -16 -20 -31.5t-20 -32.5q57 -11 91 -33q36 -24 45 -62q9 -46 -26 -120q-18 -37 -26.5 -54.5t-6.5 -15.5q7 7 18.5 24.5t28.5 44.5q21 32 41.5 61t40.5 55t38.5 44.5t35.5 30.5q36 22 68 2zM554 465q70 9 134.5 12.5t124.5 1.5q30 52 57 99q27 46 46.5 82
t32.5 62q26 53 -4 44q-199 -71 -391 -301z" />
    <glyph glyph-name="Ar" unicode="Ar" horiz-adv-x="1287" 
d="M1227 446q24 -17 24 -36q-2 -23 -13 -50q-5 -13 -9.5 -28t-9.5 -33q-9 -38 -8 -87q-2 -11 -15 -17q-14 -6 -31 -5q-18 0 -30 9q-12 7 -10 24q5 22 8.5 40t7.5 32t9 28t11 28q-3 11 -30 -25q-28 -35 -64 -97q-15 -26 -29.5 -54.5t-28.5 -59.5q-9 -20 -17.5 -37t-16.5 -32
q-16 -30 -48 -28q-30 0 -51 21t-12 53q7 17 16 36.5t20 43.5q15 32 28.5 62t24.5 60q23 62 12 87q-16 27 -93 35q-64 -110 -105 -238q-40 -127 -27 -181q6 -24 -20 -35q-26 -10 -56 -4q-31 5 -34 28q-5 90 40 203q23 57 49.5 114.5t58.5 114.5q-126 -5 -288 -33
q-178 -259 -238 -525q-6 -19 -34 -21q-27 -1 -52 14t-17 49q36 118 90 231.5t128 225.5q-82 -20 -156.5 -43t-141.5 -52q-26 -9 -44 11q-19 17 -22 44q-3 25 17 34q18 7 55 17t94 24t122 27t140 26q9 12 18.5 23.5t18.5 22.5q135 154 267 251q133 98 228 118q95 19 116 -61
q4 -33 -36 -105q-20 -36 -44.5 -76.5t-53.5 -85.5l-20 -32t-20 -33q55 -10 91 -33q36 -24 45 -62q5 -31 -16 -81q-10 -26 -22.5 -53t-26.5 -57q-6 -11 -11.5 -22.5t-10.5 -23.5q4 7 9 16t12 21q30 54 75 126t93 120q48 47 84 26zM554 465q142 18 258 14q30 52 57 99
q28 46 47.5 82t32.5 62q26 53 -4 44q-199 -71 -391 -301z" />
    <glyph glyph-name="Cl" unicode="Cl" horiz-adv-x="996" 
d="M1107 826q14 15 37 6q23 -7 37 -29q13 -21 -5 -44q-122 -140 -202 -297q-40 -79 -70.5 -152t-51.5 -142q-42 -135 -54 -215q-3 -12 -20 -18q-16 -7 -38 -5q-23 3 -34 14q-13 12 -7 36q29 96 70 198.5t97 213.5q-52 -65 -106.5 -125t-112.5 -118q-57 -57 -114.5 -103.5
t-114.5 -82.5q-113 -71 -215 -73q-122 6 -162 99q-40 94 3 244q22 75 66.5 154t111.5 164q133 160 256 232q124 72 212 68q88 -3 120 -68t-18 -178q-48 -112 -203 -258q-19 -16 -43 -7t-36 30q-11 20 7 39q173 160 212 254q42 95 -10 116q-51 21 -164 -44
q-112 -66 -246 -229q-44 -54 -77 -109.5t-56 -113.5q-46 -114 -43 -202q5 -86 85 -96q81 -11 219 72q69 42 142.5 106.5t151.5 154.5q37 42 75 90.5t78 103.5q41 55 76.5 105.5t67.5 97.5q26 36 45.5 63.5t33.5 47.5z" />
    <glyph glyph-name="Ch" unicode="Ch" horiz-adv-x="1292" 
d="M1332 312q7 6 18 1q10 -5 13 -16t-9 -23q-99 -98 -182 -148q-83 -52 -130 -28q-27 17 -22 55q3 37 21 82q9 22 18 42.5t19 39.5t16 33t9 24q6 19 -15 6q-35 -23 -66.5 -53.5t-61.5 -68.5q-59 -78 -99 -151t-54 -113q-9 -20 -33 -21t-44 11q-19 13 -12 37q4 11 7.5 22
t7.5 22q11 34 24.5 70t28.5 75t35 84.5t45 97.5q-52 -65 -106.5 -125t-112.5 -118q-58 -57 -115 -103.5t-115 -82.5q-113 -71 -214 -73q-122 6 -162 99q-42 94 3 244q44 149 178 318q66 81 130 138.5t125 93.5q124 72 212 68q89 -3 121 -68t-18 -178q-49 -112 -203 -258
q-19 -16 -44 -7q-23 9 -35 30q-11 18 6 39q172 160 213 254q41 95 -10 116q-52 21 -164 -44q-111 -66 -247 -229q-85 -105 -132 -223q-23 -58 -34 -108t-9 -94q5 -87 92 -91q87 -6 218 72q131 79 288 256q37 42 73 88t72 97q35 51 71 103.5t72 109.5q44 70 73 110
q13 15 37 6q23 -7 37 -29q13 -22 -5 -44q-99 -112 -170 -253q-35 -71 -64.5 -140.5t-54.5 -140.5q35 50 71.5 93.5t74.5 80.5q74 74 125 88q46 8 65 -22q20 -30 -12 -95q-16 -31 -30 -60.5t-26 -58.5q-24 -57 -21 -79q6 -18 69 24q61 41 144 116z" />
    <glyph glyph-name="El" unicode="El" horiz-adv-x="849" 
d="M988 826q13 15 39 6q24 -7 40 -29q14 -22 -4 -44q-122 -140 -202 -297q-40 -79 -70 -152t-52 -142q-43 -137 -53 -215q-3 -12 -21 -18q-16 -7 -38 -5q-22 3 -34 14q-14 12 -6 36q28 96 69.5 198.5t96.5 213.5q-6 -8 -14 -19t-19 -25q-28 -38 -67 -87t-90 -110
q-103 -122 -202 -199q-98 -76 -187 -79q-88 -3 -131 42q-43 46 -42 121q2 75 58 163q76 105 181 170q53 33 103.5 59.5t98.5 46.5q-92 33 -109 92q-18 60 18 128q34 66 101 124q65 57 139 83q73 27 134 4q55 -22 53 -93q-2 -70 -81 -179q-10 -13 -28 -9q-17 4 -34 18
q-17 17 -22 30q-6 16 7 26q38 29 58 68q19 38 11 60q-8 21 -55 3q-23 -11 -48 -28.5t-54 -41.5q-57 -50 -94 -104q-36 -56 -20 -95q15 -39 117 -42q23 0 34 -21q12 -22 3 -47q-8 -25 -39 -32q-100 -24 -213 -106q-115 -82 -170 -168q-51 -85 -40 -137q12 -51 81 -49
q69 1 175 79q105 77 300 311q45 57 84.5 110.5t74.5 106.5q34 53 61.5 97t49.5 81q18 29 31 49.5t21 32.5z" />
    <glyph glyph-name="Et" unicode="Et" horiz-adv-x="870" 
d="M1275 535q-85 29 -177 37q-45 4 -87.5 4.5t-84.5 -2.5q-57 -93 -98.5 -181.5t-70.5 -173.5q-29 -86 -46.5 -152t-24.5 -114q-3 -12 -21 -18q-15 -7 -38 -5q-22 3 -34 14q-12 12 -6 36q29 96 70 198.5t97 213.5q-7 -8 -15 -19t-19 -25q-27 -38 -67 -87t-94 -111
q-109 -124 -205 -201q-99 -79 -182 -79q-86 0 -129 45q-43 46 -42 121q1 74 59 163q73 103 180 170q105 65 202 106q-91 33 -109 92q-17 60 18 128q36 68 101 124q67 58 139 83q74 27 134 4q55 -23 54 -93q-3 -70 -81 -179q-12 -13 -29 -9q-19 5 -33 18q-16 14 -22 30t6 26
q39 30 59 68q19 40 10 60q-8 21 -54 3q-23 -11 -48 -28.5t-54 -41.5q-59 -50 -94 -104q-37 -55 -21 -95q16 -39 117 -42q24 0 35 -21q10 -22 3 -47q-8 -25 -39 -32q-101 -24 -214 -106q-112 -80 -170 -168q-51 -86 -39 -137q10 -50 66 -55q55 -4 137 50q80 57 167.5 143
t184.5 203q89 110 157 214q-136 -24 -176 -47q-14 -6 -25 8t-13 33q0 19 17 26q110 35 240 46q20 33 38 61.5t33 53.5q17 29 30 50t21 32q15 15 39 6q24 -7 40 -29q14 -20 -3 -44q-27 -30 -51 -61t-47 -63q235 2 332 -28q19 -7 19 -26q0 -20 -12 -35t-30 -11z" />
    <glyph glyph-name="Hi" unicode="Hi" horiz-adv-x="1173" 
d="M1068 564q13 16 39 9q24 -8 39 -27q14 -20 1 -42q-5 -7 -13 -16t-19 -20q-20 -23 -45 -40q-23 -17 -38 -9q-14 11 -8 40q6 31 19 60q14 31 25 45zM1200 296q11 5 19 -1q8 -4 13 -16q3 -10 -5 -19q-5 -5 -11 -11.5t-14 -14.5q-16 -19 -36 -40t-45 -45q-50 -47 -104 -77
q-56 -30 -105 -14q-39 16 -42 54q-4 35 13 81q16 45 40 83q5 12 10 22t8 19q6 17 4 22q-9 16 -84 17q-37 -75 -65 -142.5t-48 -128.5q-20 -60 -30.5 -102.5t-12.5 -68.5q-1 -13 -19 -23q-20 -8 -40 -7q-23 2 -35 14q-13 12 -7 39q59 211 163 418q-104 -5 -229 -18
q-41 -69 -85.5 -136.5t-94.5 -135.5q-96 -135 -205 -248q-18 -16 -40 -12q-23 5 -41 21t-22 35q-6 17 12 28q35 18 138 136q104 117 225 299q-67 -8 -126 -16.5t-111 -17.5q-100 -16 -132 -29q-24 -9 -41 13q-15 21 -15 47t22 32q88 14 200 26t252 23q126 204 188 418
q9 26 36 26q28 0 49 -14q22 -16 18 -35q-20 -66 -66.5 -162t-118.5 -226q59 3 112.5 4.5t104.5 -0.5q43 81 84.5 152t83.5 131q41 61 74 103.5t59 68.5q20 16 44 2q23 -15 34 -42q9 -28 -14 -51q-42 -38 -79 -80.5t-72 -90.5q-69 -96 -123 -198q85 -7 132 -31q45 -22 25 -63
q-2 -3 -4 -7l-5 -10q-8 -12 -16.5 -27t-19.5 -33q-20 -36 -31 -70q-11 -32 0 -43q11 -12 58 14q39 23 84 67q24 23 46 45.5t43 45.5z" />
    <glyph glyph-name="Hu" unicode="Hu" horiz-adv-x="1341" 
d="M1382 314q9 9 21 6q12 -4 18 -17q6 -14 -4 -28q-30 -45 -73 -88q-22 -22 -45 -38.5t-47 -29.5q-50 -25 -91 -13q-31 9 -49 44q-19 36 -10 91q-4 -6 -8.5 -12.5t-10.5 -14.5q-9 -14 -19.5 -28t-21.5 -29q-23 -32 -48 -57q-40 -39 -82 -40q-43 -2 -67 26q-24 29 -11 80
q10 29 22 56t26 53q7 12 12 22.5t9 18.5q7 16 5 23q-12 17 -92 17q-37 -75 -65 -142.5t-48 -127.5q-20 -61 -30.5 -103.5t-12.5 -68.5q-1 -13 -19 -23q-20 -8 -40 -7q-23 2 -35 14q-13 12 -7 39q29 106 69.5 209.5t93.5 206.5q-106 -6 -232 -21q-41 -68 -85 -135t-93 -135
q-49 -67 -99.5 -128t-104.5 -117q-18 -16 -40 -12q-23 5 -41 21t-22 35q-6 17 12 28q33 17 137 134q103 119 222 295q-57 -8 -105 -15.5t-90 -15.5t-69 -14.5t-41 -11.5q-24 -9 -41 13q-15 21 -15 47t22 32q78 12 175 23.5t215 22.5q125 201 190 421q9 26 36 26q28 0 49 -14
q22 -16 18 -35q-42 -132 -186 -390q59 4 113 5.5t106 1.5q43 81 84 151.5t83 130.5q41 61 74 103.5t59 68.5q20 16 44 2q23 -15 34 -42q9 -28 -14 -51q-41 -38 -78.5 -80t-71.5 -90q-35 -48 -65.5 -97t-57.5 -100q38 -3 68.5 -9t53.5 -14q45 -16 48 -47q0 -10 -11 -35
l-12.5 -25t-14.5 -27q-11 -20 -20 -38.5t-16 -35.5q-15 -34 -3 -44q13 -6 43 29q15 17 32 39.5t37 49.5q20 26 38 52t34 51q17 26 28 44.5t19 30.5l6 12q13 17 30 16q16 0 35 -11q19 -13 27 -26q9 -14 2 -24q-2 -4 -8.5 -13t-16.5 -24q-20 -29 -37 -67t-19 -70t20 -43
q32 -10 82 34q51 43 93 99z" />
    <glyph glyph-name="Sl" unicode="Sl" horiz-adv-x="836" 
d="M1025 833q21 11 44 -3q21 -14 29 -40q6 -25 -15 -46q-135 -119 -225 -284q-46 -84 -80.5 -161.5t-59.5 -152.5q-48 -147 -54 -209q-1 -12 -18 -20q-15 -8 -35 -6q-18 1 -32 12q-12 12 -6 35q58 207 153 400q48 97 95 179t95 151q-105 -60 -201 -122.5t-187 -129.5
q95 -89 99 -170q4 -83 -48 -156q-51 -73 -132 -137q-55 -45 -107.5 -73.5t-104.5 -43.5q-103 -30 -169 -6t-66 99q2 76 98 198q49 61 129 133t193 156q-1 1 -1.5 1t-1.5 1q-22 17 -42.5 36.5t-38.5 40.5q-37 42 -39 101q3 76 66 141q64 64 150 107q45 21 85.5 35t79.5 21
q22 1 34 -25t9 -55q-4 -28 -28 -34q-52 -8 -121 -37q-73 -31 -125 -76q-53 -46 -55 -105q1 -27 24 -51q12 -12 28 -26t36 -31q54 39 120.5 84t144.5 96q78 52 147.5 95t132.5 78zM110 20q-33 -76 19 -83q51 -6 141 36q87 41 168 113q79 73 98 154q20 81 -67 153
q-44 -32 -92 -72t-102 -90q-105 -98 -165 -211z" />
    <glyph glyph-name="Sh" unicode="Sh" horiz-adv-x="1161" 
d="M1203 310q7 6 18 1q9 -4 13 -16q3 -11 -9 -23q-50 -48 -95 -85t-87 -63q-83 -52 -130 -28q-26 17 -23 55q3 35 22 81q9 23 18 43.5t19 39.5q9 19 15.5 33t9.5 24q6 19 -15 6q-58 -37 -143 -149t-131 -246q-6 -15 -30 -15t-43 13q-20 13 -16 33q24 84 57.5 171t78.5 179
q90 184 184 322q-105 -60 -201.5 -122.5t-186.5 -129.5q93 -88 99 -170q5 -84 -48 -157q-53 -75 -132 -137q-107 -87 -211 -117q-103 -30 -170 -6q-66 25 -66 100q2 77 98 197q99 125 322 290q-1 1 -1.5 1t-1.5 1q-46 35 -82 77q-37 43 -38 101q3 76 66 141q64 64 150 107
q89 43 165 56q22 1 34 -25q12 -27 8 -55q-3 -28 -27 -34q-26 -4 -56.5 -13t-65.5 -24q-71 -30 -124 -76q-54 -48 -55 -105q1 -27 24 -51q11 -12 27.5 -26t36.5 -31q54 39 120.5 84t144.5 96q78 52 147.5 95t132.5 78q23 11 44 -3t29 -40q6 -25 -15 -46q-111 -97 -190 -228
q-39 -66 -70 -130t-55 -127q66 88 134 153q66 63 112 74q45 9 64 -21q20 -31 -11 -95q-17 -31 -30.5 -60.5t-25.5 -58.5q-24 -56 -22 -79q7 -18 70 24q61 41 144 116zM110 17q-34 -74 18 -82q52 -6 142 36q88 42 167 113q79 72 99 153q19 82 -67 154q-44 -32 -92 -72
t-102 -90q-108 -101 -165 -212z" />
    <glyph glyph-name="At" unicode="At" horiz-adv-x="964" 
d="M1375 578q15 -4 17 -26q0 -22 -13 -41q-14 -20 -38 -17q-66 11 -146.5 17t-179.5 5q-108 -174 -166 -333q-57 -156 -54 -198q0 -13 -15 -20t-34 -6q-20 0 -32 12q-13 10 -8 34q32 133 88 261q29 66 60 128t65 120q-56 -2 -114 -6q-14 -21 -26.5 -42t-25.5 -42
q-67 -114 -108 -242q-43 -127 -29 -185q6 -24 -20 -35q-26 -10 -56 -4q-31 5 -34 28q-5 106 57 244q30 70 64 136.5t72 131.5q-69 -7 -138.5 -18t-139.5 -25l-16 -20l-16 -20q-93 -122 -163 -271q-71 -151 -98 -284q-6 -20 -34 -21q-27 -1 -52 14q-23 15 -17 49
q43 139 108 268.5t156 253.5q-60 -16 -116.5 -35t-111.5 -41q-22 -7 -40 12q-19 20 -20 45t27 35q87 25 171.5 44.5t168.5 35.5q66 72 130 131t128 104q127 91 219 108q90 17 110 -62q4 -28 -26 -87q-29 -56 -78 -133q29 2 57 3t54 3q107 171 174 233q18 13 42 0
q25 -14 35 -38q11 -24 -10 -45q-38 -32 -71.5 -68.5t-65.5 -78.5q232 0 309 -12zM499 542q126 19 243 30l3 6q28 46 47.5 82t32.5 62q26 53 -4 44q-164 -59 -322 -224z" />
    <glyph glyph-name="Att" unicode="Att" horiz-adv-x="1216" 
d="M1375 578q16 -5 16 -26q1 -20 -13 -41q-12 -20 -37 -17q-37 6 -80 11t-93 8q-41 -67 -74 -131t-59 -127q-52 -124 -34 -165q13 -18 48 3q33 22 75 65q20 22 38.5 43t35.5 42t29 36.5t19 25.5q8 11 19 8q10 -3 16 -12q6 -11 -1 -21q-26 -37 -53 -72t-56 -69
q-30 -34 -59 -60.5t-58 -46.5q-57 -39 -104 -28q-51 18 -41 99t60 192q49 113 111 221q-19 0 -37.5 0.5t-38.5 -0.5q-50 -91 -87.5 -175t-63.5 -163q-51 -159 -47 -198q0 -12 -14 -20q-14 -7 -35 -7q-18 0 -32 11t-9 35q27 124 80 259q27 67 56 131t61 125q-55 -2 -108 -6
q-14 -21 -27 -42l-26 -42q-67 -114 -108 -242q-42 -128 -28 -185q6 -25 -21 -35q-25 -10 -56 -4q-29 4 -34 28q-3 106 57 244q31 70 65 136.5t72 131.5q-69 -7 -138.5 -18t-139.5 -25l-16 -20l-16 -20q-47 -60 -87.5 -128t-75.5 -143q-71 -151 -98 -284q-6 -19 -35 -21
q-27 -1 -52 14q-24 16 -16 49q84 275 263 522q-60 -16 -116.5 -35t-110.5 -41q-22 -7 -41 12q-17 19 -19 45q-1 24 26 35q88 25 172 44.5t168 35.5q66 72 130 131t129 104q127 91 218 108q90 16 110 -62q5 -30 -26 -87q-29 -56 -78 -133q26 2 51.5 3t50.5 2
q57 102 103.5 169.5t81.5 103.5q17 14 42 2q25 -14 36 -38q12 -24 -9 -45q-88 -79 -158 -189q20 1 39 1h36q90 146 133 190q18 15 38 3q20 -10 29 -35q8 -24 -13 -45q-22 -21 -45 -50t-47 -64q56 -2 95 -5t62 -6zM498 542q127 19 243 30q1 2 2 3t2 3q27 47 47 82.5t33 61.5
q24 53 -4 44q-166 -59 -323 -224z" />
    <glyph glyph-name="al" unicode="al" horiz-adv-x="683" 
d="M805 826q13 15 37 6q23 -7 37 -29q13 -22 -6 -44q-123 -142 -203 -297q-82 -160 -125 -294q-22 -68 -36 -121.5t-19 -93.5q-3 -12 -20 -18q-18 -6 -36 -5q-22 3 -31 14q-12 12 -6 36q29 96 70 198.5t97 213.5q-5 -8 -12 -18t-15 -22q-18 -29 -40 -61t-48 -68
q-53 -72 -108 -117q-57 -44 -102 -21q-27 15 -30 63q-2 48 34 129l-25.5 -25.5t-27.5 -29.5q-18 -20 -36.5 -38.5t-38.5 -37.5q-40 -38 -80 -59q-41 -21 -78 -11q-48 18 -34 79q13 59 66 128q52 67 123 108q82 43 134 -31q13 13 33 36q14 15 24.5 27t20.5 20q20 14 38 10
q18 -5 27 -21q10 -17 -2 -39q-122 -218 -75 -218q28 2 95 86q35 42 72 92t78 110q42 60 79 115t72 107q34 51 58 86t39 55zM202 324q5 11 -10 15q-16 3 -47 -12q-33 -16 -77 -65q-6 -7 -12.5 -15.5t-14.5 -19.5q-17 -23 -24 -40q-9 -20 0 -21q9 -3 46 22q12 8 25 19t28 25
t28.5 27t25.5 26q25 27 32 39z" />
    <glyph glyph-name="a_t" unicode="at" horiz-adv-x="697" 
d="M1040 615q13 -5 11 -26q-1 -21 -12 -41q-11 -18 -29 -15q-108 34 -271 41q-113 -185 -173 -355q-58 -171 -72 -266q-3 -12 -20 -18q-18 -6 -36 -5q-22 3 -31 14q-12 12 -6 36q29 96 70 198.5t97 213.5q-5 -8 -12 -18t-15 -22q-18 -29 -40 -61t-48 -68q-53 -72 -108 -117
q-57 -44 -102 -21q-27 15 -30 63q-2 48 34 129q-12 -11 -25.5 -25t-27.5 -29q-18 -20 -36.5 -39t-38.5 -38q-40 -38 -80 -59q-41 -21 -78 -11q-48 18 -34 79q13 59 66 128q52 67 123 108q82 43 134 -31q13 13 33 36q27 32 45 47q20 14 38 10q20 -5 27 -21q10 -17 -2 -39
q-122 -218 -75 -218q21 0 74 60q26 30 55.5 68t62.5 84q33 47 65.5 93.5t65.5 94.5q-147 -2 -300 -30q-152 -28 -295 -92q-17 -6 -29 14q-12 21 -12 46q2 26 22 33q93 28 180.5 47t172.5 30t161.5 16.5t146.5 5.5q7 11 13.5 20.5t12.5 19.5q34 51 58 86t39 55q13 15 37 6
q23 -7 37 -29q13 -22 -5 -44q-25 -28 -48 -56.5t-44 -58.5q97 -5 160 -12t94 -17zM206 324q5 11 -10 15q-16 3 -47 -12q-33 -16 -77 -65q-6 -7 -12.5 -15.5t-14.5 -19.5q-17 -23 -24 -40q-9 -20 0 -21q9 -3 46 22q12 8 25 19t28 25t28.5 27t25.5 26q25 27 32 39z" />
    <glyph glyph-name="att" unicode="att" horiz-adv-x="880" 
d="M1086 615q13 -5 11 -26q-1 -22 -13 -41q-11 -18 -30 -15q-56 17 -137 28q-31 -47 -59.5 -95t-55.5 -99q-26 -51 -47 -95t-35 -82q-29 -77 -15 -100q11 -9 36 14q28 25 60 64q17 20 32.5 39.5t29.5 38.5q15 20 25.5 34.5t17.5 24.5q9 11 19 8t16 -12q6 -11 -1 -21
q-4 -5 -7.5 -10.5t-7.5 -11.5q-23 -35 -47 -67.5t-47 -63.5t-46 -55t-45 -41q-43 -35 -86 -27q-41 12 -41 69q1 29 9 63.5t23 76.5q32 86 79 178q23 47 48 91.5t51 88.5q-19 2 -38.5 2.5t-39.5 1.5q-55 -94 -98 -183t-74 -175q-31 -87 -49.5 -152t-25.5 -112q-3 -12 -20 -18
q-18 -6 -36 -5q-20 3 -31 14q-12 12 -6 36q29 96 70 198.5t97 213.5q-5 -8 -12 -18t-15 -22q-18 -29 -40 -61t-48 -68q-51 -72 -108 -117q-57 -44 -102 -21q-28 15 -29 63q-3 46 33 129l-25.5 -25.5t-27.5 -29.5q-18 -20 -36.5 -38.5t-38.5 -37.5q-40 -38 -80 -59
q-41 -21 -78 -11q-48 18 -34 79q13 59 66 128q52 67 123 108q82 43 134 -31q7 7 15 16t19 20q26 30 44 47q20 14 38 10q19 -5 28 -21q8 -18 -3 -39q-122 -218 -75 -218q21 0 72 59q26 30 55.5 67.5t62.5 83.5t66 93.5t66 96.5q-145 -3 -300 -33q-77 -14 -149.5 -36.5
t-142.5 -52.5q-17 -6 -31 14q-12 21 -12 46q2 26 23 33q181 52 350 75q170 23 310 24q11 17 22 33.5t22 32.5q35 54 60 90t40 56q13 14 37 7q23 -9 37 -30q13 -22 -5 -44q-61 -67 -113 -145q20 -1 39.5 -1.5t37.5 -1.5q78 123 115 160q18 15 40 3q21 -11 32 -36
q9 -24 -11 -47q-36 -34 -75 -88q42 -5 71.5 -9.5t46.5 -9.5zM210 324q5 11 -10 15q-15 3 -47 -12q-33 -16 -77 -65q-6 -7 -12.5 -15.5t-14.5 -19.5q-17 -23 -24 -40q-9 -20 0 -21q9 -3 46 22q12 8 25 19t28 25t28.5 27t25.5 26q25 27 32 39z" />
    <glyph glyph-name="all" unicode="all" horiz-adv-x="877" 
d="M836 857q13 14 37 7q23 -9 37 -30q13 -22 -5 -44q-124 -142 -209 -305q-87 -164 -135 -308q-25 -72 -40 -128t-21 -96q-3 -12 -20 -18q-18 -6 -36 -5q-22 3 -31 14q-12 12 -6 36q29 96 70 198.5t97 213.5q-5 -8 -12 -18t-15 -23q-18 -28 -40 -60t-48 -68
q-53 -72 -108 -117q-56 -45 -102 -21q-27 15 -30 63q-2 48 34 129l-25.5 -25.5t-27.5 -29.5q-18 -20 -36.5 -38.5t-38.5 -37.5q-40 -38 -80 -59q-41 -21 -78 -11q-48 18 -34 79q13 59 66 128q52 67 123 108q82 43 134 -31q13 13 33 36q27 32 45 47q20 14 38 10q20 -5 27 -21
q10 -17 -2 -39q-122 -218 -75 -218q27 1 99 90q35 45 74 97.5t83 115.5q43 63 82 121t75 112q36 53 61 89.5t40 56.5zM212 324q5 11 -10 15q-15 3 -47 -12q-33 -16 -77 -65q-6 -7 -12.5 -15.5t-14.5 -19.5q-17 -23 -24 -40q-9 -20 0 -21q9 -3 46 22q12 8 25 19t28 25
t28.5 27t25.5 26q25 27 32 39zM984 802q18 15 40 3q22 -13 31 -36q9 -26 -11 -47q-70 -70 -156 -209q-85 -138 -142 -263q-55 -126 -39 -160q10 -10 36 14q28 25 60 64q17 20 32 39.5t30 38.5q14 20 24.5 34.5t18.5 24.5q8 11 18 8q11 -3 17 -12q5 -10 -1 -21
q-4 -5 -7.5 -10.5t-7.5 -11.5q-24 -35 -47.5 -67.5t-47.5 -63.5q-47 -62 -91 -96q-43 -35 -85 -27q-49 16 -40 92q5 38 19 84t38 100q23 54 50.5 108.5t58.5 109.5q32 56 61 104t58 90q55 82 83 110z" />
    <glyph glyph-name="il" unicode="il" horiz-adv-x="437" 
d="M558 801q12 13 36 6q23 -8 35 -29q12 -20 -5 -42q-119 -137 -196 -287q-40 -76 -70 -146.5t-51 -136.5q-22 -66 -35 -118t-19 -90q-3 -12 -19 -18q-14 -6 -34 -4q-18 1 -31 13q-11 11 -5 34q27 94 67 192.5t94 205.5q-32 -39 -83 -110q-21 -30 -42 -58.5t-42 -56.5
q-42 -56 -69 -75q-26 -19 -61 -16q-33 4 -57 30q-25 25 -14 73q9 46 49 126q20 40 34 64t23 32q17 19 41 14q25 -3 41 -21q16 -19 -8 -51q-12 -17 -25 -38t-27 -46q-27 -51 -36 -84q-8 -32 6 -34q13 -1 86 90q36 45 76 99t85 117q88 124 162 231q33 48 56.5 81.5t37.5 52.5z
M140 439q-15 11 -9 41q6 29 20 60q15 31 26 47q17 18 40 11q25 -6 39 -26q14 -18 0 -42q-6 -8 -14 -17.5t-19 -21.5q-21 -26 -45 -42q-22 -18 -38 -10z" />
    <glyph glyph-name="it" unicode="it" horiz-adv-x="430" 
d="M770 590q27 -8 27 -28q-2 -22 -16 -39q-15 -17 -32 -12q-116 46 -277 34q-54 -88 -93.5 -172t-67.5 -165q-56 -161 -69 -250q-1 -11 -18 -18q-15 -6 -35 -4q-18 1 -31 13q-11 12 -5 34q27 94 67 192.5t94 205.5q-16 -19 -36 -45t-45 -59t-48 -63t-45 -58q-44 -53 -74 -78
q-28 -24 -71 -10q-41 13 -50 47q-8 35 14 85q11 26 23 51.5t26 51.5t24.5 45t18.5 33q4 6 5 8q12 20 37 15q24 -3 42 -19q17 -19 7 -39q-19 -31 -35 -58t-30 -50q-14 -24 -24 -43.5t-17 -35.5q-12 -33 7 -30q20 3 115 126q93 121 199 274q-107 -24 -213 -86q-23 -12 -42 6
q-20 20 -21 42q-3 23 21 35q165 61 306 76q11 17 22 33t22 31q34 49 57.5 82.5t37.5 52.5q13 13 36 6q23 -8 35 -29q13 -19 -5 -42q-27 -30 -51.5 -61.5t-47.5 -64.5q42 1 78 0t68 -4q32 -4 59.5 -7.5t50.5 -8.5z" />
    <glyph glyph-name="itt" unicode="itt" horiz-adv-x="606" 
d="M772 590q27 -8 26 -28q0 -21 -15 -39q-16 -16 -33 -12q-51 21 -118 30q-29 -45 -56.5 -91.5t-53.5 -94.5q-50 -95 -78 -170q-27 -73 -14 -95q10 -10 35 14q25 22 58 61q16 20 31 38.5t29 37.5t24 33t17 24q8 10 18 7q10 -1 16 -12q4 -9 -1 -20l-15 -21
q-23 -34 -45.5 -65.5t-45.5 -61.5q-46 -60 -88 -93q-43 -33 -82 -25q-40 12 -40 65q0 52 29 133q15 41 33.5 83t41.5 87t46 87.5t48 84.5h-34t-34 -2q-51 -89 -90.5 -173t-67.5 -165q-29 -81 -45.5 -143t-23.5 -106q-3 -12 -19 -18q-14 -6 -35 -4q-17 1 -30 13q-11 11 -5 34
q27 94 67 192.5t94 205.5q-16 -19 -36.5 -45.5t-45.5 -60.5t-47 -63.5t-42 -54.5q-20 -26 -36.5 -44t-29.5 -29q-26 -21 -59 -23q-31 0 -53 17q-22 18 -25 44q-3 28 19 78q11 26 23 52t26 52t24.5 45t18.5 32q2 2 2.5 4t2.5 4q12 19 37 15q25 -3 42 -19q17 -19 7 -39
q-20 -33 -36 -59.5t-29 -48.5q-13 -21 -22.5 -40.5t-17.5 -36.5q-14 -35 6 -32q19 1 112 125q47 61 96 129.5t102 144.5q-115 -24 -209 -80q-24 -12 -42 4q-19 15 -22 39q-2 23 22 35q82 30 157.5 49t144.5 27q14 20 26.5 38.5t25.5 36.5q36 53 61 88.5t39 55.5q13 15 36 7
q23 -9 36 -29q13 -21 -5 -43q-31 -35 -59 -71t-54 -75q34 1 66 0q41 66 70.5 107t48.5 61q18 15 39 3t30 -36q9 -23 -10 -44q-37 -37 -81 -97q29 -3 53 -6.5t44 -7.5z" />
    <glyph glyph-name="ill" unicode="ill" horiz-adv-x="622" 
d="M564 821q13 15 36 7q24 -10 35 -29q14 -20 -5 -43q-60 -68 -109 -141t-90 -151t-71.5 -151t-53.5 -142q-46 -139 -56 -213q-3 -12 -19 -18q-15 -6 -35 -4q-18 1 -31 13q-11 12 -5 34q27 94 67 192.5t94 205.5q-16 -19 -36.5 -46.5t-46.5 -63.5q-21 -30 -42 -58t-42 -55
q-41 -51 -71 -75q-29 -20 -57 -22q-28 0 -50 15q-22 16 -25 46q-3 29 17 80q10 26 21.5 51t25.5 51t24.5 45t18.5 32q4 6 5 8q12 20 37 15q26 -3 42 -19q17 -17 8 -39q-20 -32 -36 -58.5t-29 -48.5q-24 -43 -40 -79q-14 -33 3 -32q15 0 89 93q72 91 162 219q45 64 85.5 123
t78.5 114q36 53 61.5 88.5t39.5 55.5zM715 778q17 15 38 3q23 -13 30 -36q9 -23 -10 -44q-34 -35 -71.5 -85t-79.5 -117t-76 -130.5t-61 -124.5q-54 -121 -38 -154q10 -10 35 14q25 22 58 61q16 20 31 38.5t29 37.5t24 33t17 24q8 10 18 7q10 -1 16 -12q5 -8 -1 -20
q-4 -5 -7.5 -10t-6.5 -10q-23 -35 -46 -66.5t-46 -60.5q-46 -61 -88 -93q-41 -34 -82 -26q-48 15 -39 89q11 75 55 177q47 107 106 211q30 54 58.5 100.5t55.5 86.5q27 41 47 67t34 40zM140 439q-15 11 -9 41q6 29 20 60q15 31 26 47q17 18 40 11q25 -6 39 -26q14 -18 0 -42
q-6 -8 -14 -17.5t-19 -21.5q-21 -26 -45 -42q-22 -18 -38 -10z" />
    <glyph glyph-name="el" unicode="el" horiz-adv-x="529" 
d="M669 821q13 13 36 6q23 -8 38 -29q15 -19 -2 -42q-125 -137 -202 -287q-39 -76 -68.5 -147t-49.5 -139q-41 -134 -51 -210q-3 -12 -19 -18q-17 -6 -37 -2q-21 4 -33 16t-6 34q28 94 67.5 192.5t93.5 205.5l-4 -6q-12 -18 -33 -45.5t-51 -64.5q-58 -75 -133 -139
q-73 -64 -148 -75q-55 -2 -79 25q-25 26 -25 69q0 46 17 87q46 112 138 181q52 34 91 31q38 -3 50 -35q12 -33 -18 -85q-31 -50 -79 -83q-50 -35 -96 -30q-12 -18 -13 -38q-1 -22 7 -38q9 -15 29 -15q50 6 121 71q35 33 70.5 73t73.5 89q38 48 73.5 96t70.5 98
q34 50 62.5 92t52.5 78q20 31 34 51.5t22 32.5zM147 350q-11 -11 -20.5 -22.5t-18.5 -23.5q-19 -23 -24 -34q23 3 51 25q29 23 53 66q10 19 6 22t-17 -7q-12 -8 -30 -26z" />
    <glyph glyph-name="ett" unicode="ett" horiz-adv-x="718" 
d="M951 637q8 -3 10 -17q0 -7 -0.5 -14t-2.5 -15q-4 -16 -14 -27q-9 -10 -21 -7q-58 19 -143 31q-31 -46 -60.5 -94.5t-57.5 -100.5q-58 -105 -87 -184q-31 -80 -18 -104q10 -10 35 14q25 22 58 61q16 20 31 38.5t29 37.5t24 33t17 24q8 10 18 7q10 -1 16 -12q5 -8 -1 -20
l-15 -21q-23 -34 -45.5 -65.5t-45.5 -61.5q-23 -29 -44.5 -52t-43.5 -40q-41 -34 -82 -26q-42 12 -40 71q3 58 36 144q17 43 37 87.5t45 92.5t50 92.5t51 86.5q-17 1 -34 1.5t-35 0.5q-111 -188 -173 -360q-62 -174 -75 -265q-3 -12 -19 -18q-15 -6 -35 -4q-18 1 -30 13
t-6 34q27 94 67 192.5t94 205.5q-3 -3 -4 -6q-13 -18 -33.5 -45.5t-50.5 -64.5q-29 -38 -62.5 -72.5t-70.5 -66.5q-38 -33 -75 -51.5t-73 -23.5q-55 -1 -79 25q-25 26 -25 69q0 46 17 87q46 112 138 181q52 34 91 31q38 -3 50 -35q12 -33 -18 -85q-31 -50 -79 -83
q-50 -35 -96 -30q-12 -18 -13 -38q-1 -22 7 -38q9 -15 29 -15q52 6 124 77q37 35 74.5 79t77.5 96t77.5 104t72.5 105q-60 -3 -120.5 -11.5t-123.5 -22.5q-62 -14 -120.5 -34.5t-115.5 -48.5q-16 -5 -27 14q-11 22 -11 44q1 24 20 33q148 46 288 69q69 11 133 17t124 8
q19 29 35.5 53.5t30.5 47.5q22 34 37.5 56.5t23.5 34.5q13 15 36 6q23 -8 36 -28q12 -20 -5 -43q-51 -57 -99 -125q18 -1 34.5 -1t33.5 -1q32 49 55.5 81.5t39.5 47.5q17 15 38 3q22 -12 31 -36q9 -22 -11 -44q-12 -12 -25 -27t-27 -33q43 -5 73 -9.5t47 -9.5zM152 345
q-11 -11 -20.5 -22.5t-18.5 -23.5q-19 -23 -24 -34q23 3 51 25q29 23 53 66q10 19 6 22t-17 -7q-12 -8 -30 -26z" />
    <glyph glyph-name="ell" unicode="ell" horiz-adv-x="719" 
d="M693 861q12 15 36 6q24 -8 38 -28q15 -21 -3 -43q-129 -150 -206 -303q-40 -78 -71.5 -152t-57.5 -145q-50 -143 -56 -223q-3 -12 -19 -18t-37 -2q-19 4 -33 16q-11 11 -5 34q27 94 67 192.5t94 205.5q-2 -1 -5 -6q-23 -35 -83 -110q-61 -76 -134 -139q-73 -64 -148 -75
q-55 -2 -79 25q-25 28 -25 69q0 42 17 87q48 112 138 181q52 34 91 31t50 -35q12 -32 -17 -85q-30 -48 -80 -83t-95 -30q-11 -15 -14 -38q-1 -20 7 -38q9 -15 29 -15q51 6 122 74q35 35 72.5 77t75.5 93q39 51 76.5 102t72.5 103q70 103 120 180q23 35 38 57.5t24 34.5z
M150 350q-11 -11 -20.5 -22.5t-18.5 -23.5q-19 -24 -23 -34q22 3 50 25q15 11 28 27.5t26 38.5q9 19 6 22q-5 3 -18 -7q-12 -8 -30 -26zM833 798q17 15 38 3q22 -12 31 -36q9 -22 -11 -44q-34 -35 -71.5 -85t-79.5 -117t-75.5 -130.5t-61.5 -124.5q-54 -121 -38 -154
q10 -10 35 14q25 22 58 61q16 20 31 38.5t29 37.5t24 33t17 24q8 10 18 7q10 -1 16 -12q5 -8 -1 -20q-4 -5 -7.5 -10t-6.5 -10q-47 -70 -91 -127q-23 -30 -45 -53t-44 -40q-41 -34 -82 -26q-48 15 -38 89q9 73 54 177q47 107 106 211q30 54 59 100.5t55 86.5q27 41 47 67
t34 40z" />
    <glyph glyph-name="ul" unicode="ul" horiz-adv-x="659" 
d="M785 801q12 13 36 6q23 -8 35 -29q12 -20 -5 -42q-119 -137 -192 -283q-73 -145 -118 -286q-23 -69 -36.5 -122.5t-19.5 -91.5q-3 -12 -19 -18t-37 -2q-19 4 -33 16q-11 11 -5 34q27 94 67 192.5t94 205.5q-6 -7 -15 -20t-23 -33q-16 -24 -34 -50.5t-39 -55.5
q-43 -59 -84 -98q-41 -40 -71 -34q-33 10 -48 51q-16 38 -7 94q-6 -6 -11.5 -12.5t-11.5 -13.5q-16 -20 -33 -39t-34 -37q-34 -35 -77 -60q-51 -24 -85 -5q-36 21 -39 64q2 33 26 88q13 28 26.5 55.5t28.5 54.5q16 27 28 46.5l20 32.5q13 16 36 9q22 -7 35 -25q14 -18 2 -31
q-9 -9 -29 -46q-11 -19 -22.5 -39t-22.5 -43t-18.5 -41.5t-11.5 -33.5q-9 -30 10 -22q36 19 85 79t93 123q22 32 37 55t23 37q11 17 28 15q18 0 35 -11q16 -11 21 -24q3 -14 -3 -24q-2 -4 -7 -13.5t-13 -26.5q-15 -33 -27 -69q-6 -18 -9 -36t-5 -35q-2 -34 15 -35
q24 8 106 115q83 110 173 242q46 66 82.5 120t64.5 96q16 24 25.5 37.5t12.5 18.5z" />
    <glyph glyph-name="ut" unicode="ut" horiz-adv-x="673" 
d="M981 542q-94 31 -245 40q-108 -175 -171 -352q-64 -179 -77 -272q-1 -11 -18 -18q-15 -6 -38 -4q-20 1 -33 13q-11 12 -5 34q27 94 67 192.5t94 205.5q-6 -7 -15 -20t-22 -33q-16 -24 -34.5 -50t-39.5 -55q-41 -57 -83 -99q-43 -40 -71 -34q-34 10 -49 51q-16 38 -7 94
q-5 -6 -11 -12.5t-11 -13.5q-17 -20 -33.5 -39t-34.5 -37q-35 -37 -76 -60q-51 -24 -86 -5q-36 21 -39 64q1 30 26 88q13 28 26.5 55.5t29.5 54.5q15 27 27 46.5l20 32.5q15 16 36 9q24 -8 35 -25q14 -18 2 -31q-9 -9 -29 -46q-11 -19 -22 -39t-22 -43q-21 -43 -31 -75
q-9 -30 11 -22q35 20 84 79q49 60 93 123q22 32 37 55t23 37q12 16 29 15q17 0 29 -6q11 -4 21 -19q8 -13 2 -24q-2 -4 -7 -13.5t-13 -26.5q-14 -32 -28 -74q-13 -42 -14 -75q0 -35 16 -36q18 5 68 67q51 63 118 157q34 48 66.5 94t64.5 93q-67 -1 -135 -8t-139 -21
q-142 -29 -269 -90q-17 -5 -27 14q-11 19 -11 44q1 24 20 33q85 27 165.5 45.5t158.5 29.5q156 21 283 21q19 29 35 52.5t29 43.5q16 23 25 36.5t12 17.5q13 13 36 6q23 -8 35 -29q13 -19 -5 -42q-19 -21 -36.5 -42.5t-34.5 -44.5q170 -10 226 -27q7 -3 9 -17t-3 -29
q-5 -17 -13 -27q-9 -10 -21 -7z" />
    <glyph glyph-name="utt" unicode="utt" horiz-adv-x="848" 
d="M1007 622q7 -3 9 -17t-3 -29q-5 -17 -13 -27q-9 -10 -21 -7q-20 7 -41.5 12t-45.5 10q-31 -46 -60 -94t-57 -99q-53 -99 -84 -179q-30 -80 -17 -102q10 -10 35 14q13 11 27.5 26t30.5 35t31 38.5t29 37.5t24 33t17 24q8 10 18 7q10 -1 16 -12q6 -9 -1 -20
q-4 -5 -7.5 -10.5t-6.5 -10.5q-23 -34 -45.5 -65.5t-45.5 -61.5q-23 -29 -45 -52t-44 -40q-41 -34 -82 -26q-42 12 -40 70q3 60 35 143q17 42 37 86.5t44 91.5q49 93 100 179q-17 2 -35.5 3t-38.5 2q-50 -89 -90.5 -177.5t-72.5 -179.5q-64 -180 -78 -272q-1 -11 -18 -18
q-18 -6 -38 -2q-19 4 -33 16q-11 12 -5 34q27 94 67 192.5t94 205.5q-6 -7 -15 -20t-23 -33q-16 -24 -34 -50.5t-39 -55.5q-43 -59 -84 -98q-42 -40 -70 -34q-34 10 -49 51q-16 38 -7 94q-5 -6 -11 -12.5t-11 -13.5q-17 -20 -34 -39t-34 -37q-33 -35 -76 -60q-52 -24 -86 -5
q-36 21 -39 64q2 33 26 88q13 28 26.5 55.5t29.5 54.5q15 27 27 46.5l20 32.5q15 16 36 9q24 -8 35 -25q14 -18 2 -31q-9 -9 -29 -46q-11 -19 -22 -39t-22 -43q-21 -43 -31 -75q-9 -30 11 -22q35 20 84 79q49 60 93 123q22 32 37 55t23 37q12 16 29 15q16 0 29 -8
q13 -10 21 -22q8 -13 2 -24q-2 -4 -7 -13.5t-13 -26.5q-15 -33 -27 -72q-6 -20 -9 -38t-5 -35q-2 -33 15 -35q18 5 66 66q25 32 54 70.5t61 85.5q33 48 65.5 94.5t64.5 94.5q-133 -2 -271 -30q-70 -14 -136.5 -36t-129.5 -53q-17 -5 -27 14q-11 19 -11 44q0 24 20 33
q169 53 320 74q77 11 147 16t133 6l41 61.5t34 51.5q18 28 29 44t14 20q12 15 36 7q24 -10 35 -29q12 -21 -5 -43q-48 -54 -90 -114q20 -1 37.5 -1.5t34.5 -2.5q68 103 98 133q16 15 39 3q21 -12 30 -36q9 -22 -11 -44q-27 -27 -58 -67q44 -6 65 -12z" />
    <glyph glyph-name="ull" unicode="ull" horiz-adv-x="860" 
d="M799 828q13 15 36 7q23 -9 36 -29q12 -21 -5 -43q-109 -124 -195 -295q-88 -173 -128 -305q-21 -67 -34 -119.5t-19 -90.5q-3 -12 -18 -18t-38 -1q-19 3 -33 15q-11 11 -5 34q27 94 67 192.5t94 205.5q-6 -7 -15 -20t-23 -33q-16 -24 -34 -50t-39 -55q-42 -59 -84 -99
q-41 -40 -71 -34q-33 10 -48 51q-16 38 -7 94q-5 -6 -11 -12.5t-12 -13.5q-16 -20 -33 -39t-34 -37q-34 -35 -77 -60q-51 -24 -85 -5q-36 21 -39 64q2 33 26 88q13 28 26.5 55.5t28.5 54.5q16 27 28 46.5l20 32.5q13 16 36 9q22 -7 35 -25q14 -18 2 -31q-9 -9 -29 -46
q-11 -19 -22.5 -39t-22.5 -43t-18.5 -41.5t-11.5 -33.5q-9 -30 10 -22q36 19 85 79t93 123q22 32 37 55t23 37q11 17 23 15q13 0 27 -8q16 -9 24 -22t2 -24q-5 -8 -18 -42q-6 -18 -12 -35.5t-11 -34.5q-6 -17 -9 -35t-5 -36q-3 -36 14 -37q26 8 106 118q41 56 84 117.5
t90 130.5t84.5 125t66.5 101q18 28 28.5 44t13.5 20zM954 778q17 15 38 3q23 -13 30 -36q9 -23 -10 -44q-34 -35 -71.5 -85t-79.5 -117t-76 -130.5t-61 -124.5q-54 -121 -38 -154q10 -10 35 14q25 22 58 61q16 20 31 38.5t29 37.5t24 33t17 24q8 10 18 7q10 -1 16 -12
q5 -8 -1 -20q-4 -5 -7.5 -10t-6.5 -10q-23 -35 -46 -66.5t-46 -60.5q-46 -61 -88 -93q-41 -34 -82 -26q-48 15 -39 89q11 75 55 177q47 107 106 211q30 54 58.5 100.5t55.5 86.5q27 41 47 67t34 40z" />
    <glyph glyph-name="ol" unicode="ol" horiz-adv-x="570" 
d="M591 298q8 10 18 7q10 -1 16 -12q5 -8 -1 -20q-25 -35 -51 -69.5t-55 -66.5q-57 -66 -112 -103q-56 -38 -101 -27q-39 13 -39 64q0 26 6 57.5t20 69.5q27 76 69 162q-57 -15 -125 -13q17 -57 2 -132t-62 -122q-48 -48 -108 -48q-62 2 -91 39q-29 38 -17 101q6 32 23.5 66
t45.5 72q15 15 36 7q23 -9 35 -27q13 -19 2 -32q-43 -46 -57 -86q-15 -40 -4 -66t43 -12q31 13 60 65q26 52 22 107q-6 55 -37 80q-53 6 -67 31q-13 24 4 47q19 22 55 19q38 -3 82 -50q101 -15 191 18q0 1 1 2.5t2 4.5q7 14 20.5 38.5t33.5 61.5q20 36 43.5 74t50.5 77
q27 40 54 70t54 52q54 43 94 12q30 -32 3 -113q-27 -80 -101 -165q-37 -43 -79.5 -76t-91.5 -59q-33 -54 -57.5 -102t-39.5 -93q-30 -87 -21 -112q8 -24 41 -3q17 11 34.5 26.5t37.5 36.5q20 20 37.5 40.5t34.5 41.5q17 20 28 35t18 25zM707 735q-9 3 -42 -38
q-17 -20 -32 -40.5t-29 -41.5t-26.5 -40t-23.5 -37q-12 -17 -19.5 -28.5t-10.5 -16.5q79 58 130 135q50 77 53 107z" />
    <glyph glyph-name="ot" unicode="ot" horiz-adv-x="619" 
d="M823 640q30 -9 30 -29q-2 -23 -18 -38q-17 -17 -35 -11q-67 26 -174 37q-12 -16 -24 -31.5t-23 -32.5q-48 -72 -86 -140t-64 -134q-54 -133 -41 -171q16 -17 51 3q33 20 76 63q21 20 40 40.5t36 40.5q17 21 29 36t19 25q10 10 20 7q11 -2 17 -12q7 -9 0 -20
q-26 -35 -53 -69.5t-57 -66.5q-30 -33 -60 -58.5t-59 -44.5q-60 -37 -109 -27q-42 13 -42 73q2 61 31 143q15 42 33 84.5t40 85.5q-67 -44 -151 -46q20 -56 11 -124q-9 -67 -58 -117q-50 -52 -118 -56q-69 -4 -106 34t-25 101q10 61 70 138q15 15 39 7q25 -10 40 -27
q15 -19 3 -32q-44 -44 -61 -87q-15 -43 2 -66q16 -25 50 -8q36 17 59 68q26 51 18 103t-42 78q-59 6 -75 31q-15 25 3 47q19 22 59 19q42 -3 92 -50q80 -10 141 25q25 13 48.5 31t46.5 41t44.5 48t42.5 53q-71 2 -140.5 -3.5t-140.5 -16.5q-70 -11 -128 -28.5t-106 -40.5
q-26 -11 -46 5t-23 40q-3 23 23 34q78 24 156 39t158 23q159 15 293 9q6 9 12.5 18t13.5 18q43 61 79 106q16 17 42 8q25 -8 41 -29q14 -21 -5 -40q-42 -36 -86 -87q48 -4 84.5 -9t62.5 -10z" />
    <glyph glyph-name="ott" unicode="ott" horiz-adv-x="680" 
d="M899 622q28 -9 25 -31t-20 -36q-17 -16 -35 -10q-25 13 -56.5 22t-69.5 17q-32 -45 -63 -93t-61 -101q-29 -54 -52.5 -101t-40.5 -89q-33 -86 -19 -110q10 -10 35 14q25 22 58 61q16 20 31 38.5t29 37.5t24 33t17 24q8 10 18 7q10 -1 16 -12q4 -9 -1 -20l-15 -21
q-23 -34 -45.5 -65.5t-45.5 -61.5q-23 -29 -44.5 -52t-43.5 -40q-42 -34 -82 -26q-44 13 -41 75q5 62 40 151q18 45 40 91t48 94t52 92.5t52 85.5q-17 2 -33.5 3t-33.5 1q-22 -35 -43.5 -68t-42.5 -65q-6 -11 -12.5 -21t-11.5 -20q-64 -119 -100 -238q-37 -120 -36 -185
q-1 -16 -24 -22q-22 -6 -45 2q-20 9 -19 34q13 69 51 181q19 56 38 104.5t39 90.5q-62 -44 -139 -46q18 -66 6 -131q-14 -66 -61 -118q-48 -52 -109 -52q-62 0 -91 38q-30 37 -19 101q5 32 21.5 66t44.5 72q15 15 36 7q22 -9 36 -27q12 -20 1 -32q-43 -46 -56 -88
q-13 -43 -1 -67q12 -23 44 -9q33 13 57 65q25 51 20 107q-6 55 -37 80q-53 6 -67 31q-13 24 4 47q19 22 55 19q38 -3 83 -50q111 -15 190 76q44 50 91 119q-51 -2 -100 -7t-97 -13q-47 -9 -87.5 -21t-74.5 -28q-27 -11 -43 7q-17 16 -19 40q0 24 26 33q111 30 222 42
q57 6 110.5 8.5t106.5 1.5q2 4 4.5 7t4.5 7q31 46 57.5 83t49.5 66q17 17 40 8q24 -9 36 -29q12 -21 -6 -39q-24 -23 -47 -49t-45 -57q17 -2 33 -2.5t32 -2.5q51 75 76 100q18 14 39 2q21 -10 30 -35q9 -24 -10 -45l-16 -16t-17 -18q35 -6 62 -11.5t47 -10.5z" />
    <glyph glyph-name="otl" unicode="otl" horiz-adv-x="682" 
d="M771 756q18 13 39 2q21 -10 30 -35q9 -24 -11 -45q-34 -34 -71 -82.5t-77 -113.5q-80 -128 -132 -243t-36 -149q11 -9 35 14q13 11 27.5 26t30.5 35q17 20 31.5 38.5t28.5 37.5t24.5 33t16.5 24q10 10 19 7q11 -2 15 -12q6 -9 -1 -20q-3 -5 -6.5 -10.5t-7.5 -10.5
q-23 -34 -45.5 -65.5t-45.5 -61.5q-44 -58 -88 -92q-43 -34 -83 -26q-42 12 -40 69t33 139q16 42 35.5 85t43.5 88q24 46 48 89t50 84q-30 14 -70 21q-18 -30 -35 -58.5t-34 -56.5q-6 -11 -12 -21l-12 -20q-69 -121 -105 -238q-19 -60 -27.5 -106t-8.5 -79q-1 -16 -24 -22
q-22 -6 -44 2q-22 9 -19 34q6 35 18.5 80t31.5 101q37 111 78 195q-64 -45 -140 -46q16 -59 6 -123q-12 -66 -59 -119t-112 -56t-97 35t-17 101t72 138q13 15 36 7q22 -9 35 -27t2 -32q-42 -43 -62 -87q-18 -42 -3 -66q14 -24 48 -9q33 16 60 69q27 52 21 104q-6 51 -37 77
q-54 6 -68 31q-12 26 5 47q17 22 54 19t83 -50q111 -15 190 76q20 23 41 50.5t44 59.5q-54 2 -107 -0.5t-106 -10.5q-103 -15 -154 -46q-17 -9 -31 8q-14 16 -15 39q-2 23 16 30q99 35 217 42q60 4 115 4t108 -5q4 6 8 12.5t8 12.5q31 46 58 83t50 66q17 17 40 8t35 -29
q12 -21 -6 -39q-53 -50 -104 -124q45 -8 71 -15q64 97 95 128z" />
    <glyph glyph-name="om" unicode="om" horiz-adv-x="1033" 
d="M1065 299q10 7 19 3q10 -5 11 -15q3 -10 -10 -23q-24 -21 -48.5 -40.5t-50.5 -37.5q-26 -19 -50 -32t-47 -21q-44 -16 -75 4q-26 26 -17 74q11 52 25 87q2 7 4 12t3 9q3 7 1 9q-29 -17 -81 -85q-14 -19 -29 -37t-31 -36q-32 -35 -62 -53q-30 -20 -57 -6q-31 19 -22 73
q5 26 14.5 54.5t23.5 57.5q14 30 25.5 53.5t21.5 42.5l2 4q-27 -27 -57 -63t-62 -82q-56 -79 -111 -139q-30 -32 -57 -46q-28 -15 -50 -5q-31 15 -23 67q7 51 33 111q12 31 24 57t23 49q5 12 9.5 21t7.5 16q4 13 3 13l-160 -19q50 -42 42 -121q-7 -78 -62 -139
q-55 -59 -123 -68q-69 -10 -98 28q-28 39 -15 106q13 65 71 141q13 15 36 7q21 -8 35 -27q13 -18 2 -32q-43 -45 -60 -89q-18 -44 -7 -69q12 -23 50 -1q40 24 66 77q27 53 18 109t-64 67q-16 3 -21 22q-3 19 8 41q12 21 32 17q66 -18 136 -15q69 3 132 21q33 5 56 -15
q22 -21 28 -47q6 -28 -9 -46q-31 -37 -63 -97q-33 -62 -41 -93q53 49 123 146q23 32 47 62t48 59q50 59 82 76q34 19 64 -1q30 -19 24 -53q-7 -32 -32 -77q-4 -8 -7.5 -14.5t-7.5 -13.5q-9 -19 -17.5 -36.5t-16.5 -34.5t-13 -30t-9 -23q-7 -21 -1 -16q8 5 33 38q15 20 34 43
t43 50t45 45t38 29q34 21 64 1q31 -20 23 -50q-7 -29 -26 -75q-11 -28 -16 -52q-5 -22 5 -26q15 -5 50 12t68 42q17 13 31 24t25 21z" />
    <glyph glyph-name="on" unicode="on" horiz-adv-x="807" 
d="M840 308q9 7 18 0q11 -6 12 -19q2 -12 -11 -22q-6 -5 -14.5 -12t-19.5 -17q-18 -15 -38 -31t-43 -33q-47 -35 -91 -54q-47 -20 -79 -5q-30 18 -24 62q6 43 29 94q11 25 21 45.5t20 37.5l2 4q-36 -22 -75 -68q-20 -24 -40.5 -50t-41.5 -55q-12 -16 -23.5 -31t-23.5 -30
q-12 -16 -25 -28t-27 -21q-26 -16 -49 -7q-31 15 -20 67q9 51 36 113q27 61 49 104q21 42 18 43l-185 -19q45 -45 39 -120q-4 -74 -59 -138q-52 -63 -122 -69q-70 -5 -98 35q-30 41 -15 102q14 63 70 137q15 15 36 7q23 -9 35 -27q13 -19 2 -32q-43 -46 -62 -87
q-20 -42 -9 -66q10 -25 45 -8q34 19 65 70q31 52 25 113t-61 72q-17 3 -20 22q-4 19 8 41q11 22 32 17q66 -18 147 -15q80 3 145 21q33 4 57 -10q22 -16 28 -42q6 -27 -10 -46l-15 -20t-20 -30q-23 -35 -42 -75q-11 -20 -17.5 -35.5t-11.5 -26.5q9 11 21.5 27t27.5 37
q20 27 42 55.5t48 57.5q48 58 99 92q50 32 89 5q23 -21 6 -68q-15 -48 -41 -97q-9 -18 -15 -33t-11 -27q-9 -24 2 -27q12 -3 55 24q21 14 53.5 38t76.5 58z" />
    <glyph glyph-name="op" unicode="op" horiz-adv-x="815" 
d="M854 306q13 4 19 -3q7 -7 5 -19q-1 -9 -13 -16q-11 -5 -28.5 -12t-40.5 -17q-24 -11 -47.5 -21t-47.5 -21q-23 -11 -41 -20t-30 -17q-57 -50 -110 -73q-49 -22 -72 -4q-23 21 -2 51q22 31 103 65q26 12 57 44q31 33 51 66q21 32 19 49q-3 15 -41 -6q-26 -16 -58 -41.5
t-70 -62.5q-38 -38 -78 -87.5t-83 -112.5q-86 -128 -169 -315q-11 -18 -33 -18q-23 1 -39 15q-17 13 -9 33q7 14 22.5 44.5t41.5 79.5q26 50 54.5 105t60.5 116t58 114t49 100q44 94 41 107q-33 -18 -101 -33q-33 -8 -60.5 -13t-48.5 -7q36 -29 41 -78q4 -46 -22 -108
q-27 -59 -75 -101q-47 -41 -100 -44q-56 0 -81 39q-27 37 -16 101q12 65 68 138q15 15 36 7q23 -9 35 -27q13 -19 2 -32q-44 -45 -57 -87q-15 -42 -6 -66q9 -25 35 -16q39 20 74 89q34 68 23 116q-12 48 -66 58q-17 3 -18 27q-1 21 10 44q12 22 33 19q92 -18 175 -3
q42 8 73.5 16.5t53.5 18.5q4 2 7 3l6 2q24 8 43 1q21 -8 32 -22q11 -16 7 -32q-3 -8 -10.5 -25t-21.5 -43l-28 -52t-29 -54q-15 -27 -26 -47.5t-19 -34.5q28 43 93 116q32 38 67 69.5t72 56.5q68 42 106 22q37 -20 33 -75q-6 -56 -65 -124q8 4 19.5 8t25.5 9l57 21
q20 8 33.5 12.5t20.5 7.5z" />
    <glyph glyph-name="or" unicode="or" horiz-adv-x="734" 
d="M782 277q-76 -77 -140 -94q-63 -17 -80 27q-15 45 49 145q-25 -13 -56.5 -42.5t-71.5 -74.5t-72.5 -84t-58.5 -74q-20 -25 -47 -23q-27 3 -42 21q-16 19 -7 42q13 32 28.5 64t32.5 63q18 32 33 58t29 47l21 31.5t8 11.5l-183 -19q30 -41 18 -115q-12 -75 -68 -143
q-57 -68 -131 -73q-55 0 -82 39q-27 38 -12 101q13 62 82 138q16 15 37 7q20 -9 31 -27q10 -19 -3 -32q-49 -44 -64 -87q-15 -41 -4 -63q11 -21 40 -11q30 9 55 46q14 19 23 40t15 44q12 47 2 82q-9 35 -50 43q-12 2 -14 17q-1 15 6 34q3 9 8 16.5t11 13.5q11 12 27 9
q63 -18 144 -15q41 1 75 3.5t63 7.5q28 3 48 -14q19 -18 24 -42q4 -24 -13 -43q-86 -89 -138 -193q11 14 28 34q20 26 45.5 55.5t57.5 63.5q60 67 124 113q62 45 106 25q23 -17 11 -49t-36 -70q-8 -12 -14.5 -23.5t-11.5 -22.5q-12 -22 -10 -37q4 -13 38 4q33 17 73 54
q9 8 17 5q7 -3 9 -12q1 -9 -10 -22z" />
    <glyph glyph-name="ff" unicode="ff" horiz-adv-x="469" 
d="M507 306q11 10 21 4q11 -6 14 -20t-11 -28q-59 -57 -111 -74q-49 -17 -87 -14q6 -72 -18 -153q-13 -40 -30.5 -74t-40.5 -61q-45 -55 -99 -43q-47 17 -43 79q3 62 42 152q20 45 45 92.5t55 98.5q-42 -42 -85 -63q-42 -21 -74 -24q7 -71 -21 -161t-75 -151
q-48 -61 -102 -49q-47 16 -39 90q7 71 51 175q22 51 48.5 102.5t57.5 105.5q32 53 63.5 99.5t63.5 88.5q63 83 110 116q18 12 37 -4q19 -15 27 -39q6 -23 -10 -38q-68 -52 -129 -131q-31 -40 -53.5 -74.5t-39.5 -64.5q44 -15 93 16q49 29 97 80q24 25 45 48t38 45
q10 11 17.5 20t14.5 17q16 14 39 3t35 -32q13 -20 -2 -37q-53 -48 -81 -87q-29 -38 -49 -73q34 -16 67 -10q31 4 64 26q16 11 30 22.5t25 24.5zM-68 -96q14 7 37 44q25 40 42 95q18 58 14 119q-29 -57 -50 -103t-33 -83q-24 -74 -10 -72zM190 -70q14 7 34 38q11 16 20 36
t17 46t10.5 53.5t0.5 58.5q-59 -113 -77 -173q-19 -62 -5 -59z" />
    <glyph glyph-name="oo" unicode="oo" horiz-adv-x="666" 
d="M250 264q-9 -32 -39 -79q-14 -24 -32.5 -44.5t-40.5 -38.5q-46 -36 -99 -35q-39 3 -63 37t-10 94q15 52 40 90q13 19 26 34.5t27 28.5q15 12 31 8q17 -5 29 -21q-24 46 -15 90q9 42 39 63q33 21 66 12q33 -11 51 -54q19 -42 8 -123q27 -10 62 -5q35 6 57 16q27 8 50 -18
q-30 50 -8 89q23 38 64 47q44 9 73 -23q31 -33 19 -123q30 -9 68 -3q19 3 34.5 6.5t27.5 7.5q14 3 17 -6q4 -10 1 -23t-12 -17q-48 -20 -88 -23q-41 -3 -65 3q-9 -30 -37 -71q-29 -43 -72 -74q-46 -32 -99 -31q-39 1 -63 32t-12 84q6 20 14.5 38t19.5 35q-44 -9 -69 -3z
M447 303q1 -6 0 -12q-2 -7 -12 -14q-29 -24 -48 -54q-21 -32 -24 -55q-3 -22 18 -22q34 8 68 48q35 40 49 76q-7 2 -13.5 5t-14.5 8q-17 10 -23 20zM495 395q-8 -5 -8 -17q0 -13 7 -26q5 -13 21 -21q4 16 3 33q-1 16 -7 26q-6 9 -16 5zM129 319q3 -6 0 -13q-2 -7 -12 -16
q-27 -25 -49 -60q-20 -35 -25 -61q-3 -26 18 -25q33 7 69 53q37 48 50 85q-13 4 -28 15q-8 5 -13 10.5t-10 11.5zM175 432q-7 -5 -7 -21q1 -8 2.5 -17t5.5 -18q8 -18 22 -26q5 21 2 40q-2 22 -8 34q-6 13 -17 8z" />
    <glyph glyph-name="th" unicode="th" horiz-adv-x="609" 
d="M340 842q12 12 30 6t30.5 -20.5t15.5 -33t-13 -31.5q-57 -50 -108 -114q51 3 98 3q25 35 48 64t44 50q13 13 31 8.5t30 -18.5t13.5 -32.5t-16.5 -32.5q-8 -7 -18 -16.5t-22 -22.5q56 -2 92 -6q12 -2 17.5 -14t3.5 -25.5t-10.5 -23.5t-23.5 -8q-32 5 -64.5 8.5t-66.5 5.5
q-29 -38 -60.5 -84t-61.5 -96.5t-57 -103.5t-47 -105q12 17 31 42.5t42 55t49 59t51.5 54t49.5 42t43 21.5q20 4 37 -1t26 -19.5t7.5 -37t-17.5 -53.5l-30 -58t-26 -54.5t-18 -45t-5 -28.5q2 -10 15.5 -3.5t37 26t55 48.5t69.5 64q5 4 12 2.5t12 -7t5 -14t-9 -17.5
q-47 -46 -88 -83.5t-75.5 -62t-62.5 -33t-49 3.5t-20.5 40t11.5 61t28 67.5t29 59.5t14.5 36.5t-14.5 -0.5q-38 -27 -78 -74.5t-76 -99t-65.5 -98t-46.5 -71.5q-11 -17 -26.5 -20.5t-28.5 1.5t-21 17t-3 27q15 52 42 119.5t62.5 140.5t76 146t82.5 138q-52 0 -103 -3
q-41 -60 -75.5 -124t-62.5 -127.5t-49.5 -123t-36 -109t-21.5 -86t-6 -53.5t-15.5 -23.5t-35.5 -3t-33.5 15.5t-9.5 33q18 75 45.5 153t61 154.5t71 149.5t74.5 137q-90 -9 -174 -23t-155 -29.5t-124.5 -31.5t-83.5 -28q-13 -6 -26 4.5t-19 26t-2 31t24 20.5q75 19 152 34
t153 26t150 19t142 13q44 71 82 122.5t64 76.5z" />
    <glyph glyph-name="St" unicode="St" horiz-adv-x="889" 
d="M110 20q-33 -76 19 -82q50 -7 141 35q88 42 168 114q79 71 98 153q21 80 -67 153q-44 -32 -92 -71.5t-102 -90.5q-105 -98 -165 -211zM855 576q17 33 33.5 68t34.5 71q-124 -88 -222 -157t-173 -122q93 -87 99 -170q4 -83 -48 -156q-51 -73 -132 -137q-108 -88 -212 -117
q-103 -30 -169 -6t-66 99q2 76 98 198q49 61 129 133t193 156q-2 2 -3 2q-22 17 -42.5 36.5t-38.5 40.5q-38 44 -39 101q3 78 66 141q61 63 150 107q45 21 85.5 35t79.5 21q22 1 34 -25t9 -55q-4 -28 -28 -34q-26 -3 -56 -12.5t-65 -23.5q-70 -30 -125 -77q-53 -48 -55 -105
q1 -26 25 -51q22 -24 63 -57q60 41 124 85t131 92q68 48 139 98.5t147 104.5q18 13 41 -2t29 -30t-8 -32q-33 -42 -66 -95.5t-65 -121.5q25 1 50.5 1.5t53.5 2.5q94 4 172 9t144 11q23 -2 27 -25q3 -27 -6 -42q-9 -16 -29 -16q-60 2 -131 1.5t-155 -3.5q-41 -1 -81.5 -3
t-81.5 -4q-8 -14 -15.5 -28.5t-14.5 -29.5q-42 -89 -76 -172.5t-61 -163.5q-54 -157 -66 -245q-1 -13 -14 -19q-13 -7 -41 -4q-27 3 -39 15q-13 10 -7 34q48 129 93 246t89 225q16 38 30.5 72t28.5 65q-23 -2 -45.5 -3.5t-45.5 -3.5q-16 3 -21 18q-5 16 1 34q5 20 21 23
q29 0 59.5 0.5t63.5 1.5z" />
    <glyph glyph-name=".notdef" horiz-adv-x="0" 
 />
    <glyph glyph-name=".null" horiz-adv-x="0" 
 />
    <glyph glyph-name="nonmarkingreturn" unicode="&#xd;" horiz-adv-x="350" 
 />
    <glyph glyph-name="NULL" horiz-adv-x="0" 
 />
    <glyph glyph-name="NULL" horiz-adv-x="0" 
 />
    <glyph glyph-name="space" unicode=" " horiz-adv-x="350" 
 />
    <glyph glyph-name="exclam" unicode="!" horiz-adv-x="708" 
d="M514 886q20 32 54 29q34 -2 57 -24q22 -22 5 -48q-126 -164 -219 -324q-48 -81 -98.5 -172t-107.5 -195q-10 -18 -30 -19q-21 -3 -36 9q-14 12 -5 30q35 76 79 160t97 178t103.5 187.5t100.5 188.5zM57 -72q-58 -5 -56 30q0 35 36 74q36 41 83 54q39 6 41 -30
q1 -35 -26 -78q-28 -41 -78 -50z" />
    <glyph glyph-name="quotedbl" unicode="&#x22;" horiz-adv-x="379" 
d="M311 879q-14 -21 -28.5 -46t-29.5 -54t-27.5 -54.5t-22.5 -46.5q-15 -27 -42 -26q-29 1 -46 19q-18 18 -4 43q33 45 72 99q20 27 39.5 51t39.5 47q10 11 25 8q14 -4 23 -16t1 -24zM439 879q-26 -40 -58 -100q-15 -29 -27.5 -54.5t-22.5 -46.5q-14 -28 -42 -26
q-29 1 -46 19q-18 18 -3 43q31 45 72 99q20 27 39.5 51t38.5 47q10 11 25 8q16 -5 23 -16q9 -12 1 -24z" />
    <glyph glyph-name="numbersign" unicode="#" horiz-adv-x="795" 
d="M668 365q16 -3 20 -18q5 -16 -1 -30q-6 -15 -21 -18q-5 -1 -12.5 -2t-16.5 -2q-38 -5 -83 -12q-47 -8 -59 -20q-21 -26 -46.5 -62.5t-54.5 -84.5q-30 -48 -53 -85.5t-40 -66.5q-15 -18 -34 -14q-22 3 -28 17q-6 13 -3 26q7 16 42 69q17 26 35 53l36 54q17 29 29.5 47.5
t20.5 28.5q-8 -2 -14.5 -4t-12.5 -4q-56 -12 -75 -20q-18 -8 -28 -21q-13 -14 -29 -44q-8 -12 -17.5 -27.5t-23.5 -35.5q-5 -8 -9.5 -16t-9.5 -18q-11 -20 -19.5 -35t-15.5 -26q-12 -20 -36 -17q-26 6 -29 19q-3 15 7 34q7 14 17 33t24 42t26 44t23 41q-6 -2 -13.5 -4
t-15.5 -4q-9 -2 -17 -4l-16 -4q-17 -5 -22 -5q-14 0 -21 14q-4 7 -6.5 13t-3.5 12q-3 11 13 19q63 23 95 28q11 2 21.5 4.5t20.5 5.5q21 8 32 28q7 11 17 27.5t24 39.5l-113 -30q-18 -3 -28 9q-11 10 -11 26q0 15 16 23q71 26 151 43l27 6q24 9 57 55q17 23 33 46.5t30 47.5
q12 18 20.5 31.5t15.5 21.5q8 9 28 11q22 0 34 -11q15 -12 12 -25t-99 -148l133 20q5 4 27 29q11 13 22.5 27t24.5 29q8 9 15 16.5t12 14.5q5 6 9 10l6 6q17 14 36 11q19 -2 30 -14q12 -10 1 -27l-81 -94q14 2 28 3.5t29 3.5q31 3 45 3q11 0 11 -11q-2 -13 -9 -26
q-9 -15 -16 -18q-3 -2 -6 -2.5t-5 -1.5q-27 -2 -49.5 -4t-40.5 -6q-35 -7 -58 -24q-20 -15 -55 -60l-2 -2q1 0 4 0.5t8 1.5q16 4 47 9q16 2 26.5 3.5t17.5 1.5zM516 409q-10 -2 -18 -3.5t-15 -3.5q-14 -2 -27.5 -4.5t-27.5 -5.5q-29 -5 -46 -22q-8 -8 -23 -27.5t-38 -48.5
q26 7 42.5 11t24.5 5q38 5 65 19z" />
    <glyph glyph-name="dollar" unicode="$" horiz-adv-x="788" 
d="M718 691q19 -1 27 -20q7 -20 0 -40q-6 -19 -32 -24q-18 -2 -44 -6q-13 -2 -25.5 -4t-25.5 -4q-12 -3 -21 -5.5t-14 -4.5q-31 -53 -67.5 -115.5t-80.5 -135.5q105 -54 102 -117q-3 -59 -48 -108q-47 -48 -118 -81q-72 -31 -154 -42q-13 -20 -22.5 -35.5t-16.5 -28.5
q-5 -7 -8.5 -13.5t-6.5 -11.5q-10 -13 -28 -13q-16 0 -30 8q-12 9 -8 19q5 9 10.5 18.5t11.5 20.5q9 12 14 24q-71 -6 -113 8q-17 7 -18 27q-2 20 7 34q11 15 29 11q16 -5 33 -7t37 -4q40 -2 61 4q15 26 34 57t42 67q26 42 48.5 78.5t42.5 69.5q-82 53 -99 99q-18 47 8 88
q26 40 78 73t109 54q59 23 103 32q2 3 4.5 6.5t5.5 7.5q6 9 15 24q6 9 15.5 22.5t21.5 31.5q13 17 38 14q25 -5 35 -20q11 -15 0 -34l-8 -12l-8 -12q-1 -2 -5 -8q8 2 17 3t20 3t19 2h13zM257 54q49 9 97 35q23 14 41 29t32 32q29 35 26 70q-3 34 -48 61zM366 372
q23 40 47.5 80t49.5 81q10 19 21 36q-42 -11 -81 -31q-38 -21 -65 -49q-26 -29 -23 -59q4 -29 51 -58z" />
    <glyph glyph-name="percent" unicode="%" horiz-adv-x="730" 
d="M451 235q42 12 85 -2q40 -14 63 -48q21 -36 6 -88q-15 -44 -53 -84q-18 -20 -38 -36.5t-41 -30.5q-42 -28 -75 -34q-49 -9 -91 7q-40 17 -55 54q-14 40 12 92q28 58 80 105q49 45 107 65zM323 21q-22 -45 0 -56q23 -12 64 8q64 32 104 75q41 41 55 79q13 37 -3 52t-69 -8
q-19 -9 -38.5 -24t-42.5 -36q-44 -41 -70 -90zM277 687q22 6 49 12t60 11q64 10 133 12q70 2 118 -13q48 -14 59 -50q10 -35 -40 -102q-74 -92 -183 -207q-54 -57 -108.5 -113t-109.5 -112q-53 -54 -98 -101t-82 -87q-17 -16 -38 -6q-20 12 -29 33q-8 22 9 39
q78 68 153 139.5t148 148.5q73 76 140.5 153.5t129.5 158.5q60 77 -38 72q-45 -1 -98 -9q-26 -4 -49.5 -9.5t-45.5 -13.5q-19 -9 -16 -17q4 -10 19 -22q19 -14 34 -39q16 -32 -4 -75q-19 -42 -55 -76q-33 -33 -65 -46q-44 -17 -87 -12q-45 5 -68 31q-24 27 -13 80
q15 57 67 106q53 47 106 44q-31 27 -34 41q-4 16 36 29zM187 397q22 2 51 28q29 25 56 61q26 35 32 62q7 27 -18 33q-20 0 -49 -26q-28 -24 -55 -62q-26 -36 -33 -64q-8 -29 16 -32z" />
    <glyph glyph-name="ampersand" unicode="&#x26;" horiz-adv-x="868" 
d="M773 514q-35 -31 -75 -61.5t-86 -59.5t-90.5 -56.5t-89.5 -53.5q-23 -14 -44.5 -26.5t-41.5 -25.5q0 -37 10 -64q5 -15 11.5 -30t14.5 -29q31 13 65.5 31.5t74.5 43.5t71.5 49.5t56.5 48.5q21 20 41 11q18 -10 25 -31q6 -21 -8 -37q-23 -20 -55.5 -42.5t-73.5 -48.5
q-81 -49 -152 -81q17 -27 50 -49q31 -21 62 -24q29 -3 44 18q16 -9 3 -25q-14 -17 -49 -26q-18 -4 -39 -3t-45 9q-47 13 -103 67q-114 -42 -190 -37q-75 4 -97 43q-21 39 24 102q22 32 64 66.5t104 72.5q4 97 62 191q57 90 143 158t177 92q87 22 139 -3q53 -26 54 -77
q3 -53 -57 -113zM354 319q14 8 29.5 17t32.5 19q43 24 87.5 51t91.5 57q48 29 85 58t65 57q36 39 21 64q-16 25 -81 7q-34 -11 -68 -28.5t-69 -42.5t-66 -54.5t-57 -62.5q-55 -70 -71 -142zM141 53q14 -17 50 -14q34 3 69 15q36 13 49 19q-17 24 -28 51t-19 56
q-10 -6 -23 -14t-29 -19q-30 -20 -54 -47q-22 -25 -15 -47z" />
    <glyph glyph-name="quotesingle" unicode="'" horiz-adv-x="286" 
d="M66 616q26 39 57 98q15 29 27 53.5t22 45.5q13 26 41 26q29 -2 45 -19q18 -18 4 -42q-16 -23 -33.5 -47t-37.5 -50t-39 -50.5t-38 -46.5q-11 -11 -25 -7q-15 3 -22 15q-9 12 -1 24z" />
    <glyph glyph-name="parenleft" unicode="(" horiz-adv-x="5" 
d="M1050 -119q16 -2 32 -18.5t24.5 -34t6 -28.5t-23.5 -3q-58 23 -157 37.5t-224.5 21.5t-269 5.5t-288.5 -10.5t-285 -25.5t-257.5 -39.5t-205.5 -53.5t-131 -67.5q-13 -11 -24.5 2.5t-14.5 38t6 53t36 48.5q30 23 93.5 41t150 32.5t192.5 24.5t221.5 16.5t235 9t234.5 2
t220 -4t191 -10t148 -16t90 -21.5z" />
    <glyph glyph-name="parenright" unicode=")" horiz-adv-x="5" 
d="M-838 -111q91 20 215 30.5t266 13.5t294 -0.5t299 -11.5t281.5 -19t240.5 -22.5t176.5 -23t89.5 -20.5q38 -19 50.5 -45t9 -48t-19.5 -34t-35 -3q-14 7 -77 19t-162.5 26.5t-229 29.5t-276 27.5t-303.5 21t-312 9.5t-301 -7.5t-270 -29.5q-33 -5 -36 6t11.5 27.5t40 32.5
t48.5 21z" />
    <glyph glyph-name="asterisk" unicode="*" horiz-adv-x="292" 
d="M236 822q16 0 20 -14q6 -14 0 -31q-5 -16 -22 -22q-13 -3 -26.5 -7t-27.5 -10q10 -10 17 -18t11 -16q8 -15 7 -22q0 -6 -6 -12q-8 -6 -14 -7q-5 -1 -13 -1h-7l-43 36l-19 -38t-15 -27q-6 -10 -19 -13q-11 -1 -20 3q-8 6 -4 17l18 46l-43 -24q-1 -1 -7 -1q-4 0 -12 2
q-7 3 -8 7q-3 5 2 13q5 10 20 22q16 13 48 33q-20 11 -44 17q-7 4 -7 19q0 14 9 29q10 15 29 16q21 2 52 -22q6 22 6 42q5 17 21 24q18 8 34 5q17 -2 17 -15q-2 -20 -15 -57q40 21 61 26z" />
    <glyph glyph-name="plus" unicode="+" horiz-adv-x="475" 
d="M420 313q24 -3 24 -26t-18 -45q-18 -23 -42 -24h-93h-44l-87 -154q-12 -16 -37 -15q-12 1 -23 4t-20 10q-17 13 -10 34l65 121h-106q-21 0 -26 14q-3 14 4 30q8 18 19 31q11 12 24 14l141 2l77 135q16 20 43 19q25 -1 44 -17q18 -15 10 -35l-59 -100l114 2v0z" />
    <glyph glyph-name="comma" unicode="," horiz-adv-x="234" 
d="M117 179q4 37 28 46q24 8 43 -7q22 -14 17 -44q-12 -51 -49 -100q-38 -50 -69 -69q-18 -9 -28 0t0 25q13 19 23 36t18 34q14 35 17 79z" />
    <glyph glyph-name="hyphenminus" unicode="-" horiz-adv-x="475" 
d="M414 276q19 0 25 -16t0 -36q-4 -19 -19 -37q-13 -16 -34 -16h-86t-92 -1t-91.5 -1.5t-84.5 -0.5q-24 0 -28 16q-4 14 4 35q7 19 20 35q13 14 26 16l360 6v0z" />
    <glyph glyph-name="hyphenminus" unicode="&#xad;" horiz-adv-x="475" 
d="M414 276q19 0 25 -16t0 -36q-4 -19 -19 -37q-13 -16 -34 -16h-86t-92 -1t-91.5 -1.5t-84.5 -0.5q-24 0 -28 16q-4 14 4 35q7 19 20 35q13 14 26 16l360 6v0z" />
    <glyph glyph-name="period" unicode="." horiz-adv-x="222" 
d="M103 106q-41 -2 -44 20q-5 23 16 49q19 26 51 35q27 4 33 -20q6 -23 -8 -51q-15 -27 -48 -33z" />
    <glyph glyph-name="slash" unicode="/" horiz-adv-x="480" 
d="M453 943q20 40 53 29q33 -9 48 -27t-2 -50q-57 -102 -119.5 -222t-130.5 -262q-69 -142 -134.5 -285t-131.5 -291q-17 -26 -37 -25q-22 2 -41 15q-20 13 -11 42q56 110 120 242.5t138 290.5q75 158 136 293t112 250z" />
    <glyph glyph-name="zero" unicode="0" horiz-adv-x="1954" 
d="M208 201l-30 -161l-29 161h-42l-4 -257h40l1 105l20 -105h30l21 106l2 -106h37l-2 257h-44zM1118 201l-30 -161l-29 161h-42l-4 -257h40l1 105l20 -105h30l21 106l2 -106h37l-2 257h-44zM1043 705q-53 0 -62 52q-2 11 -2 22v22q0 24 -1 51.5t5 50.5q6 20 21.5 29.5
t34.5 10.5q20 1 37.5 -7t24.5 -28q8 -22 7.5 -49.5t-0.5 -51.5q0 -14 -0.5 -27.5t-3.5 -26.5q-11 -48 -61 -48zM982 439q-25 0 -41 12.5t-21 36.5q-2 12 -1.5 23.5t0.5 24.5q0 23 -1 49.5t4 49.5q6 21 21 30.5t35 9.5q21 1 38 -6t24 -27q9 -23 7 -50.5t-2 -50.5
q0 -16 0.5 -28.5t-2.5 -26.5q-9 -47 -61 -47zM1307 201v-257h43v111h11l23 -111h43l-29 120q18 11 24 31.5t6 39.5q0 35 -15.5 50.5t-30.5 15.5h-75zM364 78l-44 123h-33v-257h40v126l45 -126h32v257h-40v-123zM1610 -56v108h49v-108h43v257h-43v-104h-49v104h-43v-257h43z
M688 40h26v-16.5t-2 -22t-7.5 -17t-16.5 -2.5q-7 2 -10 9t-4 15.5t-0.5 17t0.5 13.5v61q0 12 -0.5 27.5t2.5 28.5q3 5 8.5 8.5t11.5 2.5q13 -4 14 -16q2 -9 1.5 -18.5t-0.5 -20.5h43q0 22 -3 47t-25 39q-12 8 -28 8.5t-30 -4.5q-17 -5 -25.5 -20t-11.5 -32q-2 -18 -1.5 -37
t0.5 -38q0 -18 -0.5 -35.5t1.5 -35.5q2 -15 7.5 -30.5t19.5 -22.5q13 -9 32 -8.5t30 11.5l1 -8h34v134h-67v-38zM697 707v235q23 0 47.5 0.5t44.5 -10.5q12 -8 19 -23.5t7 -32.5t-7 -31.5t-21 -19.5l31 -118h-31l-31 111h-25v-111h-34zM580 78l-21 23q-7 7 -13.5 13t-9.5 17
q-3 8 -0.5 21.5t15.5 12.5q7 -1 10 -7t4.5 -13.5t2 -15.5t0.5 -14l40 2q0 24 -5 48t-28 34q-14 6 -28 5t-25.5 -7t-19 -17.5t-8.5 -26.5q-2 -15 0.5 -31t11.5 -28q3 -8 9.5 -13t12.5 -12q12 -14 26 -29.5t14 -35.5q0 -8 -1.5 -14.5t-8.5 -7.5q-6 -2 -10 1t-6 8
q-6 11 -7 22.5t-2 23.5l-40 -3q0 -17 1.5 -32t8.5 -30q8 -18 25.5 -26t36.5 -4q20 4 31.5 19t13.5 32q6 48 -30 85zM915 201l-47 -257h43l10 61h28l8 -61h43l-45 257h-40zM1231 56h46v45h-46v55h56v45h-99v-257h99v45h-56v67zM442 707v235h49q18 0 33.5 -4t24.5 -22
q5 -10 7.5 -22.5t1.5 -24.5t-6 -23t-14 -18q-13 -11 -31 -11h-33v-110h-32zM1078 441v233h22l66 -156v156h29v-233h-22l-68 159v-159h-27zM1140 707v235h22l65 -156v156h28v-235h-21l-68 159v-159h-26zM1279 707l49 235h32l49 -235h-30l-12 58h-47l-11 -58h-30zM531 442
q-21 -8 -46 -1t-34 32q-5 12 -6 25.5t-1 30.5v145h31v-156q0 -13 2 -30t17 -25q13 -4 21.5 0t13 12t6.5 18.5t2 20.5q1 20 0.5 37.5t-0.5 37.5v85h33v-107q0 -15 0.5 -34t-2 -37t-11 -33t-26.5 -21zM1517 -56v212h36v45h-116v-45h37v-212h43zM902 705q-29 0 -45.5 19.5
t-17.5 47.5l30 8q2 -11 4 -22.5t9 -18.5q8 -8 19 -9t19 6q9 8 8.5 22t-7.5 25q-6 10 -26 25q-11 10 -23.5 20.5t-20.5 22.5t-10 26.5t1 27t11.5 22.5t22.5 14q13 3 29 1.5t27 -9.5q12 -8 16 -22t5 -28l-25 -8q-2 12 -6.5 26t-19.5 18q-11 1 -20 -4.5t-11 -15.5t1 -18.5
t9 -15.5t13.5 -13t14.5 -11q15 -14 29 -28.5t19 -34.5q5 -29 -10 -51t-45 -22zM658 439q-30 0 -45 19t-17 48l31 8q1 -11 2.5 -22t8.5 -19q8 -9 19 -10t19 7q10 8 9 22t-8 23q-5 7 -11.5 14t-14.5 12q-11 11 -24 21.5t-21 23.5q-7 11 -9 24.5t1.5 26.5t11.5 23t22 14
q13 3 29 2t28 -9q11 -8 15 -22.5t5 -28.5l-25 -9q-2 14 -6.5 27.5t-19.5 16.5q-11 2 -19.5 -3.5t-10.5 -17.5q-3 -9 0 -17t9 -15t13.5 -12.5t13.5 -11.5q16 -14 29.5 -28t17.5 -36q7 -27 -8.5 -49t-44.5 -22zM764 -88h37l73 322h-41zM739 441v233h91v-25h-58v-76h47v-24h-47
v-87h58v-21h-91zM581 707v235h90v-25h-58v-76h47v-24h-47v-87h59v-23h-91zM966 466q7 -4 16 -4t14 4q9 5 12.5 13.5t5.5 17.5q1 5 0.5 12t-0.5 12v83q0 10 -1 20.5t-9 18.5q-13 13 -29 8q-16 -4 -23 -22q-3 -17 -2 -37t1 -37v-42q0 -12 1.5 -26t13.5 -21zM1380 441v48
q0 9 1 18t-1 17q-2 13 -6.5 23.5t-9.5 21.5l-33 105h30l35 -112l34 112h32l-16 -48t-16 -49l-16 -48q-3 -8 -2.5 -16t0.5 -14v-58h-32zM1030 732q13 -5 29 0q10 5 12.5 13.5t3.5 16.5v109q0 10 -1 20.5t-9 17.5q-5 8 -12.5 9t-15.5 -1q-17 -1 -22 -20q-5 -17 -3 -37.5
t2 -37.5v-43q0 -12 1 -26t15 -21zM1434 707v235h32v-212h60v-23h-92zM1231 441v233h32v-212h59v-21h-91zM473 -388q-15 0 -22 6.5t-9.5 16t-2.5 21v20.5q0 11 0.5 22t4 19t11 12.5t21.5 3.5q12 -1 18.5 -7t9 -15t2.5 -19.5v-19.5v-19.5t-3 -19.5t-10 -15t-20 -6zM574 -240
q-14 0 -21 6.5t-9.5 16.5t-2.5 21.5v21.5t0.5 20.5t4 18.5t10.5 13t21 4q12 -1 18 -7t9 -15t3 -19.5v-19.5t-0.5 -20t-3.5 -20t-9.5 -15t-19.5 -6zM1479 -388q-14 0 -21 6.5t-9.5 16t-2.5 21v20.5q0 11 0.5 22t4 19t11 12.5t21.5 3.5q13 -1 18.5 -7t7.5 -15t1.5 -19.5
t-0.5 -19.5v-19.5t-2.5 -19.5t-9 -15t-19.5 -6zM1409 -238v119q11 0 26 0.5t26 -8.5t10 -24.5t-1 -27.5t0.5 -28.5t-13.5 -24.5q-9 -8 -23 -7t-25 1zM521 -387l2 119h18l21 -95l20 95h16l2 -119h-13l-1 88l-20 -88h-11l-19 88l-1 -88h-14zM775 -387v119q12 0 24 1t22 -4
q7 -4 10.5 -12t3.5 -17t-4 -16.5t-11 -10.5l17 -60h-16l-14 57h-13v-57h-19zM618 -387l2 119h17l21 -95l21 95h17l1 -119h-11l-2 88l-21 -88h-11l-18 88l-2 -88h-14zM623 -238v119q11 0 22.5 1t21.5 -4q7 -4 11 -12.5t4.5 -17.5t-3 -16.5t-12.5 -10.5l18 -59h-17l-17 55h-12
v-55h-16zM1265 -387v119q11 0 23 1t23 -4q6 -4 10 -12t4 -17t-3.5 -16.5t-10.5 -10.5l15 -60h-15l-15 57h-14v-57h-17zM635 263v121h30t26 -12q4 -11 3 -25t-9 -21q-8 -6 -16.5 -6.5t-17.5 -0.5v-56h-16zM793 -238v119h15v-52h31v52h18v-119h-18v55h-31v-55h-15zM1331 -238
v119h10l35 -79v79h13v-119h-10l-34 80v-80h-14zM818 263l26 121h16l26 -121h-18l-5 32h-25l-5 -32h-15zM1530 -387v119h10l35 -79v79h13v-119h-11l-35 82v-82h-12zM1253 -238l23 119h18l25 -119h-16l-6 30h-24l-7 -30h-13zM959 -387l25 119h17l25 -119h-15l-5 31h-26l-5 -31
h-16zM1489 491l-9 183h30l-10 -183h-11zM474 841q8 0 16 -0.5t18 1.5q12 3 15.5 12.5t3.5 20.5q1 13 -2 25t-17 16q-10 2 -18 1.5t-16 -0.5v-76zM1072 -238q-17 -5 -29.5 2.5t-16.5 24.5q-2 8 -1 15t1 13v64h15v-53q0 -5 -0.5 -14.5t0.5 -18.5t4.5 -16t11.5 -7t12 7t5.5 16
t1 18.5t-0.5 14.5v53h14v-54q0 -8 0.5 -17.5t-0.5 -19t-4.5 -17.5t-12.5 -11zM395 -388q-15 0 -22 9t-9 21.5t-1.5 27t0.5 25.5q0 16 8.5 28t28.5 10q18 -2 22 -14.5t4 -26.5h-16q0 5 0.5 10.5t-2.5 10.5q-2 8 -11 9t-13 -7q-6 -6 -4.5 -20t1.5 -23q0 -7 -1.5 -20t5.5 -21
q3 -7 12 -5.5t11 9.5q3 5 2.5 11t-0.5 11h16q0 -15 -5 -30t-26 -15zM882 -388q-16 0 -22.5 9t-8 21.5t-0.5 27t1 25.5q0 16 7.5 28t27.5 10q19 -2 23 -14.5t4 -26.5h-18q0 5 1 10.5t-2 10.5q-2 8 -10.5 9t-13.5 -7q-6 -6 -5 -20t1 -23q0 -7 -1 -20t6 -21q4 -7 12.5 -5.5
t10.5 9.5q3 5 2 11t-1 11h18q0 -15 -5 -30t-27 -15zM1199 262q-16 0 -23 10t-8 25l16 5q0 -6 2.5 -14t8.5 -12q8 -2 12.5 2.5t4.5 11.5q1 12 -9.5 21.5t-18.5 17.5q-11 9 -15.5 24t8.5 27q17 8 33 3q8 -4 11.5 -12.5t4.5 -16.5l-14 -3q-1 5 -2.5 11t-6.5 11q-5 2 -10.5 0
t-6.5 -10q-6 -8 2 -16l14 -14q7 -6 14.5 -13.5t9.5 -18.5q5 -14 -2.5 -26.5t-24.5 -12.5zM1371 -388q-16 0 -23.5 10.5t-9.5 24.5l16 4q0 -6 2 -13.5t8 -9.5q9 -5 14 -0.5t5 11.5q0 12 -10.5 21.5t-18.5 15.5q-11 11 -15 26.5t10 25.5q7 5 16.5 6t15.5 -3q8 -2 11.5 -10.5
t4.5 -16.5l-14 -5l-2 12t-6 11q-16 4 -20 -9q-4 -9 3.5 -16t14.5 -13q7 -8 14.5 -15.5t9.5 -18.5q5 -14 -3 -26t-23 -12zM925 262q-14 0 -22.5 10t-9.5 25l16 5q0 -6 2 -14t8 -12q8 -2 13.5 2.5t5.5 11.5q0 12 -10.5 21.5t-18.5 17.5q-11 9 -15 24t9 27q7 4 16 4.5t16 -1.5
q9 -4 12.5 -12.5t4.5 -16.5l-14 -3q-1 5 -2.5 11t-6.5 11q-6 2 -11.5 0t-7.5 -10q-3 -8 4 -16t12 -14q8 -6 16 -13.5t10 -18.5q5 -14 -3 -26.5t-24 -12.5zM731 841h16t17 2q11 5 14.5 15.5t1.5 23.5q0 11 -2.5 19t-13.5 13q-8 4 -17 3.5t-16 -0.5v-76zM1081 263l-27 121h18
l17 -88l19 88h13l-25 -121h-15zM1152 -387l-27 119h15l20 -87l16 87h17l-28 -119h-13zM966 263v121h48v-11h-31v-41h25v-12h-25v-45h32v-12h-49zM1205 -387v119h48v-10h-31v-39h25v-13h-25v-45h31v-12h-48zM716 -387v119h47v-10h-30v-39h25v-13h-25v-45h30v-12h-47z
M875 -238v119h46v-12h-29v-40h25v-12h-25v-45h29v-10h-46zM566 -226q10 -5 14.5 -1t6.5 11.5t2 16.5v15q0 4 0.5 12t0.5 16t-2 14.5t-6 9.5q-11 6 -18 -2t-7 -18v-19q0 -4 -0.5 -12.5t-0.5 -17t2 -16t8 -9.5zM764 263v121h46v-11h-31v-41h26v-12h-26v-45h31v-12h-46z
M1471 -371q10 -6 15 -2.5t7.5 10.5t2.5 16v15q0 4 0.5 12t-0.5 15.5t-3 14t-6 8.5q-12 8 -17 0t-5 -17v-18q0 -5 -1 -13t-1 -17t1.5 -16t6.5 -8zM464 -371q10 -6 15 -2.5t7 10.5t2 16v15q0 4 0.5 12t0 15.5t-2 14t-5.5 8.5q-13 8 -18.5 0t-5.5 -17q-1 -5 -0.5 -9.5t0.5 -8.5
q0 -5 -0.5 -13t-0.5 -17t1.5 -16t6.5 -8zM485 -238v119h46v-12h-28v-40h22v-12h-22v-55h-18zM1425 -228q11 0 18.5 2t9.5 15v63q-1 13 -9 15t-19 2v-97zM746 -238v107h-22v12h61v-12h-22v-107h-17zM1165 -238v119h17v-109h30v-10h-47zM1292 263v110h-23v11h58v-11h-20v-110
h-15zM971 -238v119h45v-12h-32v-40h24v-12h-24v-55h-13zM1108 -238v119h16v-109h30v-10h-46zM1350 164h14q10 0 15 -10t5.5 -23t-2.5 -24t-9 -14h-23v71zM706 263v121h15v-109h31v-12h-46zM1241 263v121h18v-121h-18zM1039 -387v119h15v-107h32v-12h-47zM1324 789h40
l-20 107zM432 -56h43v48h-43v-48zM930 -387v119h17v-119h-17zM1136 263v121h16v-121h-16zM1413 -387v119h15v-119h-15zM651 331h9t10 2q6 3 7 9t1 13q-1 14 -8.5 16t-18.5 2v-42zM1480 441v33h30v-33h-30zM639 -171q11 0 19 3.5t8 17.5t-8 16.5t-19 2.5v-40zM1282 -317
q11 0 19 2.5t8 16.5q0 12 -8 16t-19 4v-39zM794 -317q11 0 18 2.5t7 16.5q0 12 -7 16t-18 4v-39zM839 306h22l-9 55zM982 -345h21l-10 55zM1275 -196h21l-11 54zM927 43l8 51l7 -51h-15zM1763 201l-47 -257h43l10 61h28l8 -61h43l-45 257h-40zM1775 43l8 51l7 -51h-15z" />
    <glyph glyph-name="one" unicode="1" horiz-adv-x="1954" 
d="M208 201l-30 -161l-29 161h-42l-4 -257h40l1 105l20 -105h30l21 106l2 -106h37l-2 257h-44zM1118 201l-30 -161l-29 161h-42l-4 -257h40l1 105l20 -105h30l21 106l2 -106h37l-2 257h-44zM1043 705q-53 0 -62 52q-2 11 -2 22v22q0 24 -1 51.5t5 50.5q6 20 21.5 29.5
t34.5 10.5q20 1 37.5 -7t24.5 -28q8 -22 7.5 -49.5t-0.5 -51.5q0 -14 -0.5 -27.5t-3.5 -26.5q-11 -48 -61 -48zM982 439q-25 0 -41 12.5t-21 36.5q-2 12 -1.5 23.5t0.5 24.5q0 23 -1 49.5t4 49.5q6 21 21 30.5t35 9.5q21 1 38 -6t24 -27q9 -23 7 -50.5t-2 -50.5
q0 -16 0.5 -28.5t-2.5 -26.5q-9 -47 -61 -47zM1307 201v-257h43v111h11l23 -111h43l-29 120q18 11 24 31.5t6 39.5q0 35 -15.5 50.5t-30.5 15.5h-75zM364 78l-44 123h-33v-257h40v126l45 -126h32v257h-40v-123zM1610 -56v108h49v-108h43v257h-43v-104h-49v104h-43v-257h43z
M688 40h26v-16.5t-2 -22t-7.5 -17t-16.5 -2.5q-7 2 -10 9t-4 15.5t-0.5 17t0.5 13.5v61q0 12 -0.5 27.5t2.5 28.5q3 5 8.5 8.5t11.5 2.5q13 -4 14 -16q2 -9 1.5 -18.5t-0.5 -20.5h43q0 22 -3 47t-25 39q-12 8 -28 8.5t-30 -4.5q-17 -5 -25.5 -20t-11.5 -32q-2 -18 -1.5 -37
t0.5 -38q0 -18 -0.5 -35.5t1.5 -35.5q2 -15 7.5 -30.5t19.5 -22.5q13 -9 32 -8.5t30 11.5l1 -8h34v134h-67v-38zM697 707v235q23 0 47.5 0.5t44.5 -10.5q12 -8 19 -23.5t7 -32.5t-7 -31.5t-21 -19.5l31 -118h-31l-31 111h-25v-111h-34zM580 78l-21 23q-7 7 -13.5 13t-9.5 17
q-3 8 -0.5 21.5t15.5 12.5q7 -1 10 -7t4.5 -13.5t2 -15.5t0.5 -14l40 2q0 24 -5 48t-28 34q-14 6 -28 5t-25.5 -7t-19 -17.5t-8.5 -26.5q-2 -15 0.5 -31t11.5 -28q3 -8 9.5 -13t12.5 -12q12 -14 26 -29.5t14 -35.5q0 -8 -1.5 -14.5t-8.5 -7.5q-6 -2 -10 1t-6 8
q-6 11 -7 22.5t-2 23.5l-40 -3q0 -17 1.5 -32t8.5 -30q8 -18 25.5 -26t36.5 -4q20 4 31.5 19t13.5 32q6 48 -30 85zM915 201l-47 -257h43l10 61h28l8 -61h43l-45 257h-40zM1231 56h46v45h-46v55h56v45h-99v-257h99v45h-56v67zM442 707v235h49q18 0 33.5 -4t24.5 -22
q5 -10 7.5 -22.5t1.5 -24.5t-6 -23t-14 -18q-13 -11 -31 -11h-33v-110h-32zM1078 441v233h22l66 -156v156h29v-233h-22l-68 159v-159h-27zM1140 707v235h22l65 -156v156h28v-235h-21l-68 159v-159h-26zM1279 707l49 235h32l49 -235h-30l-12 58h-47l-11 -58h-30zM531 442
q-21 -8 -46 -1t-34 32q-5 12 -6 25.5t-1 30.5v145h31v-156q0 -13 2 -30t17 -25q13 -4 21.5 0t13 12t6.5 18.5t2 20.5q1 20 0.5 37.5t-0.5 37.5v85h33v-107q0 -15 0.5 -34t-2 -37t-11 -33t-26.5 -21zM1517 -56v212h36v45h-116v-45h37v-212h43zM902 705q-29 0 -45.5 19.5
t-17.5 47.5l30 8q2 -11 4 -22.5t9 -18.5q8 -8 19 -9t19 6q9 8 8.5 22t-7.5 25q-6 10 -26 25q-11 10 -23.5 20.5t-20.5 22.5t-10 26.5t1 27t11.5 22.5t22.5 14q13 3 29 1.5t27 -9.5q12 -8 16 -22t5 -28l-25 -8q-2 12 -6.5 26t-19.5 18q-11 1 -20 -4.5t-11 -15.5t1 -18.5
t9 -15.5t13.5 -13t14.5 -11q15 -14 29 -28.5t19 -34.5q5 -29 -10 -51t-45 -22zM658 439q-30 0 -45 19t-17 48l31 8q1 -11 2.5 -22t8.5 -19q8 -9 19 -10t19 7q10 8 9 22t-8 23q-5 7 -11.5 14t-14.5 12q-11 11 -24 21.5t-21 23.5q-7 11 -9 24.5t1.5 26.5t11.5 23t22 14
q13 3 29 2t28 -9q11 -8 15 -22.5t5 -28.5l-25 -9q-2 14 -6.5 27.5t-19.5 16.5q-11 2 -19.5 -3.5t-10.5 -17.5q-3 -9 0 -17t9 -15t13.5 -12.5t13.5 -11.5q16 -14 29.5 -28t17.5 -36q7 -27 -8.5 -49t-44.5 -22zM764 -88h37l73 322h-41zM739 441v233h91v-25h-58v-76h47v-24h-47
v-87h58v-21h-91zM581 707v235h90v-25h-58v-76h47v-24h-47v-87h59v-23h-91zM966 466q7 -4 16 -4t14 4q9 5 12.5 13.5t5.5 17.5q1 5 0.5 12t-0.5 12v83q0 10 -1 20.5t-9 18.5q-13 13 -29 8q-16 -4 -23 -22q-3 -17 -2 -37t1 -37v-42q0 -12 1.5 -26t13.5 -21zM1380 441v48
q0 9 1 18t-1 17q-2 13 -6.5 23.5t-9.5 21.5l-33 105h30l35 -112l34 112h32l-16 -48t-16 -49l-16 -48q-3 -8 -2.5 -16t0.5 -14v-58h-32zM1030 732q13 -5 29 0q10 5 12.5 13.5t3.5 16.5v109q0 10 -1 20.5t-9 17.5q-5 8 -12.5 9t-15.5 -1q-17 -1 -22 -20q-5 -17 -3 -37.5
t2 -37.5v-43q0 -12 1 -26t15 -21zM1434 707v235h32v-212h60v-23h-92zM1231 441v233h32v-212h59v-21h-91zM473 -388q-15 0 -22 6.5t-9.5 16t-2.5 21v20.5q0 11 0.5 22t4 19t11 12.5t21.5 3.5q12 -1 18.5 -7t9 -15t2.5 -19.5v-19.5v-19.5t-3 -19.5t-10 -15t-20 -6zM574 -240
q-14 0 -21 6.5t-9.5 16.5t-2.5 21.5v21.5t0.5 20.5t4 18.5t10.5 13t21 4q12 -1 18 -7t9 -15t3 -19.5v-19.5t-0.5 -20t-3.5 -20t-9.5 -15t-19.5 -6zM1479 -388q-14 0 -21 6.5t-9.5 16t-2.5 21v20.5q0 11 0.5 22t4 19t11 12.5t21.5 3.5q13 -1 18.5 -7t7.5 -15t1.5 -19.5
t-0.5 -19.5v-19.5t-2.5 -19.5t-9 -15t-19.5 -6zM1409 -238v119q11 0 26 0.5t26 -8.5t10 -24.5t-1 -27.5t0.5 -28.5t-13.5 -24.5q-9 -8 -23 -7t-25 1zM521 -387l2 119h18l21 -95l20 95h16l2 -119h-13l-1 88l-20 -88h-11l-19 88l-1 -88h-14zM775 -387v119q12 0 24 1t22 -4
q7 -4 10.5 -12t3.5 -17t-4 -16.5t-11 -10.5l17 -60h-16l-14 57h-13v-57h-19zM618 -387l2 119h17l21 -95l21 95h17l1 -119h-11l-2 88l-21 -88h-11l-18 88l-2 -88h-14zM623 -238v119q11 0 22.5 1t21.5 -4q7 -4 11 -12.5t4.5 -17.5t-3 -16.5t-12.5 -10.5l18 -59h-17l-17 55h-12
v-55h-16zM1265 -387v119q11 0 23 1t23 -4q6 -4 10 -12t4 -17t-3.5 -16.5t-10.5 -10.5l15 -60h-15l-15 57h-14v-57h-17zM635 263v121h30t26 -12q4 -11 3 -25t-9 -21q-8 -6 -16.5 -6.5t-17.5 -0.5v-56h-16zM793 -238v119h15v-52h31v52h18v-119h-18v55h-31v-55h-15zM1331 -238
v119h10l35 -79v79h13v-119h-10l-34 80v-80h-14zM818 263l26 121h16l26 -121h-18l-5 32h-25l-5 -32h-15zM1530 -387v119h10l35 -79v79h13v-119h-11l-35 82v-82h-12zM1253 -238l23 119h18l25 -119h-16l-6 30h-24l-7 -30h-13zM959 -387l25 119h17l25 -119h-15l-5 31h-26l-5 -31
h-16zM1489 491l-9 183h30l-10 -183h-11zM474 841q8 0 16 -0.5t18 1.5q12 3 15.5 12.5t3.5 20.5q1 13 -2 25t-17 16q-10 2 -18 1.5t-16 -0.5v-76zM1072 -238q-17 -5 -29.5 2.5t-16.5 24.5q-2 8 -1 15t1 13v64h15v-53q0 -5 -0.5 -14.5t0.5 -18.5t4.5 -16t11.5 -7t12 7t5.5 16
t1 18.5t-0.5 14.5v53h14v-54q0 -8 0.5 -17.5t-0.5 -19t-4.5 -17.5t-12.5 -11zM395 -388q-15 0 -22 9t-9 21.5t-1.5 27t0.5 25.5q0 16 8.5 28t28.5 10q18 -2 22 -14.5t4 -26.5h-16q0 5 0.5 10.5t-2.5 10.5q-2 8 -11 9t-13 -7q-6 -6 -4.5 -20t1.5 -23q0 -7 -1.5 -20t5.5 -21
q3 -7 12 -5.5t11 9.5q3 5 2.5 11t-0.5 11h16q0 -15 -5 -30t-26 -15zM882 -388q-16 0 -22.5 9t-8 21.5t-0.5 27t1 25.5q0 16 7.5 28t27.5 10q19 -2 23 -14.5t4 -26.5h-18q0 5 1 10.5t-2 10.5q-2 8 -10.5 9t-13.5 -7q-6 -6 -5 -20t1 -23q0 -7 -1 -20t6 -21q4 -7 12.5 -5.5
t10.5 9.5q3 5 2 11t-1 11h18q0 -15 -5 -30t-27 -15zM1199 262q-16 0 -23 10t-8 25l16 5q0 -6 2.5 -14t8.5 -12q8 -2 12.5 2.5t4.5 11.5q1 12 -9.5 21.5t-18.5 17.5q-11 9 -15.5 24t8.5 27q17 8 33 3q8 -4 11.5 -12.5t4.5 -16.5l-14 -3q-1 5 -2.5 11t-6.5 11q-5 2 -10.5 0
t-6.5 -10q-6 -8 2 -16l14 -14q7 -6 14.5 -13.5t9.5 -18.5q5 -14 -2.5 -26.5t-24.5 -12.5zM1371 -388q-16 0 -23.5 10.5t-9.5 24.5l16 4q0 -6 2 -13.5t8 -9.5q9 -5 14 -0.5t5 11.5q0 12 -10.5 21.5t-18.5 15.5q-11 11 -15 26.5t10 25.5q7 5 16.5 6t15.5 -3q8 -2 11.5 -10.5
t4.5 -16.5l-14 -5l-2 12t-6 11q-16 4 -20 -9q-4 -9 3.5 -16t14.5 -13q7 -8 14.5 -15.5t9.5 -18.5q5 -14 -3 -26t-23 -12zM925 262q-14 0 -22.5 10t-9.5 25l16 5q0 -6 2 -14t8 -12q8 -2 13.5 2.5t5.5 11.5q0 12 -10.5 21.5t-18.5 17.5q-11 9 -15 24t9 27q7 4 16 4.5t16 -1.5
q9 -4 12.5 -12.5t4.5 -16.5l-14 -3q-1 5 -2.5 11t-6.5 11q-6 2 -11.5 0t-7.5 -10q-3 -8 4 -16t12 -14q8 -6 16 -13.5t10 -18.5q5 -14 -3 -26.5t-24 -12.5zM731 841h16t17 2q11 5 14.5 15.5t1.5 23.5q0 11 -2.5 19t-13.5 13q-8 4 -17 3.5t-16 -0.5v-76zM1081 263l-27 121h18
l17 -88l19 88h13l-25 -121h-15zM1152 -387l-27 119h15l20 -87l16 87h17l-28 -119h-13zM966 263v121h48v-11h-31v-41h25v-12h-25v-45h32v-12h-49zM1205 -387v119h48v-10h-31v-39h25v-13h-25v-45h31v-12h-48zM716 -387v119h47v-10h-30v-39h25v-13h-25v-45h30v-12h-47z
M875 -238v119h46v-12h-29v-40h25v-12h-25v-45h29v-10h-46zM566 -226q10 -5 14.5 -1t6.5 11.5t2 16.5v15q0 4 0.5 12t0.5 16t-2 14.5t-6 9.5q-11 6 -18 -2t-7 -18v-19q0 -4 -0.5 -12.5t-0.5 -17t2 -16t8 -9.5zM764 263v121h46v-11h-31v-41h26v-12h-26v-45h31v-12h-46z
M1471 -371q10 -6 15 -2.5t7.5 10.5t2.5 16v15q0 4 0.5 12t-0.5 15.5t-3 14t-6 8.5q-12 8 -17 0t-5 -17v-18q0 -5 -1 -13t-1 -17t1.5 -16t6.5 -8zM464 -371q10 -6 15 -2.5t7 10.5t2 16v15q0 4 0.5 12t0 15.5t-2 14t-5.5 8.5q-13 8 -18.5 0t-5.5 -17q-1 -5 -0.5 -9.5t0.5 -8.5
q0 -5 -0.5 -13t-0.5 -17t1.5 -16t6.5 -8zM485 -238v119h46v-12h-28v-40h22v-12h-22v-55h-18zM1425 -228q11 0 18.5 2t9.5 15v63q-1 13 -9 15t-19 2v-97zM746 -238v107h-22v12h61v-12h-22v-107h-17zM1165 -238v119h17v-109h30v-10h-47zM1292 263v110h-23v11h58v-11h-20v-110
h-15zM971 -238v119h45v-12h-32v-40h24v-12h-24v-55h-13zM1108 -238v119h16v-109h30v-10h-46zM1350 164h14q10 0 15 -10t5.5 -23t-2.5 -24t-9 -14h-23v71zM706 263v121h15v-109h31v-12h-46zM1241 263v121h18v-121h-18zM1039 -387v119h15v-107h32v-12h-47zM1324 789h40
l-20 107zM432 -56h43v48h-43v-48zM930 -387v119h17v-119h-17zM1136 263v121h16v-121h-16zM1413 -387v119h15v-119h-15zM651 331h9t10 2q6 3 7 9t1 13q-1 14 -8.5 16t-18.5 2v-42zM1480 441v33h30v-33h-30zM639 -171q11 0 19 3.5t8 17.5t-8 16.5t-19 2.5v-40zM1282 -317
q11 0 19 2.5t8 16.5q0 12 -8 16t-19 4v-39zM794 -317q11 0 18 2.5t7 16.5q0 12 -7 16t-18 4v-39zM839 306h22l-9 55zM982 -345h21l-10 55zM1275 -196h21l-11 54zM927 43l8 51l7 -51h-15zM1763 201l-47 -257h43l10 61h28l8 -61h43l-45 257h-40zM1775 43l8 51l7 -51h-15z" />
    <glyph glyph-name="two" unicode="2" horiz-adv-x="1954" 
d="M208 201l-30 -161l-29 161h-42l-4 -257h40l1 105l20 -105h30l21 106l2 -106h37l-2 257h-44zM1118 201l-30 -161l-29 161h-42l-4 -257h40l1 105l20 -105h30l21 106l2 -106h37l-2 257h-44zM1043 705q-53 0 -62 52q-2 11 -2 22v22q0 24 -1 51.5t5 50.5q6 20 21.5 29.5
t34.5 10.5q20 1 37.5 -7t24.5 -28q8 -22 7.5 -49.5t-0.5 -51.5q0 -14 -0.5 -27.5t-3.5 -26.5q-11 -48 -61 -48zM982 439q-25 0 -41 12.5t-21 36.5q-2 12 -1.5 23.5t0.5 24.5q0 23 -1 49.5t4 49.5q6 21 21 30.5t35 9.5q21 1 38 -6t24 -27q9 -23 7 -50.5t-2 -50.5
q0 -16 0.5 -28.5t-2.5 -26.5q-9 -47 -61 -47zM1307 201v-257h43v111h11l23 -111h43l-29 120q18 11 24 31.5t6 39.5q0 35 -15.5 50.5t-30.5 15.5h-75zM364 78l-44 123h-33v-257h40v126l45 -126h32v257h-40v-123zM1610 -56v108h49v-108h43v257h-43v-104h-49v104h-43v-257h43z
M688 40h26v-16.5t-2 -22t-7.5 -17t-16.5 -2.5q-7 2 -10 9t-4 15.5t-0.5 17t0.5 13.5v61q0 12 -0.5 27.5t2.5 28.5q3 5 8.5 8.5t11.5 2.5q13 -4 14 -16q2 -9 1.5 -18.5t-0.5 -20.5h43q0 22 -3 47t-25 39q-12 8 -28 8.5t-30 -4.5q-17 -5 -25.5 -20t-11.5 -32q-2 -18 -1.5 -37
t0.5 -38q0 -18 -0.5 -35.5t1.5 -35.5q2 -15 7.5 -30.5t19.5 -22.5q13 -9 32 -8.5t30 11.5l1 -8h34v134h-67v-38zM697 707v235q23 0 47.5 0.5t44.5 -10.5q12 -8 19 -23.5t7 -32.5t-7 -31.5t-21 -19.5l31 -118h-31l-31 111h-25v-111h-34zM580 78l-21 23q-7 7 -13.5 13t-9.5 17
q-3 8 -0.5 21.5t15.5 12.5q7 -1 10 -7t4.5 -13.5t2 -15.5t0.5 -14l40 2q0 24 -5 48t-28 34q-14 6 -28 5t-25.5 -7t-19 -17.5t-8.5 -26.5q-2 -15 0.5 -31t11.5 -28q3 -8 9.5 -13t12.5 -12q12 -14 26 -29.5t14 -35.5q0 -8 -1.5 -14.5t-8.5 -7.5q-6 -2 -10 1t-6 8
q-6 11 -7 22.5t-2 23.5l-40 -3q0 -17 1.5 -32t8.5 -30q8 -18 25.5 -26t36.5 -4q20 4 31.5 19t13.5 32q6 48 -30 85zM915 201l-47 -257h43l10 61h28l8 -61h43l-45 257h-40zM1231 56h46v45h-46v55h56v45h-99v-257h99v45h-56v67zM442 707v235h49q18 0 33.5 -4t24.5 -22
q5 -10 7.5 -22.5t1.5 -24.5t-6 -23t-14 -18q-13 -11 -31 -11h-33v-110h-32zM1078 441v233h22l66 -156v156h29v-233h-22l-68 159v-159h-27zM1140 707v235h22l65 -156v156h28v-235h-21l-68 159v-159h-26zM1279 707l49 235h32l49 -235h-30l-12 58h-47l-11 -58h-30zM531 442
q-21 -8 -46 -1t-34 32q-5 12 -6 25.5t-1 30.5v145h31v-156q0 -13 2 -30t17 -25q13 -4 21.5 0t13 12t6.5 18.5t2 20.5q1 20 0.5 37.5t-0.5 37.5v85h33v-107q0 -15 0.5 -34t-2 -37t-11 -33t-26.5 -21zM1517 -56v212h36v45h-116v-45h37v-212h43zM902 705q-29 0 -45.5 19.5
t-17.5 47.5l30 8q2 -11 4 -22.5t9 -18.5q8 -8 19 -9t19 6q9 8 8.5 22t-7.5 25q-6 10 -26 25q-11 10 -23.5 20.5t-20.5 22.5t-10 26.5t1 27t11.5 22.5t22.5 14q13 3 29 1.5t27 -9.5q12 -8 16 -22t5 -28l-25 -8q-2 12 -6.5 26t-19.5 18q-11 1 -20 -4.5t-11 -15.5t1 -18.5
t9 -15.5t13.5 -13t14.5 -11q15 -14 29 -28.5t19 -34.5q5 -29 -10 -51t-45 -22zM658 439q-30 0 -45 19t-17 48l31 8q1 -11 2.5 -22t8.5 -19q8 -9 19 -10t19 7q10 8 9 22t-8 23q-5 7 -11.5 14t-14.5 12q-11 11 -24 21.5t-21 23.5q-7 11 -9 24.5t1.5 26.5t11.5 23t22 14
q13 3 29 2t28 -9q11 -8 15 -22.5t5 -28.5l-25 -9q-2 14 -6.5 27.5t-19.5 16.5q-11 2 -19.5 -3.5t-10.5 -17.5q-3 -9 0 -17t9 -15t13.5 -12.5t13.5 -11.5q16 -14 29.5 -28t17.5 -36q7 -27 -8.5 -49t-44.5 -22zM764 -88h37l73 322h-41zM739 441v233h91v-25h-58v-76h47v-24h-47
v-87h58v-21h-91zM581 707v235h90v-25h-58v-76h47v-24h-47v-87h59v-23h-91zM966 466q7 -4 16 -4t14 4q9 5 12.5 13.5t5.5 17.5q1 5 0.5 12t-0.5 12v83q0 10 -1 20.5t-9 18.5q-13 13 -29 8q-16 -4 -23 -22q-3 -17 -2 -37t1 -37v-42q0 -12 1.5 -26t13.5 -21zM1380 441v48
q0 9 1 18t-1 17q-2 13 -6.5 23.5t-9.5 21.5l-33 105h30l35 -112l34 112h32l-16 -48t-16 -49l-16 -48q-3 -8 -2.5 -16t0.5 -14v-58h-32zM1030 732q13 -5 29 0q10 5 12.5 13.5t3.5 16.5v109q0 10 -1 20.5t-9 17.5q-5 8 -12.5 9t-15.5 -1q-17 -1 -22 -20q-5 -17 -3 -37.5
t2 -37.5v-43q0 -12 1 -26t15 -21zM1434 707v235h32v-212h60v-23h-92zM1231 441v233h32v-212h59v-21h-91zM473 -388q-15 0 -22 6.5t-9.5 16t-2.5 21v20.5q0 11 0.5 22t4 19t11 12.5t21.5 3.5q12 -1 18.5 -7t9 -15t2.5 -19.5v-19.5v-19.5t-3 -19.5t-10 -15t-20 -6zM574 -240
q-14 0 -21 6.5t-9.5 16.5t-2.5 21.5v21.5t0.5 20.5t4 18.5t10.5 13t21 4q12 -1 18 -7t9 -15t3 -19.5v-19.5t-0.5 -20t-3.5 -20t-9.5 -15t-19.5 -6zM1479 -388q-14 0 -21 6.5t-9.5 16t-2.5 21v20.5q0 11 0.5 22t4 19t11 12.5t21.5 3.5q13 -1 18.5 -7t7.5 -15t1.5 -19.5
t-0.5 -19.5v-19.5t-2.5 -19.5t-9 -15t-19.5 -6zM1409 -238v119q11 0 26 0.5t26 -8.5t10 -24.5t-1 -27.5t0.5 -28.5t-13.5 -24.5q-9 -8 -23 -7t-25 1zM521 -387l2 119h18l21 -95l20 95h16l2 -119h-13l-1 88l-20 -88h-11l-19 88l-1 -88h-14zM775 -387v119q12 0 24 1t22 -4
q7 -4 10.5 -12t3.5 -17t-4 -16.5t-11 -10.5l17 -60h-16l-14 57h-13v-57h-19zM618 -387l2 119h17l21 -95l21 95h17l1 -119h-11l-2 88l-21 -88h-11l-18 88l-2 -88h-14zM623 -238v119q11 0 22.5 1t21.5 -4q7 -4 11 -12.5t4.5 -17.5t-3 -16.5t-12.5 -10.5l18 -59h-17l-17 55h-12
v-55h-16zM1265 -387v119q11 0 23 1t23 -4q6 -4 10 -12t4 -17t-3.5 -16.5t-10.5 -10.5l15 -60h-15l-15 57h-14v-57h-17zM635 263v121h30t26 -12q4 -11 3 -25t-9 -21q-8 -6 -16.5 -6.5t-17.5 -0.5v-56h-16zM793 -238v119h15v-52h31v52h18v-119h-18v55h-31v-55h-15zM1331 -238
v119h10l35 -79v79h13v-119h-10l-34 80v-80h-14zM818 263l26 121h16l26 -121h-18l-5 32h-25l-5 -32h-15zM1530 -387v119h10l35 -79v79h13v-119h-11l-35 82v-82h-12zM1253 -238l23 119h18l25 -119h-16l-6 30h-24l-7 -30h-13zM959 -387l25 119h17l25 -119h-15l-5 31h-26l-5 -31
h-16zM1489 491l-9 183h30l-10 -183h-11zM474 841q8 0 16 -0.5t18 1.5q12 3 15.5 12.5t3.5 20.5q1 13 -2 25t-17 16q-10 2 -18 1.5t-16 -0.5v-76zM1072 -238q-17 -5 -29.5 2.5t-16.5 24.5q-2 8 -1 15t1 13v64h15v-53q0 -5 -0.5 -14.5t0.5 -18.5t4.5 -16t11.5 -7t12 7t5.5 16
t1 18.5t-0.5 14.5v53h14v-54q0 -8 0.5 -17.5t-0.5 -19t-4.5 -17.5t-12.5 -11zM395 -388q-15 0 -22 9t-9 21.5t-1.5 27t0.5 25.5q0 16 8.5 28t28.5 10q18 -2 22 -14.5t4 -26.5h-16q0 5 0.5 10.5t-2.5 10.5q-2 8 -11 9t-13 -7q-6 -6 -4.5 -20t1.5 -23q0 -7 -1.5 -20t5.5 -21
q3 -7 12 -5.5t11 9.5q3 5 2.5 11t-0.5 11h16q0 -15 -5 -30t-26 -15zM882 -388q-16 0 -22.5 9t-8 21.5t-0.5 27t1 25.5q0 16 7.5 28t27.5 10q19 -2 23 -14.5t4 -26.5h-18q0 5 1 10.5t-2 10.5q-2 8 -10.5 9t-13.5 -7q-6 -6 -5 -20t1 -23q0 -7 -1 -20t6 -21q4 -7 12.5 -5.5
t10.5 9.5q3 5 2 11t-1 11h18q0 -15 -5 -30t-27 -15zM1199 262q-16 0 -23 10t-8 25l16 5q0 -6 2.5 -14t8.5 -12q8 -2 12.5 2.5t4.5 11.5q1 12 -9.5 21.5t-18.5 17.5q-11 9 -15.5 24t8.5 27q17 8 33 3q8 -4 11.5 -12.5t4.5 -16.5l-14 -3q-1 5 -2.5 11t-6.5 11q-5 2 -10.5 0
t-6.5 -10q-6 -8 2 -16l14 -14q7 -6 14.5 -13.5t9.5 -18.5q5 -14 -2.5 -26.5t-24.5 -12.5zM1371 -388q-16 0 -23.5 10.5t-9.5 24.5l16 4q0 -6 2 -13.5t8 -9.5q9 -5 14 -0.5t5 11.5q0 12 -10.5 21.5t-18.5 15.5q-11 11 -15 26.5t10 25.5q7 5 16.5 6t15.5 -3q8 -2 11.5 -10.5
t4.5 -16.5l-14 -5l-2 12t-6 11q-16 4 -20 -9q-4 -9 3.5 -16t14.5 -13q7 -8 14.5 -15.5t9.5 -18.5q5 -14 -3 -26t-23 -12zM925 262q-14 0 -22.5 10t-9.5 25l16 5q0 -6 2 -14t8 -12q8 -2 13.5 2.5t5.5 11.5q0 12 -10.5 21.5t-18.5 17.5q-11 9 -15 24t9 27q7 4 16 4.5t16 -1.5
q9 -4 12.5 -12.5t4.5 -16.5l-14 -3q-1 5 -2.5 11t-6.5 11q-6 2 -11.5 0t-7.5 -10q-3 -8 4 -16t12 -14q8 -6 16 -13.5t10 -18.5q5 -14 -3 -26.5t-24 -12.5zM731 841h16t17 2q11 5 14.5 15.5t1.5 23.5q0 11 -2.5 19t-13.5 13q-8 4 -17 3.5t-16 -0.5v-76zM1081 263l-27 121h18
l17 -88l19 88h13l-25 -121h-15zM1152 -387l-27 119h15l20 -87l16 87h17l-28 -119h-13zM966 263v121h48v-11h-31v-41h25v-12h-25v-45h32v-12h-49zM1205 -387v119h48v-10h-31v-39h25v-13h-25v-45h31v-12h-48zM716 -387v119h47v-10h-30v-39h25v-13h-25v-45h30v-12h-47z
M875 -238v119h46v-12h-29v-40h25v-12h-25v-45h29v-10h-46zM566 -226q10 -5 14.5 -1t6.5 11.5t2 16.5v15q0 4 0.5 12t0.5 16t-2 14.5t-6 9.5q-11 6 -18 -2t-7 -18v-19q0 -4 -0.5 -12.5t-0.5 -17t2 -16t8 -9.5zM764 263v121h46v-11h-31v-41h26v-12h-26v-45h31v-12h-46z
M1471 -371q10 -6 15 -2.5t7.5 10.5t2.5 16v15q0 4 0.5 12t-0.5 15.5t-3 14t-6 8.5q-12 8 -17 0t-5 -17v-18q0 -5 -1 -13t-1 -17t1.5 -16t6.5 -8zM464 -371q10 -6 15 -2.5t7 10.5t2 16v15q0 4 0.5 12t0 15.5t-2 14t-5.5 8.5q-13 8 -18.5 0t-5.5 -17q-1 -5 -0.5 -9.5t0.5 -8.5
q0 -5 -0.5 -13t-0.5 -17t1.5 -16t6.5 -8zM485 -238v119h46v-12h-28v-40h22v-12h-22v-55h-18zM1425 -228q11 0 18.5 2t9.5 15v63q-1 13 -9 15t-19 2v-97zM746 -238v107h-22v12h61v-12h-22v-107h-17zM1165 -238v119h17v-109h30v-10h-47zM1292 263v110h-23v11h58v-11h-20v-110
h-15zM971 -238v119h45v-12h-32v-40h24v-12h-24v-55h-13zM1108 -238v119h16v-109h30v-10h-46zM1350 164h14q10 0 15 -10t5.5 -23t-2.5 -24t-9 -14h-23v71zM706 263v121h15v-109h31v-12h-46zM1241 263v121h18v-121h-18zM1039 -387v119h15v-107h32v-12h-47zM1324 789h40
l-20 107zM432 -56h43v48h-43v-48zM930 -387v119h17v-119h-17zM1136 263v121h16v-121h-16zM1413 -387v119h15v-119h-15zM651 331h9t10 2q6 3 7 9t1 13q-1 14 -8.5 16t-18.5 2v-42zM1480 441v33h30v-33h-30zM639 -171q11 0 19 3.5t8 17.5t-8 16.5t-19 2.5v-40zM1282 -317
q11 0 19 2.5t8 16.5q0 12 -8 16t-19 4v-39zM794 -317q11 0 18 2.5t7 16.5q0 12 -7 16t-18 4v-39zM839 306h22l-9 55zM982 -345h21l-10 55zM1275 -196h21l-11 54zM927 43l8 51l7 -51h-15zM1763 201l-47 -257h43l10 61h28l8 -61h43l-45 257h-40zM1775 43l8 51l7 -51h-15z" />
    <glyph glyph-name="three" unicode="3" horiz-adv-x="1954" 
d="M208 201l-30 -161l-29 161h-42l-4 -257h40l1 105l20 -105h30l21 106l2 -106h37l-2 257h-44zM1118 201l-30 -161l-29 161h-42l-4 -257h40l1 105l20 -105h30l21 106l2 -106h37l-2 257h-44zM1043 705q-53 0 -62 52q-2 11 -2 22v22q0 24 -1 51.5t5 50.5q6 20 21.5 29.5
t34.5 10.5q20 1 37.5 -7t24.5 -28q8 -22 7.5 -49.5t-0.5 -51.5q0 -14 -0.5 -27.5t-3.5 -26.5q-11 -48 -61 -48zM982 439q-25 0 -41 12.5t-21 36.5q-2 12 -1.5 23.5t0.5 24.5q0 23 -1 49.5t4 49.5q6 21 21 30.5t35 9.5q21 1 38 -6t24 -27q9 -23 7 -50.5t-2 -50.5
q0 -16 0.5 -28.5t-2.5 -26.5q-9 -47 -61 -47zM1307 201v-257h43v111h11l23 -111h43l-29 120q18 11 24 31.5t6 39.5q0 35 -15.5 50.5t-30.5 15.5h-75zM364 78l-44 123h-33v-257h40v126l45 -126h32v257h-40v-123zM1610 -56v108h49v-108h43v257h-43v-104h-49v104h-43v-257h43z
M688 40h26v-16.5t-2 -22t-7.5 -17t-16.5 -2.5q-7 2 -10 9t-4 15.5t-0.5 17t0.5 13.5v61q0 12 -0.5 27.5t2.5 28.5q3 5 8.5 8.5t11.5 2.5q13 -4 14 -16q2 -9 1.5 -18.5t-0.5 -20.5h43q0 22 -3 47t-25 39q-12 8 -28 8.5t-30 -4.5q-17 -5 -25.5 -20t-11.5 -32q-2 -18 -1.5 -37
t0.5 -38q0 -18 -0.5 -35.5t1.5 -35.5q2 -15 7.5 -30.5t19.5 -22.5q13 -9 32 -8.5t30 11.5l1 -8h34v134h-67v-38zM697 707v235q23 0 47.5 0.5t44.5 -10.5q12 -8 19 -23.5t7 -32.5t-7 -31.5t-21 -19.5l31 -118h-31l-31 111h-25v-111h-34zM580 78l-21 23q-7 7 -13.5 13t-9.5 17
q-3 8 -0.5 21.5t15.5 12.5q7 -1 10 -7t4.5 -13.5t2 -15.5t0.5 -14l40 2q0 24 -5 48t-28 34q-14 6 -28 5t-25.5 -7t-19 -17.5t-8.5 -26.5q-2 -15 0.5 -31t11.5 -28q3 -8 9.5 -13t12.5 -12q12 -14 26 -29.5t14 -35.5q0 -8 -1.5 -14.5t-8.5 -7.5q-6 -2 -10 1t-6 8
q-6 11 -7 22.5t-2 23.5l-40 -3q0 -17 1.5 -32t8.5 -30q8 -18 25.5 -26t36.5 -4q20 4 31.5 19t13.5 32q6 48 -30 85zM915 201l-47 -257h43l10 61h28l8 -61h43l-45 257h-40zM1231 56h46v45h-46v55h56v45h-99v-257h99v45h-56v67zM442 707v235h49q18 0 33.5 -4t24.5 -22
q5 -10 7.5 -22.5t1.5 -24.5t-6 -23t-14 -18q-13 -11 -31 -11h-33v-110h-32zM1078 441v233h22l66 -156v156h29v-233h-22l-68 159v-159h-27zM1140 707v235h22l65 -156v156h28v-235h-21l-68 159v-159h-26zM1279 707l49 235h32l49 -235h-30l-12 58h-47l-11 -58h-30zM531 442
q-21 -8 -46 -1t-34 32q-5 12 -6 25.5t-1 30.5v145h31v-156q0 -13 2 -30t17 -25q13 -4 21.5 0t13 12t6.5 18.5t2 20.5q1 20 0.5 37.5t-0.5 37.5v85h33v-107q0 -15 0.5 -34t-2 -37t-11 -33t-26.5 -21zM1517 -56v212h36v45h-116v-45h37v-212h43zM902 705q-29 0 -45.5 19.5
t-17.5 47.5l30 8q2 -11 4 -22.5t9 -18.5q8 -8 19 -9t19 6q9 8 8.5 22t-7.5 25q-6 10 -26 25q-11 10 -23.5 20.5t-20.5 22.5t-10 26.5t1 27t11.5 22.5t22.5 14q13 3 29 1.5t27 -9.5q12 -8 16 -22t5 -28l-25 -8q-2 12 -6.5 26t-19.5 18q-11 1 -20 -4.5t-11 -15.5t1 -18.5
t9 -15.5t13.5 -13t14.5 -11q15 -14 29 -28.5t19 -34.5q5 -29 -10 -51t-45 -22zM658 439q-30 0 -45 19t-17 48l31 8q1 -11 2.5 -22t8.5 -19q8 -9 19 -10t19 7q10 8 9 22t-8 23q-5 7 -11.5 14t-14.5 12q-11 11 -24 21.5t-21 23.5q-7 11 -9 24.5t1.5 26.5t11.5 23t22 14
q13 3 29 2t28 -9q11 -8 15 -22.5t5 -28.5l-25 -9q-2 14 -6.5 27.5t-19.5 16.5q-11 2 -19.5 -3.5t-10.5 -17.5q-3 -9 0 -17t9 -15t13.5 -12.5t13.5 -11.5q16 -14 29.5 -28t17.5 -36q7 -27 -8.5 -49t-44.5 -22zM764 -88h37l73 322h-41zM739 441v233h91v-25h-58v-76h47v-24h-47
v-87h58v-21h-91zM581 707v235h90v-25h-58v-76h47v-24h-47v-87h59v-23h-91zM966 466q7 -4 16 -4t14 4q9 5 12.5 13.5t5.5 17.5q1 5 0.5 12t-0.5 12v83q0 10 -1 20.5t-9 18.5q-13 13 -29 8q-16 -4 -23 -22q-3 -17 -2 -37t1 -37v-42q0 -12 1.5 -26t13.5 -21zM1380 441v48
q0 9 1 18t-1 17q-2 13 -6.5 23.5t-9.5 21.5l-33 105h30l35 -112l34 112h32l-16 -48t-16 -49l-16 -48q-3 -8 -2.5 -16t0.5 -14v-58h-32zM1030 732q13 -5 29 0q10 5 12.5 13.5t3.5 16.5v109q0 10 -1 20.5t-9 17.5q-5 8 -12.5 9t-15.5 -1q-17 -1 -22 -20q-5 -17 -3 -37.5
t2 -37.5v-43q0 -12 1 -26t15 -21zM1434 707v235h32v-212h60v-23h-92zM1231 441v233h32v-212h59v-21h-91zM473 -388q-15 0 -22 6.5t-9.5 16t-2.5 21v20.5q0 11 0.5 22t4 19t11 12.5t21.5 3.5q12 -1 18.5 -7t9 -15t2.5 -19.5v-19.5v-19.5t-3 -19.5t-10 -15t-20 -6zM574 -240
q-14 0 -21 6.5t-9.5 16.5t-2.5 21.5v21.5t0.5 20.5t4 18.5t10.5 13t21 4q12 -1 18 -7t9 -15t3 -19.5v-19.5t-0.5 -20t-3.5 -20t-9.5 -15t-19.5 -6zM1479 -388q-14 0 -21 6.5t-9.5 16t-2.5 21v20.5q0 11 0.5 22t4 19t11 12.5t21.5 3.5q13 -1 18.5 -7t7.5 -15t1.5 -19.5
t-0.5 -19.5v-19.5t-2.5 -19.5t-9 -15t-19.5 -6zM1409 -238v119q11 0 26 0.5t26 -8.5t10 -24.5t-1 -27.5t0.5 -28.5t-13.5 -24.5q-9 -8 -23 -7t-25 1zM521 -387l2 119h18l21 -95l20 95h16l2 -119h-13l-1 88l-20 -88h-11l-19 88l-1 -88h-14zM775 -387v119q12 0 24 1t22 -4
q7 -4 10.5 -12t3.5 -17t-4 -16.5t-11 -10.5l17 -60h-16l-14 57h-13v-57h-19zM618 -387l2 119h17l21 -95l21 95h17l1 -119h-11l-2 88l-21 -88h-11l-18 88l-2 -88h-14zM623 -238v119q11 0 22.5 1t21.5 -4q7 -4 11 -12.5t4.5 -17.5t-3 -16.5t-12.5 -10.5l18 -59h-17l-17 55h-12
v-55h-16zM1265 -387v119q11 0 23 1t23 -4q6 -4 10 -12t4 -17t-3.5 -16.5t-10.5 -10.5l15 -60h-15l-15 57h-14v-57h-17zM635 263v121h30t26 -12q4 -11 3 -25t-9 -21q-8 -6 -16.5 -6.5t-17.5 -0.5v-56h-16zM793 -238v119h15v-52h31v52h18v-119h-18v55h-31v-55h-15zM1331 -238
v119h10l35 -79v79h13v-119h-10l-34 80v-80h-14zM818 263l26 121h16l26 -121h-18l-5 32h-25l-5 -32h-15zM1530 -387v119h10l35 -79v79h13v-119h-11l-35 82v-82h-12zM1253 -238l23 119h18l25 -119h-16l-6 30h-24l-7 -30h-13zM959 -387l25 119h17l25 -119h-15l-5 31h-26l-5 -31
h-16zM1489 491l-9 183h30l-10 -183h-11zM474 841q8 0 16 -0.5t18 1.5q12 3 15.5 12.5t3.5 20.5q1 13 -2 25t-17 16q-10 2 -18 1.5t-16 -0.5v-76zM1072 -238q-17 -5 -29.5 2.5t-16.5 24.5q-2 8 -1 15t1 13v64h15v-53q0 -5 -0.5 -14.5t0.5 -18.5t4.5 -16t11.5 -7t12 7t5.5 16
t1 18.5t-0.5 14.5v53h14v-54q0 -8 0.5 -17.5t-0.5 -19t-4.5 -17.5t-12.5 -11zM395 -388q-15 0 -22 9t-9 21.5t-1.5 27t0.5 25.5q0 16 8.5 28t28.5 10q18 -2 22 -14.5t4 -26.5h-16q0 5 0.5 10.5t-2.5 10.5q-2 8 -11 9t-13 -7q-6 -6 -4.5 -20t1.5 -23q0 -7 -1.5 -20t5.5 -21
q3 -7 12 -5.5t11 9.5q3 5 2.5 11t-0.5 11h16q0 -15 -5 -30t-26 -15zM882 -388q-16 0 -22.5 9t-8 21.5t-0.5 27t1 25.5q0 16 7.5 28t27.5 10q19 -2 23 -14.5t4 -26.5h-18q0 5 1 10.5t-2 10.5q-2 8 -10.5 9t-13.5 -7q-6 -6 -5 -20t1 -23q0 -7 -1 -20t6 -21q4 -7 12.5 -5.5
t10.5 9.5q3 5 2 11t-1 11h18q0 -15 -5 -30t-27 -15zM1199 262q-16 0 -23 10t-8 25l16 5q0 -6 2.5 -14t8.5 -12q8 -2 12.5 2.5t4.5 11.5q1 12 -9.5 21.5t-18.5 17.5q-11 9 -15.5 24t8.5 27q17 8 33 3q8 -4 11.5 -12.5t4.5 -16.5l-14 -3q-1 5 -2.5 11t-6.5 11q-5 2 -10.5 0
t-6.5 -10q-6 -8 2 -16l14 -14q7 -6 14.5 -13.5t9.5 -18.5q5 -14 -2.5 -26.5t-24.5 -12.5zM1371 -388q-16 0 -23.5 10.5t-9.5 24.5l16 4q0 -6 2 -13.5t8 -9.5q9 -5 14 -0.5t5 11.5q0 12 -10.5 21.5t-18.5 15.5q-11 11 -15 26.5t10 25.5q7 5 16.5 6t15.5 -3q8 -2 11.5 -10.5
t4.5 -16.5l-14 -5l-2 12t-6 11q-16 4 -20 -9q-4 -9 3.5 -16t14.5 -13q7 -8 14.5 -15.5t9.5 -18.5q5 -14 -3 -26t-23 -12zM925 262q-14 0 -22.5 10t-9.5 25l16 5q0 -6 2 -14t8 -12q8 -2 13.5 2.5t5.5 11.5q0 12 -10.5 21.5t-18.5 17.5q-11 9 -15 24t9 27q7 4 16 4.5t16 -1.5
q9 -4 12.5 -12.5t4.5 -16.5l-14 -3q-1 5 -2.5 11t-6.5 11q-6 2 -11.5 0t-7.5 -10q-3 -8 4 -16t12 -14q8 -6 16 -13.5t10 -18.5q5 -14 -3 -26.5t-24 -12.5zM731 841h16t17 2q11 5 14.5 15.5t1.5 23.5q0 11 -2.5 19t-13.5 13q-8 4 -17 3.5t-16 -0.5v-76zM1081 263l-27 121h18
l17 -88l19 88h13l-25 -121h-15zM1152 -387l-27 119h15l20 -87l16 87h17l-28 -119h-13zM966 263v121h48v-11h-31v-41h25v-12h-25v-45h32v-12h-49zM1205 -387v119h48v-10h-31v-39h25v-13h-25v-45h31v-12h-48zM716 -387v119h47v-10h-30v-39h25v-13h-25v-45h30v-12h-47z
M875 -238v119h46v-12h-29v-40h25v-12h-25v-45h29v-10h-46zM566 -226q10 -5 14.5 -1t6.5 11.5t2 16.5v15q0 4 0.5 12t0.5 16t-2 14.5t-6 9.5q-11 6 -18 -2t-7 -18v-19q0 -4 -0.5 -12.5t-0.5 -17t2 -16t8 -9.5zM764 263v121h46v-11h-31v-41h26v-12h-26v-45h31v-12h-46z
M1471 -371q10 -6 15 -2.5t7.5 10.5t2.5 16v15q0 4 0.5 12t-0.5 15.5t-3 14t-6 8.5q-12 8 -17 0t-5 -17v-18q0 -5 -1 -13t-1 -17t1.5 -16t6.5 -8zM464 -371q10 -6 15 -2.5t7 10.5t2 16v15q0 4 0.5 12t0 15.5t-2 14t-5.5 8.5q-13 8 -18.5 0t-5.5 -17q-1 -5 -0.5 -9.5t0.5 -8.5
q0 -5 -0.5 -13t-0.5 -17t1.5 -16t6.5 -8zM485 -238v119h46v-12h-28v-40h22v-12h-22v-55h-18zM1425 -228q11 0 18.5 2t9.5 15v63q-1 13 -9 15t-19 2v-97zM746 -238v107h-22v12h61v-12h-22v-107h-17zM1165 -238v119h17v-109h30v-10h-47zM1292 263v110h-23v11h58v-11h-20v-110
h-15zM971 -238v119h45v-12h-32v-40h24v-12h-24v-55h-13zM1108 -238v119h16v-109h30v-10h-46zM1350 164h14q10 0 15 -10t5.5 -23t-2.5 -24t-9 -14h-23v71zM706 263v121h15v-109h31v-12h-46zM1241 263v121h18v-121h-18zM1039 -387v119h15v-107h32v-12h-47zM1324 789h40
l-20 107zM432 -56h43v48h-43v-48zM930 -387v119h17v-119h-17zM1136 263v121h16v-121h-16zM1413 -387v119h15v-119h-15zM651 331h9t10 2q6 3 7 9t1 13q-1 14 -8.5 16t-18.5 2v-42zM1480 441v33h30v-33h-30zM639 -171q11 0 19 3.5t8 17.5t-8 16.5t-19 2.5v-40zM1282 -317
q11 0 19 2.5t8 16.5q0 12 -8 16t-19 4v-39zM794 -317q11 0 18 2.5t7 16.5q0 12 -7 16t-18 4v-39zM839 306h22l-9 55zM982 -345h21l-10 55zM1275 -196h21l-11 54zM927 43l8 51l7 -51h-15zM1763 201l-47 -257h43l10 61h28l8 -61h43l-45 257h-40zM1775 43l8 51l7 -51h-15z" />
    <glyph glyph-name="four" unicode="4" horiz-adv-x="1954" 
d="M208 201l-30 -161l-29 161h-42l-4 -257h40l1 105l20 -105h30l21 106l2 -106h37l-2 257h-44zM1118 201l-30 -161l-29 161h-42l-4 -257h40l1 105l20 -105h30l21 106l2 -106h37l-2 257h-44zM1043 705q-53 0 -62 52q-2 11 -2 22v22q0 24 -1 51.5t5 50.5q6 20 21.5 29.5
t34.5 10.5q20 1 37.5 -7t24.5 -28q8 -22 7.5 -49.5t-0.5 -51.5q0 -14 -0.5 -27.5t-3.5 -26.5q-11 -48 -61 -48zM982 439q-25 0 -41 12.5t-21 36.5q-2 12 -1.5 23.5t0.5 24.5q0 23 -1 49.5t4 49.5q6 21 21 30.5t35 9.5q21 1 38 -6t24 -27q9 -23 7 -50.5t-2 -50.5
q0 -16 0.5 -28.5t-2.5 -26.5q-9 -47 -61 -47zM1307 201v-257h43v111h11l23 -111h43l-29 120q18 11 24 31.5t6 39.5q0 35 -15.5 50.5t-30.5 15.5h-75zM364 78l-44 123h-33v-257h40v126l45 -126h32v257h-40v-123zM1610 -56v108h49v-108h43v257h-43v-104h-49v104h-43v-257h43z
M688 40h26v-16.5t-2 -22t-7.5 -17t-16.5 -2.5q-7 2 -10 9t-4 15.5t-0.5 17t0.5 13.5v61q0 12 -0.5 27.5t2.5 28.5q3 5 8.5 8.5t11.5 2.5q13 -4 14 -16q2 -9 1.5 -18.5t-0.5 -20.5h43q0 22 -3 47t-25 39q-12 8 -28 8.5t-30 -4.5q-17 -5 -25.5 -20t-11.5 -32q-2 -18 -1.5 -37
t0.5 -38q0 -18 -0.5 -35.5t1.5 -35.5q2 -15 7.5 -30.5t19.5 -22.5q13 -9 32 -8.5t30 11.5l1 -8h34v134h-67v-38zM697 707v235q23 0 47.5 0.5t44.5 -10.5q12 -8 19 -23.5t7 -32.5t-7 -31.5t-21 -19.5l31 -118h-31l-31 111h-25v-111h-34zM580 78l-21 23q-7 7 -13.5 13t-9.5 17
q-3 8 -0.5 21.5t15.5 12.5q7 -1 10 -7t4.5 -13.5t2 -15.5t0.5 -14l40 2q0 24 -5 48t-28 34q-14 6 -28 5t-25.5 -7t-19 -17.5t-8.5 -26.5q-2 -15 0.5 -31t11.5 -28q3 -8 9.5 -13t12.5 -12q12 -14 26 -29.5t14 -35.5q0 -8 -1.5 -14.5t-8.5 -7.5q-6 -2 -10 1t-6 8
q-6 11 -7 22.5t-2 23.5l-40 -3q0 -17 1.5 -32t8.5 -30q8 -18 25.5 -26t36.5 -4q20 4 31.5 19t13.5 32q6 48 -30 85zM915 201l-47 -257h43l10 61h28l8 -61h43l-45 257h-40zM1231 56h46v45h-46v55h56v45h-99v-257h99v45h-56v67zM442 707v235h49q18 0 33.5 -4t24.5 -22
q5 -10 7.5 -22.5t1.5 -24.5t-6 -23t-14 -18q-13 -11 -31 -11h-33v-110h-32zM1078 441v233h22l66 -156v156h29v-233h-22l-68 159v-159h-27zM1140 707v235h22l65 -156v156h28v-235h-21l-68 159v-159h-26zM1279 707l49 235h32l49 -235h-30l-12 58h-47l-11 -58h-30zM531 442
q-21 -8 -46 -1t-34 32q-5 12 -6 25.5t-1 30.5v145h31v-156q0 -13 2 -30t17 -25q13 -4 21.5 0t13 12t6.5 18.5t2 20.5q1 20 0.5 37.5t-0.5 37.5v85h33v-107q0 -15 0.5 -34t-2 -37t-11 -33t-26.5 -21zM1517 -56v212h36v45h-116v-45h37v-212h43zM902 705q-29 0 -45.5 19.5
t-17.5 47.5l30 8q2 -11 4 -22.5t9 -18.5q8 -8 19 -9t19 6q9 8 8.5 22t-7.5 25q-6 10 -26 25q-11 10 -23.5 20.5t-20.5 22.5t-10 26.5t1 27t11.5 22.5t22.5 14q13 3 29 1.5t27 -9.5q12 -8 16 -22t5 -28l-25 -8q-2 12 -6.5 26t-19.5 18q-11 1 -20 -4.5t-11 -15.5t1 -18.5
t9 -15.5t13.5 -13t14.5 -11q15 -14 29 -28.5t19 -34.5q5 -29 -10 -51t-45 -22zM658 439q-30 0 -45 19t-17 48l31 8q1 -11 2.5 -22t8.5 -19q8 -9 19 -10t19 7q10 8 9 22t-8 23q-5 7 -11.5 14t-14.5 12q-11 11 -24 21.5t-21 23.5q-7 11 -9 24.5t1.5 26.5t11.5 23t22 14
q13 3 29 2t28 -9q11 -8 15 -22.5t5 -28.5l-25 -9q-2 14 -6.5 27.5t-19.5 16.5q-11 2 -19.5 -3.5t-10.5 -17.5q-3 -9 0 -17t9 -15t13.5 -12.5t13.5 -11.5q16 -14 29.5 -28t17.5 -36q7 -27 -8.5 -49t-44.5 -22zM764 -88h37l73 322h-41zM739 441v233h91v-25h-58v-76h47v-24h-47
v-87h58v-21h-91zM581 707v235h90v-25h-58v-76h47v-24h-47v-87h59v-23h-91zM966 466q7 -4 16 -4t14 4q9 5 12.5 13.5t5.5 17.5q1 5 0.5 12t-0.5 12v83q0 10 -1 20.5t-9 18.5q-13 13 -29 8q-16 -4 -23 -22q-3 -17 -2 -37t1 -37v-42q0 -12 1.5 -26t13.5 -21zM1380 441v48
q0 9 1 18t-1 17q-2 13 -6.5 23.5t-9.5 21.5l-33 105h30l35 -112l34 112h32l-16 -48t-16 -49l-16 -48q-3 -8 -2.5 -16t0.5 -14v-58h-32zM1030 732q13 -5 29 0q10 5 12.5 13.5t3.5 16.5v109q0 10 -1 20.5t-9 17.5q-5 8 -12.5 9t-15.5 -1q-17 -1 -22 -20q-5 -17 -3 -37.5
t2 -37.5v-43q0 -12 1 -26t15 -21zM1434 707v235h32v-212h60v-23h-92zM1231 441v233h32v-212h59v-21h-91zM473 -388q-15 0 -22 6.5t-9.5 16t-2.5 21v20.5q0 11 0.5 22t4 19t11 12.5t21.5 3.5q12 -1 18.5 -7t9 -15t2.5 -19.5v-19.5v-19.5t-3 -19.5t-10 -15t-20 -6zM574 -240
q-14 0 -21 6.5t-9.5 16.5t-2.5 21.5v21.5t0.5 20.5t4 18.5t10.5 13t21 4q12 -1 18 -7t9 -15t3 -19.5v-19.5t-0.5 -20t-3.5 -20t-9.5 -15t-19.5 -6zM1479 -388q-14 0 -21 6.5t-9.5 16t-2.5 21v20.5q0 11 0.5 22t4 19t11 12.5t21.5 3.5q13 -1 18.5 -7t7.5 -15t1.5 -19.5
t-0.5 -19.5v-19.5t-2.5 -19.5t-9 -15t-19.5 -6zM1409 -238v119q11 0 26 0.5t26 -8.5t10 -24.5t-1 -27.5t0.5 -28.5t-13.5 -24.5q-9 -8 -23 -7t-25 1zM521 -387l2 119h18l21 -95l20 95h16l2 -119h-13l-1 88l-20 -88h-11l-19 88l-1 -88h-14zM775 -387v119q12 0 24 1t22 -4
q7 -4 10.5 -12t3.5 -17t-4 -16.5t-11 -10.5l17 -60h-16l-14 57h-13v-57h-19zM618 -387l2 119h17l21 -95l21 95h17l1 -119h-11l-2 88l-21 -88h-11l-18 88l-2 -88h-14zM623 -238v119q11 0 22.5 1t21.5 -4q7 -4 11 -12.5t4.5 -17.5t-3 -16.5t-12.5 -10.5l18 -59h-17l-17 55h-12
v-55h-16zM1265 -387v119q11 0 23 1t23 -4q6 -4 10 -12t4 -17t-3.5 -16.5t-10.5 -10.5l15 -60h-15l-15 57h-14v-57h-17zM635 263v121h30t26 -12q4 -11 3 -25t-9 -21q-8 -6 -16.5 -6.5t-17.5 -0.5v-56h-16zM793 -238v119h15v-52h31v52h18v-119h-18v55h-31v-55h-15zM1331 -238
v119h10l35 -79v79h13v-119h-10l-34 80v-80h-14zM818 263l26 121h16l26 -121h-18l-5 32h-25l-5 -32h-15zM1530 -387v119h10l35 -79v79h13v-119h-11l-35 82v-82h-12zM1253 -238l23 119h18l25 -119h-16l-6 30h-24l-7 -30h-13zM959 -387l25 119h17l25 -119h-15l-5 31h-26l-5 -31
h-16zM1489 491l-9 183h30l-10 -183h-11zM474 841q8 0 16 -0.5t18 1.5q12 3 15.5 12.5t3.5 20.5q1 13 -2 25t-17 16q-10 2 -18 1.5t-16 -0.5v-76zM1072 -238q-17 -5 -29.5 2.5t-16.5 24.5q-2 8 -1 15t1 13v64h15v-53q0 -5 -0.5 -14.5t0.5 -18.5t4.5 -16t11.5 -7t12 7t5.5 16
t1 18.5t-0.5 14.5v53h14v-54q0 -8 0.5 -17.5t-0.5 -19t-4.5 -17.5t-12.5 -11zM395 -388q-15 0 -22 9t-9 21.5t-1.5 27t0.5 25.5q0 16 8.5 28t28.5 10q18 -2 22 -14.5t4 -26.5h-16q0 5 0.5 10.5t-2.5 10.5q-2 8 -11 9t-13 -7q-6 -6 -4.5 -20t1.5 -23q0 -7 -1.5 -20t5.5 -21
q3 -7 12 -5.5t11 9.5q3 5 2.5 11t-0.5 11h16q0 -15 -5 -30t-26 -15zM882 -388q-16 0 -22.5 9t-8 21.5t-0.5 27t1 25.5q0 16 7.5 28t27.5 10q19 -2 23 -14.5t4 -26.5h-18q0 5 1 10.5t-2 10.5q-2 8 -10.5 9t-13.5 -7q-6 -6 -5 -20t1 -23q0 -7 -1 -20t6 -21q4 -7 12.5 -5.5
t10.5 9.5q3 5 2 11t-1 11h18q0 -15 -5 -30t-27 -15zM1199 262q-16 0 -23 10t-8 25l16 5q0 -6 2.5 -14t8.5 -12q8 -2 12.5 2.5t4.5 11.5q1 12 -9.5 21.5t-18.5 17.5q-11 9 -15.5 24t8.5 27q17 8 33 3q8 -4 11.5 -12.5t4.5 -16.5l-14 -3q-1 5 -2.5 11t-6.5 11q-5 2 -10.5 0
t-6.5 -10q-6 -8 2 -16l14 -14q7 -6 14.5 -13.5t9.5 -18.5q5 -14 -2.5 -26.5t-24.5 -12.5zM1371 -388q-16 0 -23.5 10.5t-9.5 24.5l16 4q0 -6 2 -13.5t8 -9.5q9 -5 14 -0.5t5 11.5q0 12 -10.5 21.5t-18.5 15.5q-11 11 -15 26.5t10 25.5q7 5 16.5 6t15.5 -3q8 -2 11.5 -10.5
t4.5 -16.5l-14 -5l-2 12t-6 11q-16 4 -20 -9q-4 -9 3.5 -16t14.5 -13q7 -8 14.5 -15.5t9.5 -18.5q5 -14 -3 -26t-23 -12zM925 262q-14 0 -22.5 10t-9.5 25l16 5q0 -6 2 -14t8 -12q8 -2 13.5 2.5t5.5 11.5q0 12 -10.5 21.5t-18.5 17.5q-11 9 -15 24t9 27q7 4 16 4.5t16 -1.5
q9 -4 12.5 -12.5t4.5 -16.5l-14 -3q-1 5 -2.5 11t-6.5 11q-6 2 -11.5 0t-7.5 -10q-3 -8 4 -16t12 -14q8 -6 16 -13.5t10 -18.5q5 -14 -3 -26.5t-24 -12.5zM731 841h16t17 2q11 5 14.5 15.5t1.5 23.5q0 11 -2.5 19t-13.5 13q-8 4 -17 3.5t-16 -0.5v-76zM1081 263l-27 121h18
l17 -88l19 88h13l-25 -121h-15zM1152 -387l-27 119h15l20 -87l16 87h17l-28 -119h-13zM966 263v121h48v-11h-31v-41h25v-12h-25v-45h32v-12h-49zM1205 -387v119h48v-10h-31v-39h25v-13h-25v-45h31v-12h-48zM716 -387v119h47v-10h-30v-39h25v-13h-25v-45h30v-12h-47z
M875 -238v119h46v-12h-29v-40h25v-12h-25v-45h29v-10h-46zM566 -226q10 -5 14.5 -1t6.5 11.5t2 16.5v15q0 4 0.5 12t0.5 16t-2 14.5t-6 9.5q-11 6 -18 -2t-7 -18v-19q0 -4 -0.5 -12.5t-0.5 -17t2 -16t8 -9.5zM764 263v121h46v-11h-31v-41h26v-12h-26v-45h31v-12h-46z
M1471 -371q10 -6 15 -2.5t7.5 10.5t2.5 16v15q0 4 0.5 12t-0.5 15.5t-3 14t-6 8.5q-12 8 -17 0t-5 -17v-18q0 -5 -1 -13t-1 -17t1.5 -16t6.5 -8zM464 -371q10 -6 15 -2.5t7 10.5t2 16v15q0 4 0.5 12t0 15.5t-2 14t-5.5 8.5q-13 8 -18.5 0t-5.5 -17q-1 -5 -0.5 -9.5t0.5 -8.5
q0 -5 -0.5 -13t-0.5 -17t1.5 -16t6.5 -8zM485 -238v119h46v-12h-28v-40h22v-12h-22v-55h-18zM1425 -228q11 0 18.5 2t9.5 15v63q-1 13 -9 15t-19 2v-97zM746 -238v107h-22v12h61v-12h-22v-107h-17zM1165 -238v119h17v-109h30v-10h-47zM1292 263v110h-23v11h58v-11h-20v-110
h-15zM971 -238v119h45v-12h-32v-40h24v-12h-24v-55h-13zM1108 -238v119h16v-109h30v-10h-46zM1350 164h14q10 0 15 -10t5.5 -23t-2.5 -24t-9 -14h-23v71zM706 263v121h15v-109h31v-12h-46zM1241 263v121h18v-121h-18zM1039 -387v119h15v-107h32v-12h-47zM1324 789h40
l-20 107zM432 -56h43v48h-43v-48zM930 -387v119h17v-119h-17zM1136 263v121h16v-121h-16zM1413 -387v119h15v-119h-15zM651 331h9t10 2q6 3 7 9t1 13q-1 14 -8.5 16t-18.5 2v-42zM1480 441v33h30v-33h-30zM639 -171q11 0 19 3.5t8 17.5t-8 16.5t-19 2.5v-40zM1282 -317
q11 0 19 2.5t8 16.5q0 12 -8 16t-19 4v-39zM794 -317q11 0 18 2.5t7 16.5q0 12 -7 16t-18 4v-39zM839 306h22l-9 55zM982 -345h21l-10 55zM1275 -196h21l-11 54zM927 43l8 51l7 -51h-15zM1763 201l-47 -257h43l10 61h28l8 -61h43l-45 257h-40zM1775 43l8 51l7 -51h-15z" />
    <glyph glyph-name="five" unicode="5" horiz-adv-x="1954" 
d="M208 201l-30 -161l-29 161h-42l-4 -257h40l1 105l20 -105h30l21 106l2 -106h37l-2 257h-44zM1118 201l-30 -161l-29 161h-42l-4 -257h40l1 105l20 -105h30l21 106l2 -106h37l-2 257h-44zM1043 705q-53 0 -62 52q-2 11 -2 22v22q0 24 -1 51.5t5 50.5q6 20 21.5 29.5
t34.5 10.5q20 1 37.5 -7t24.5 -28q8 -22 7.5 -49.5t-0.5 -51.5q0 -14 -0.5 -27.5t-3.5 -26.5q-11 -48 -61 -48zM982 439q-25 0 -41 12.5t-21 36.5q-2 12 -1.5 23.5t0.5 24.5q0 23 -1 49.5t4 49.5q6 21 21 30.5t35 9.5q21 1 38 -6t24 -27q9 -23 7 -50.5t-2 -50.5
q0 -16 0.5 -28.5t-2.5 -26.5q-9 -47 -61 -47zM1307 201v-257h43v111h11l23 -111h43l-29 120q18 11 24 31.5t6 39.5q0 35 -15.5 50.5t-30.5 15.5h-75zM364 78l-44 123h-33v-257h40v126l45 -126h32v257h-40v-123zM1610 -56v108h49v-108h43v257h-43v-104h-49v104h-43v-257h43z
M688 40h26v-16.5t-2 -22t-7.5 -17t-16.5 -2.5q-7 2 -10 9t-4 15.5t-0.5 17t0.5 13.5v61q0 12 -0.5 27.5t2.5 28.5q3 5 8.5 8.5t11.5 2.5q13 -4 14 -16q2 -9 1.5 -18.5t-0.5 -20.5h43q0 22 -3 47t-25 39q-12 8 -28 8.5t-30 -4.5q-17 -5 -25.5 -20t-11.5 -32q-2 -18 -1.5 -37
t0.5 -38q0 -18 -0.5 -35.5t1.5 -35.5q2 -15 7.5 -30.5t19.5 -22.5q13 -9 32 -8.5t30 11.5l1 -8h34v134h-67v-38zM697 707v235q23 0 47.5 0.5t44.5 -10.5q12 -8 19 -23.5t7 -32.5t-7 -31.5t-21 -19.5l31 -118h-31l-31 111h-25v-111h-34zM580 78l-21 23q-7 7 -13.5 13t-9.5 17
q-3 8 -0.5 21.5t15.5 12.5q7 -1 10 -7t4.5 -13.5t2 -15.5t0.5 -14l40 2q0 24 -5 48t-28 34q-14 6 -28 5t-25.5 -7t-19 -17.5t-8.5 -26.5q-2 -15 0.5 -31t11.5 -28q3 -8 9.5 -13t12.5 -12q12 -14 26 -29.5t14 -35.5q0 -8 -1.5 -14.5t-8.5 -7.5q-6 -2 -10 1t-6 8
q-6 11 -7 22.5t-2 23.5l-40 -3q0 -17 1.5 -32t8.5 -30q8 -18 25.5 -26t36.5 -4q20 4 31.5 19t13.5 32q6 48 -30 85zM915 201l-47 -257h43l10 61h28l8 -61h43l-45 257h-40zM1231 56h46v45h-46v55h56v45h-99v-257h99v45h-56v67zM442 707v235h49q18 0 33.5 -4t24.5 -22
q5 -10 7.5 -22.5t1.5 -24.5t-6 -23t-14 -18q-13 -11 -31 -11h-33v-110h-32zM1078 441v233h22l66 -156v156h29v-233h-22l-68 159v-159h-27zM1140 707v235h22l65 -156v156h28v-235h-21l-68 159v-159h-26zM1279 707l49 235h32l49 -235h-30l-12 58h-47l-11 -58h-30zM531 442
q-21 -8 -46 -1t-34 32q-5 12 -6 25.5t-1 30.5v145h31v-156q0 -13 2 -30t17 -25q13 -4 21.5 0t13 12t6.5 18.5t2 20.5q1 20 0.5 37.5t-0.5 37.5v85h33v-107q0 -15 0.5 -34t-2 -37t-11 -33t-26.5 -21zM1517 -56v212h36v45h-116v-45h37v-212h43zM902 705q-29 0 -45.5 19.5
t-17.5 47.5l30 8q2 -11 4 -22.5t9 -18.5q8 -8 19 -9t19 6q9 8 8.5 22t-7.5 25q-6 10 -26 25q-11 10 -23.5 20.5t-20.5 22.5t-10 26.5t1 27t11.5 22.5t22.5 14q13 3 29 1.5t27 -9.5q12 -8 16 -22t5 -28l-25 -8q-2 12 -6.5 26t-19.5 18q-11 1 -20 -4.5t-11 -15.5t1 -18.5
t9 -15.5t13.5 -13t14.5 -11q15 -14 29 -28.5t19 -34.5q5 -29 -10 -51t-45 -22zM658 439q-30 0 -45 19t-17 48l31 8q1 -11 2.5 -22t8.5 -19q8 -9 19 -10t19 7q10 8 9 22t-8 23q-5 7 -11.5 14t-14.5 12q-11 11 -24 21.5t-21 23.5q-7 11 -9 24.5t1.5 26.5t11.5 23t22 14
q13 3 29 2t28 -9q11 -8 15 -22.5t5 -28.5l-25 -9q-2 14 -6.5 27.5t-19.5 16.5q-11 2 -19.5 -3.5t-10.5 -17.5q-3 -9 0 -17t9 -15t13.5 -12.5t13.5 -11.5q16 -14 29.5 -28t17.5 -36q7 -27 -8.5 -49t-44.5 -22zM764 -88h37l73 322h-41zM739 441v233h91v-25h-58v-76h47v-24h-47
v-87h58v-21h-91zM581 707v235h90v-25h-58v-76h47v-24h-47v-87h59v-23h-91zM966 466q7 -4 16 -4t14 4q9 5 12.5 13.5t5.5 17.5q1 5 0.5 12t-0.5 12v83q0 10 -1 20.5t-9 18.5q-13 13 -29 8q-16 -4 -23 -22q-3 -17 -2 -37t1 -37v-42q0 -12 1.5 -26t13.5 -21zM1380 441v48
q0 9 1 18t-1 17q-2 13 -6.5 23.5t-9.5 21.5l-33 105h30l35 -112l34 112h32l-16 -48t-16 -49l-16 -48q-3 -8 -2.5 -16t0.5 -14v-58h-32zM1030 732q13 -5 29 0q10 5 12.5 13.5t3.5 16.5v109q0 10 -1 20.5t-9 17.5q-5 8 -12.5 9t-15.5 -1q-17 -1 -22 -20q-5 -17 -3 -37.5
t2 -37.5v-43q0 -12 1 -26t15 -21zM1434 707v235h32v-212h60v-23h-92zM1231 441v233h32v-212h59v-21h-91zM473 -388q-15 0 -22 6.5t-9.5 16t-2.5 21v20.5q0 11 0.5 22t4 19t11 12.5t21.5 3.5q12 -1 18.5 -7t9 -15t2.5 -19.5v-19.5v-19.5t-3 -19.5t-10 -15t-20 -6zM574 -240
q-14 0 -21 6.5t-9.5 16.5t-2.5 21.5v21.5t0.5 20.5t4 18.5t10.5 13t21 4q12 -1 18 -7t9 -15t3 -19.5v-19.5t-0.5 -20t-3.5 -20t-9.5 -15t-19.5 -6zM1479 -388q-14 0 -21 6.5t-9.5 16t-2.5 21v20.5q0 11 0.5 22t4 19t11 12.5t21.5 3.5q13 -1 18.5 -7t7.5 -15t1.5 -19.5
t-0.5 -19.5v-19.5t-2.5 -19.5t-9 -15t-19.5 -6zM1409 -238v119q11 0 26 0.5t26 -8.5t10 -24.5t-1 -27.5t0.5 -28.5t-13.5 -24.5q-9 -8 -23 -7t-25 1zM521 -387l2 119h18l21 -95l20 95h16l2 -119h-13l-1 88l-20 -88h-11l-19 88l-1 -88h-14zM775 -387v119q12 0 24 1t22 -4
q7 -4 10.5 -12t3.5 -17t-4 -16.5t-11 -10.5l17 -60h-16l-14 57h-13v-57h-19zM618 -387l2 119h17l21 -95l21 95h17l1 -119h-11l-2 88l-21 -88h-11l-18 88l-2 -88h-14zM623 -238v119q11 0 22.5 1t21.5 -4q7 -4 11 -12.5t4.5 -17.5t-3 -16.5t-12.5 -10.5l18 -59h-17l-17 55h-12
v-55h-16zM1265 -387v119q11 0 23 1t23 -4q6 -4 10 -12t4 -17t-3.5 -16.5t-10.5 -10.5l15 -60h-15l-15 57h-14v-57h-17zM635 263v121h30t26 -12q4 -11 3 -25t-9 -21q-8 -6 -16.5 -6.5t-17.5 -0.5v-56h-16zM793 -238v119h15v-52h31v52h18v-119h-18v55h-31v-55h-15zM1331 -238
v119h10l35 -79v79h13v-119h-10l-34 80v-80h-14zM818 263l26 121h16l26 -121h-18l-5 32h-25l-5 -32h-15zM1530 -387v119h10l35 -79v79h13v-119h-11l-35 82v-82h-12zM1253 -238l23 119h18l25 -119h-16l-6 30h-24l-7 -30h-13zM959 -387l25 119h17l25 -119h-15l-5 31h-26l-5 -31
h-16zM1489 491l-9 183h30l-10 -183h-11zM474 841q8 0 16 -0.5t18 1.5q12 3 15.5 12.5t3.5 20.5q1 13 -2 25t-17 16q-10 2 -18 1.5t-16 -0.5v-76zM1072 -238q-17 -5 -29.5 2.5t-16.5 24.5q-2 8 -1 15t1 13v64h15v-53q0 -5 -0.5 -14.5t0.5 -18.5t4.5 -16t11.5 -7t12 7t5.5 16
t1 18.5t-0.5 14.5v53h14v-54q0 -8 0.5 -17.5t-0.5 -19t-4.5 -17.5t-12.5 -11zM395 -388q-15 0 -22 9t-9 21.5t-1.5 27t0.5 25.5q0 16 8.5 28t28.5 10q18 -2 22 -14.5t4 -26.5h-16q0 5 0.5 10.5t-2.5 10.5q-2 8 -11 9t-13 -7q-6 -6 -4.5 -20t1.5 -23q0 -7 -1.5 -20t5.5 -21
q3 -7 12 -5.5t11 9.5q3 5 2.5 11t-0.5 11h16q0 -15 -5 -30t-26 -15zM882 -388q-16 0 -22.5 9t-8 21.5t-0.5 27t1 25.5q0 16 7.5 28t27.5 10q19 -2 23 -14.5t4 -26.5h-18q0 5 1 10.5t-2 10.5q-2 8 -10.5 9t-13.5 -7q-6 -6 -5 -20t1 -23q0 -7 -1 -20t6 -21q4 -7 12.5 -5.5
t10.5 9.5q3 5 2 11t-1 11h18q0 -15 -5 -30t-27 -15zM1199 262q-16 0 -23 10t-8 25l16 5q0 -6 2.5 -14t8.5 -12q8 -2 12.5 2.5t4.5 11.5q1 12 -9.5 21.5t-18.5 17.5q-11 9 -15.5 24t8.5 27q17 8 33 3q8 -4 11.5 -12.5t4.5 -16.5l-14 -3q-1 5 -2.5 11t-6.5 11q-5 2 -10.5 0
t-6.5 -10q-6 -8 2 -16l14 -14q7 -6 14.5 -13.5t9.5 -18.5q5 -14 -2.5 -26.5t-24.5 -12.5zM1371 -388q-16 0 -23.5 10.5t-9.5 24.5l16 4q0 -6 2 -13.5t8 -9.5q9 -5 14 -0.5t5 11.5q0 12 -10.5 21.5t-18.5 15.5q-11 11 -15 26.5t10 25.5q7 5 16.5 6t15.5 -3q8 -2 11.5 -10.5
t4.5 -16.5l-14 -5l-2 12t-6 11q-16 4 -20 -9q-4 -9 3.5 -16t14.5 -13q7 -8 14.5 -15.5t9.5 -18.5q5 -14 -3 -26t-23 -12zM925 262q-14 0 -22.5 10t-9.5 25l16 5q0 -6 2 -14t8 -12q8 -2 13.5 2.5t5.5 11.5q0 12 -10.5 21.5t-18.5 17.5q-11 9 -15 24t9 27q7 4 16 4.5t16 -1.5
q9 -4 12.5 -12.5t4.5 -16.5l-14 -3q-1 5 -2.5 11t-6.5 11q-6 2 -11.5 0t-7.5 -10q-3 -8 4 -16t12 -14q8 -6 16 -13.5t10 -18.5q5 -14 -3 -26.5t-24 -12.5zM731 841h16t17 2q11 5 14.5 15.5t1.5 23.5q0 11 -2.5 19t-13.5 13q-8 4 -17 3.5t-16 -0.5v-76zM1081 263l-27 121h18
l17 -88l19 88h13l-25 -121h-15zM1152 -387l-27 119h15l20 -87l16 87h17l-28 -119h-13zM966 263v121h48v-11h-31v-41h25v-12h-25v-45h32v-12h-49zM1205 -387v119h48v-10h-31v-39h25v-13h-25v-45h31v-12h-48zM716 -387v119h47v-10h-30v-39h25v-13h-25v-45h30v-12h-47z
M875 -238v119h46v-12h-29v-40h25v-12h-25v-45h29v-10h-46zM566 -226q10 -5 14.5 -1t6.5 11.5t2 16.5v15q0 4 0.5 12t0.5 16t-2 14.5t-6 9.5q-11 6 -18 -2t-7 -18v-19q0 -4 -0.5 -12.5t-0.5 -17t2 -16t8 -9.5zM764 263v121h46v-11h-31v-41h26v-12h-26v-45h31v-12h-46z
M1471 -371q10 -6 15 -2.5t7.5 10.5t2.5 16v15q0 4 0.5 12t-0.5 15.5t-3 14t-6 8.5q-12 8 -17 0t-5 -17v-18q0 -5 -1 -13t-1 -17t1.5 -16t6.5 -8zM464 -371q10 -6 15 -2.5t7 10.5t2 16v15q0 4 0.5 12t0 15.5t-2 14t-5.5 8.5q-13 8 -18.5 0t-5.5 -17q-1 -5 -0.5 -9.5t0.5 -8.5
q0 -5 -0.5 -13t-0.5 -17t1.5 -16t6.5 -8zM485 -238v119h46v-12h-28v-40h22v-12h-22v-55h-18zM1425 -228q11 0 18.5 2t9.5 15v63q-1 13 -9 15t-19 2v-97zM746 -238v107h-22v12h61v-12h-22v-107h-17zM1165 -238v119h17v-109h30v-10h-47zM1292 263v110h-23v11h58v-11h-20v-110
h-15zM971 -238v119h45v-12h-32v-40h24v-12h-24v-55h-13zM1108 -238v119h16v-109h30v-10h-46zM1350 164h14q10 0 15 -10t5.5 -23t-2.5 -24t-9 -14h-23v71zM706 263v121h15v-109h31v-12h-46zM1241 263v121h18v-121h-18zM1039 -387v119h15v-107h32v-12h-47zM1324 789h40
l-20 107zM432 -56h43v48h-43v-48zM930 -387v119h17v-119h-17zM1136 263v121h16v-121h-16zM1413 -387v119h15v-119h-15zM651 331h9t10 2q6 3 7 9t1 13q-1 14 -8.5 16t-18.5 2v-42zM1480 441v33h30v-33h-30zM639 -171q11 0 19 3.5t8 17.5t-8 16.5t-19 2.5v-40zM1282 -317
q11 0 19 2.5t8 16.5q0 12 -8 16t-19 4v-39zM794 -317q11 0 18 2.5t7 16.5q0 12 -7 16t-18 4v-39zM839 306h22l-9 55zM982 -345h21l-10 55zM1275 -196h21l-11 54zM927 43l8 51l7 -51h-15zM1763 201l-47 -257h43l10 61h28l8 -61h43l-45 257h-40zM1775 43l8 51l7 -51h-15z" />
    <glyph glyph-name="six" unicode="6" horiz-adv-x="1954" 
d="M208 201l-30 -161l-29 161h-42l-4 -257h40l1 105l20 -105h30l21 106l2 -106h37l-2 257h-44zM1118 201l-30 -161l-29 161h-42l-4 -257h40l1 105l20 -105h30l21 106l2 -106h37l-2 257h-44zM1043 705q-53 0 -62 52q-2 11 -2 22v22q0 24 -1 51.5t5 50.5q6 20 21.5 29.5
t34.5 10.5q20 1 37.5 -7t24.5 -28q8 -22 7.5 -49.5t-0.5 -51.5q0 -14 -0.5 -27.5t-3.5 -26.5q-11 -48 -61 -48zM982 439q-25 0 -41 12.5t-21 36.5q-2 12 -1.5 23.5t0.5 24.5q0 23 -1 49.5t4 49.5q6 21 21 30.5t35 9.5q21 1 38 -6t24 -27q9 -23 7 -50.5t-2 -50.5
q0 -16 0.5 -28.5t-2.5 -26.5q-9 -47 -61 -47zM1307 201v-257h43v111h11l23 -111h43l-29 120q18 11 24 31.5t6 39.5q0 35 -15.5 50.5t-30.5 15.5h-75zM364 78l-44 123h-33v-257h40v126l45 -126h32v257h-40v-123zM1610 -56v108h49v-108h43v257h-43v-104h-49v104h-43v-257h43z
M688 40h26v-16.5t-2 -22t-7.5 -17t-16.5 -2.5q-7 2 -10 9t-4 15.5t-0.5 17t0.5 13.5v61q0 12 -0.5 27.5t2.5 28.5q3 5 8.5 8.5t11.5 2.5q13 -4 14 -16q2 -9 1.5 -18.5t-0.5 -20.5h43q0 22 -3 47t-25 39q-12 8 -28 8.5t-30 -4.5q-17 -5 -25.5 -20t-11.5 -32q-2 -18 -1.5 -37
t0.5 -38q0 -18 -0.5 -35.5t1.5 -35.5q2 -15 7.5 -30.5t19.5 -22.5q13 -9 32 -8.5t30 11.5l1 -8h34v134h-67v-38zM697 707v235q23 0 47.5 0.5t44.5 -10.5q12 -8 19 -23.5t7 -32.5t-7 -31.5t-21 -19.5l31 -118h-31l-31 111h-25v-111h-34zM580 78l-21 23q-7 7 -13.5 13t-9.5 17
q-3 8 -0.5 21.5t15.5 12.5q7 -1 10 -7t4.5 -13.5t2 -15.5t0.5 -14l40 2q0 24 -5 48t-28 34q-14 6 -28 5t-25.5 -7t-19 -17.5t-8.5 -26.5q-2 -15 0.5 -31t11.5 -28q3 -8 9.5 -13t12.5 -12q12 -14 26 -29.5t14 -35.5q0 -8 -1.5 -14.5t-8.5 -7.5q-6 -2 -10 1t-6 8
q-6 11 -7 22.5t-2 23.5l-40 -3q0 -17 1.5 -32t8.5 -30q8 -18 25.5 -26t36.5 -4q20 4 31.5 19t13.5 32q6 48 -30 85zM915 201l-47 -257h43l10 61h28l8 -61h43l-45 257h-40zM1231 56h46v45h-46v55h56v45h-99v-257h99v45h-56v67zM442 707v235h49q18 0 33.5 -4t24.5 -22
q5 -10 7.5 -22.5t1.5 -24.5t-6 -23t-14 -18q-13 -11 -31 -11h-33v-110h-32zM1078 441v233h22l66 -156v156h29v-233h-22l-68 159v-159h-27zM1140 707v235h22l65 -156v156h28v-235h-21l-68 159v-159h-26zM1279 707l49 235h32l49 -235h-30l-12 58h-47l-11 -58h-30zM531 442
q-21 -8 -46 -1t-34 32q-5 12 -6 25.5t-1 30.5v145h31v-156q0 -13 2 -30t17 -25q13 -4 21.5 0t13 12t6.5 18.5t2 20.5q1 20 0.5 37.5t-0.5 37.5v85h33v-107q0 -15 0.5 -34t-2 -37t-11 -33t-26.5 -21zM1517 -56v212h36v45h-116v-45h37v-212h43zM902 705q-29 0 -45.5 19.5
t-17.5 47.5l30 8q2 -11 4 -22.5t9 -18.5q8 -8 19 -9t19 6q9 8 8.5 22t-7.5 25q-6 10 -26 25q-11 10 -23.5 20.5t-20.5 22.5t-10 26.5t1 27t11.5 22.5t22.5 14q13 3 29 1.5t27 -9.5q12 -8 16 -22t5 -28l-25 -8q-2 12 -6.5 26t-19.5 18q-11 1 -20 -4.5t-11 -15.5t1 -18.5
t9 -15.5t13.5 -13t14.5 -11q15 -14 29 -28.5t19 -34.5q5 -29 -10 -51t-45 -22zM658 439q-30 0 -45 19t-17 48l31 8q1 -11 2.5 -22t8.5 -19q8 -9 19 -10t19 7q10 8 9 22t-8 23q-5 7 -11.5 14t-14.5 12q-11 11 -24 21.5t-21 23.5q-7 11 -9 24.5t1.5 26.5t11.5 23t22 14
q13 3 29 2t28 -9q11 -8 15 -22.5t5 -28.5l-25 -9q-2 14 -6.5 27.5t-19.5 16.5q-11 2 -19.5 -3.5t-10.5 -17.5q-3 -9 0 -17t9 -15t13.5 -12.5t13.5 -11.5q16 -14 29.5 -28t17.5 -36q7 -27 -8.5 -49t-44.5 -22zM764 -88h37l73 322h-41zM739 441v233h91v-25h-58v-76h47v-24h-47
v-87h58v-21h-91zM581 707v235h90v-25h-58v-76h47v-24h-47v-87h59v-23h-91zM966 466q7 -4 16 -4t14 4q9 5 12.5 13.5t5.5 17.5q1 5 0.5 12t-0.5 12v83q0 10 -1 20.5t-9 18.5q-13 13 -29 8q-16 -4 -23 -22q-3 -17 -2 -37t1 -37v-42q0 -12 1.5 -26t13.5 -21zM1380 441v48
q0 9 1 18t-1 17q-2 13 -6.5 23.5t-9.5 21.5l-33 105h30l35 -112l34 112h32l-16 -48t-16 -49l-16 -48q-3 -8 -2.5 -16t0.5 -14v-58h-32zM1030 732q13 -5 29 0q10 5 12.5 13.5t3.5 16.5v109q0 10 -1 20.5t-9 17.5q-5 8 -12.5 9t-15.5 -1q-17 -1 -22 -20q-5 -17 -3 -37.5
t2 -37.5v-43q0 -12 1 -26t15 -21zM1434 707v235h32v-212h60v-23h-92zM1231 441v233h32v-212h59v-21h-91zM473 -388q-15 0 -22 6.5t-9.5 16t-2.5 21v20.5q0 11 0.5 22t4 19t11 12.5t21.5 3.5q12 -1 18.5 -7t9 -15t2.5 -19.5v-19.5v-19.5t-3 -19.5t-10 -15t-20 -6zM574 -240
q-14 0 -21 6.5t-9.5 16.5t-2.5 21.5v21.5t0.5 20.5t4 18.5t10.5 13t21 4q12 -1 18 -7t9 -15t3 -19.5v-19.5t-0.5 -20t-3.5 -20t-9.5 -15t-19.5 -6zM1479 -388q-14 0 -21 6.5t-9.5 16t-2.5 21v20.5q0 11 0.5 22t4 19t11 12.5t21.5 3.5q13 -1 18.5 -7t7.5 -15t1.5 -19.5
t-0.5 -19.5v-19.5t-2.5 -19.5t-9 -15t-19.5 -6zM1409 -238v119q11 0 26 0.5t26 -8.5t10 -24.5t-1 -27.5t0.5 -28.5t-13.5 -24.5q-9 -8 -23 -7t-25 1zM521 -387l2 119h18l21 -95l20 95h16l2 -119h-13l-1 88l-20 -88h-11l-19 88l-1 -88h-14zM775 -387v119q12 0 24 1t22 -4
q7 -4 10.5 -12t3.5 -17t-4 -16.5t-11 -10.5l17 -60h-16l-14 57h-13v-57h-19zM618 -387l2 119h17l21 -95l21 95h17l1 -119h-11l-2 88l-21 -88h-11l-18 88l-2 -88h-14zM623 -238v119q11 0 22.5 1t21.5 -4q7 -4 11 -12.5t4.5 -17.5t-3 -16.5t-12.5 -10.5l18 -59h-17l-17 55h-12
v-55h-16zM1265 -387v119q11 0 23 1t23 -4q6 -4 10 -12t4 -17t-3.5 -16.5t-10.5 -10.5l15 -60h-15l-15 57h-14v-57h-17zM635 263v121h30t26 -12q4 -11 3 -25t-9 -21q-8 -6 -16.5 -6.5t-17.5 -0.5v-56h-16zM793 -238v119h15v-52h31v52h18v-119h-18v55h-31v-55h-15zM1331 -238
v119h10l35 -79v79h13v-119h-10l-34 80v-80h-14zM818 263l26 121h16l26 -121h-18l-5 32h-25l-5 -32h-15zM1530 -387v119h10l35 -79v79h13v-119h-11l-35 82v-82h-12zM1253 -238l23 119h18l25 -119h-16l-6 30h-24l-7 -30h-13zM959 -387l25 119h17l25 -119h-15l-5 31h-26l-5 -31
h-16zM1489 491l-9 183h30l-10 -183h-11zM474 841q8 0 16 -0.5t18 1.5q12 3 15.5 12.5t3.5 20.5q1 13 -2 25t-17 16q-10 2 -18 1.5t-16 -0.5v-76zM1072 -238q-17 -5 -29.5 2.5t-16.5 24.5q-2 8 -1 15t1 13v64h15v-53q0 -5 -0.5 -14.5t0.5 -18.5t4.5 -16t11.5 -7t12 7t5.5 16
t1 18.5t-0.5 14.5v53h14v-54q0 -8 0.5 -17.5t-0.5 -19t-4.5 -17.5t-12.5 -11zM395 -388q-15 0 -22 9t-9 21.5t-1.5 27t0.5 25.5q0 16 8.5 28t28.5 10q18 -2 22 -14.5t4 -26.5h-16q0 5 0.5 10.5t-2.5 10.5q-2 8 -11 9t-13 -7q-6 -6 -4.5 -20t1.5 -23q0 -7 -1.5 -20t5.5 -21
q3 -7 12 -5.5t11 9.5q3 5 2.5 11t-0.5 11h16q0 -15 -5 -30t-26 -15zM882 -388q-16 0 -22.5 9t-8 21.5t-0.5 27t1 25.5q0 16 7.5 28t27.5 10q19 -2 23 -14.5t4 -26.5h-18q0 5 1 10.5t-2 10.5q-2 8 -10.5 9t-13.5 -7q-6 -6 -5 -20t1 -23q0 -7 -1 -20t6 -21q4 -7 12.5 -5.5
t10.5 9.5q3 5 2 11t-1 11h18q0 -15 -5 -30t-27 -15zM1199 262q-16 0 -23 10t-8 25l16 5q0 -6 2.5 -14t8.5 -12q8 -2 12.5 2.5t4.5 11.5q1 12 -9.5 21.5t-18.5 17.5q-11 9 -15.5 24t8.5 27q17 8 33 3q8 -4 11.5 -12.5t4.5 -16.5l-14 -3q-1 5 -2.5 11t-6.5 11q-5 2 -10.5 0
t-6.5 -10q-6 -8 2 -16l14 -14q7 -6 14.5 -13.5t9.5 -18.5q5 -14 -2.5 -26.5t-24.5 -12.5zM1371 -388q-16 0 -23.5 10.5t-9.5 24.5l16 4q0 -6 2 -13.5t8 -9.5q9 -5 14 -0.5t5 11.5q0 12 -10.5 21.5t-18.5 15.5q-11 11 -15 26.5t10 25.5q7 5 16.5 6t15.5 -3q8 -2 11.5 -10.5
t4.5 -16.5l-14 -5l-2 12t-6 11q-16 4 -20 -9q-4 -9 3.5 -16t14.5 -13q7 -8 14.5 -15.5t9.5 -18.5q5 -14 -3 -26t-23 -12zM925 262q-14 0 -22.5 10t-9.5 25l16 5q0 -6 2 -14t8 -12q8 -2 13.5 2.5t5.5 11.5q0 12 -10.5 21.5t-18.5 17.5q-11 9 -15 24t9 27q7 4 16 4.5t16 -1.5
q9 -4 12.5 -12.5t4.5 -16.5l-14 -3q-1 5 -2.5 11t-6.5 11q-6 2 -11.5 0t-7.5 -10q-3 -8 4 -16t12 -14q8 -6 16 -13.5t10 -18.5q5 -14 -3 -26.5t-24 -12.5zM731 841h16t17 2q11 5 14.5 15.5t1.5 23.5q0 11 -2.5 19t-13.5 13q-8 4 -17 3.5t-16 -0.5v-76zM1081 263l-27 121h18
l17 -88l19 88h13l-25 -121h-15zM1152 -387l-27 119h15l20 -87l16 87h17l-28 -119h-13zM966 263v121h48v-11h-31v-41h25v-12h-25v-45h32v-12h-49zM1205 -387v119h48v-10h-31v-39h25v-13h-25v-45h31v-12h-48zM716 -387v119h47v-10h-30v-39h25v-13h-25v-45h30v-12h-47z
M875 -238v119h46v-12h-29v-40h25v-12h-25v-45h29v-10h-46zM566 -226q10 -5 14.5 -1t6.5 11.5t2 16.5v15q0 4 0.5 12t0.5 16t-2 14.5t-6 9.5q-11 6 -18 -2t-7 -18v-19q0 -4 -0.5 -12.5t-0.5 -17t2 -16t8 -9.5zM764 263v121h46v-11h-31v-41h26v-12h-26v-45h31v-12h-46z
M1471 -371q10 -6 15 -2.5t7.5 10.5t2.5 16v15q0 4 0.5 12t-0.5 15.5t-3 14t-6 8.5q-12 8 -17 0t-5 -17v-18q0 -5 -1 -13t-1 -17t1.5 -16t6.5 -8zM464 -371q10 -6 15 -2.5t7 10.5t2 16v15q0 4 0.5 12t0 15.5t-2 14t-5.5 8.5q-13 8 -18.5 0t-5.5 -17q-1 -5 -0.5 -9.5t0.5 -8.5
q0 -5 -0.5 -13t-0.5 -17t1.5 -16t6.5 -8zM485 -238v119h46v-12h-28v-40h22v-12h-22v-55h-18zM1425 -228q11 0 18.5 2t9.5 15v63q-1 13 -9 15t-19 2v-97zM746 -238v107h-22v12h61v-12h-22v-107h-17zM1165 -238v119h17v-109h30v-10h-47zM1292 263v110h-23v11h58v-11h-20v-110
h-15zM971 -238v119h45v-12h-32v-40h24v-12h-24v-55h-13zM1108 -238v119h16v-109h30v-10h-46zM1350 164h14q10 0 15 -10t5.5 -23t-2.5 -24t-9 -14h-23v71zM706 263v121h15v-109h31v-12h-46zM1241 263v121h18v-121h-18zM1039 -387v119h15v-107h32v-12h-47zM1324 789h40
l-20 107zM432 -56h43v48h-43v-48zM930 -387v119h17v-119h-17zM1136 263v121h16v-121h-16zM1413 -387v119h15v-119h-15zM651 331h9t10 2q6 3 7 9t1 13q-1 14 -8.5 16t-18.5 2v-42zM1480 441v33h30v-33h-30zM639 -171q11 0 19 3.5t8 17.5t-8 16.5t-19 2.5v-40zM1282 -317
q11 0 19 2.5t8 16.5q0 12 -8 16t-19 4v-39zM794 -317q11 0 18 2.5t7 16.5q0 12 -7 16t-18 4v-39zM839 306h22l-9 55zM982 -345h21l-10 55zM1275 -196h21l-11 54zM927 43l8 51l7 -51h-15zM1763 201l-47 -257h43l10 61h28l8 -61h43l-45 257h-40zM1775 43l8 51l7 -51h-15z" />
    <glyph glyph-name="seven" unicode="7" horiz-adv-x="1954" 
d="M208 201l-30 -161l-29 161h-42l-4 -257h40l1 105l20 -105h30l21 106l2 -106h37l-2 257h-44zM1118 201l-30 -161l-29 161h-42l-4 -257h40l1 105l20 -105h30l21 106l2 -106h37l-2 257h-44zM1043 705q-53 0 -62 52q-2 11 -2 22v22q0 24 -1 51.5t5 50.5q6 20 21.5 29.5
t34.5 10.5q20 1 37.5 -7t24.5 -28q8 -22 7.5 -49.5t-0.5 -51.5q0 -14 -0.5 -27.5t-3.5 -26.5q-11 -48 -61 -48zM982 439q-25 0 -41 12.5t-21 36.5q-2 12 -1.5 23.5t0.5 24.5q0 23 -1 49.5t4 49.5q6 21 21 30.5t35 9.5q21 1 38 -6t24 -27q9 -23 7 -50.5t-2 -50.5
q0 -16 0.5 -28.5t-2.5 -26.5q-9 -47 -61 -47zM1307 201v-257h43v111h11l23 -111h43l-29 120q18 11 24 31.5t6 39.5q0 35 -15.5 50.5t-30.5 15.5h-75zM364 78l-44 123h-33v-257h40v126l45 -126h32v257h-40v-123zM1610 -56v108h49v-108h43v257h-43v-104h-49v104h-43v-257h43z
M688 40h26v-16.5t-2 -22t-7.5 -17t-16.5 -2.5q-7 2 -10 9t-4 15.5t-0.5 17t0.5 13.5v61q0 12 -0.5 27.5t2.5 28.5q3 5 8.5 8.5t11.5 2.5q13 -4 14 -16q2 -9 1.5 -18.5t-0.5 -20.5h43q0 22 -3 47t-25 39q-12 8 -28 8.5t-30 -4.5q-17 -5 -25.5 -20t-11.5 -32q-2 -18 -1.5 -37
t0.5 -38q0 -18 -0.5 -35.5t1.5 -35.5q2 -15 7.5 -30.5t19.5 -22.5q13 -9 32 -8.5t30 11.5l1 -8h34v134h-67v-38zM697 707v235q23 0 47.5 0.5t44.5 -10.5q12 -8 19 -23.5t7 -32.5t-7 -31.5t-21 -19.5l31 -118h-31l-31 111h-25v-111h-34zM580 78l-21 23q-7 7 -13.5 13t-9.5 17
q-3 8 -0.5 21.5t15.5 12.5q7 -1 10 -7t4.5 -13.5t2 -15.5t0.5 -14l40 2q0 24 -5 48t-28 34q-14 6 -28 5t-25.5 -7t-19 -17.5t-8.5 -26.5q-2 -15 0.5 -31t11.5 -28q3 -8 9.5 -13t12.5 -12q12 -14 26 -29.5t14 -35.5q0 -8 -1.5 -14.5t-8.5 -7.5q-6 -2 -10 1t-6 8
q-6 11 -7 22.5t-2 23.5l-40 -3q0 -17 1.5 -32t8.5 -30q8 -18 25.5 -26t36.5 -4q20 4 31.5 19t13.5 32q6 48 -30 85zM915 201l-47 -257h43l10 61h28l8 -61h43l-45 257h-40zM1231 56h46v45h-46v55h56v45h-99v-257h99v45h-56v67zM442 707v235h49q18 0 33.5 -4t24.5 -22
q5 -10 7.5 -22.5t1.5 -24.5t-6 -23t-14 -18q-13 -11 -31 -11h-33v-110h-32zM1078 441v233h22l66 -156v156h29v-233h-22l-68 159v-159h-27zM1140 707v235h22l65 -156v156h28v-235h-21l-68 159v-159h-26zM1279 707l49 235h32l49 -235h-30l-12 58h-47l-11 -58h-30zM531 442
q-21 -8 -46 -1t-34 32q-5 12 -6 25.5t-1 30.5v145h31v-156q0 -13 2 -30t17 -25q13 -4 21.5 0t13 12t6.5 18.5t2 20.5q1 20 0.5 37.5t-0.5 37.5v85h33v-107q0 -15 0.5 -34t-2 -37t-11 -33t-26.5 -21zM1517 -56v212h36v45h-116v-45h37v-212h43zM902 705q-29 0 -45.5 19.5
t-17.5 47.5l30 8q2 -11 4 -22.5t9 -18.5q8 -8 19 -9t19 6q9 8 8.5 22t-7.5 25q-6 10 -26 25q-11 10 -23.5 20.5t-20.5 22.5t-10 26.5t1 27t11.5 22.5t22.5 14q13 3 29 1.5t27 -9.5q12 -8 16 -22t5 -28l-25 -8q-2 12 -6.5 26t-19.5 18q-11 1 -20 -4.5t-11 -15.5t1 -18.5
t9 -15.5t13.5 -13t14.5 -11q15 -14 29 -28.5t19 -34.5q5 -29 -10 -51t-45 -22zM658 439q-30 0 -45 19t-17 48l31 8q1 -11 2.5 -22t8.5 -19q8 -9 19 -10t19 7q10 8 9 22t-8 23q-5 7 -11.5 14t-14.5 12q-11 11 -24 21.5t-21 23.5q-7 11 -9 24.5t1.5 26.5t11.5 23t22 14
q13 3 29 2t28 -9q11 -8 15 -22.5t5 -28.5l-25 -9q-2 14 -6.5 27.5t-19.5 16.5q-11 2 -19.5 -3.5t-10.5 -17.5q-3 -9 0 -17t9 -15t13.5 -12.5t13.5 -11.5q16 -14 29.5 -28t17.5 -36q7 -27 -8.5 -49t-44.5 -22zM764 -88h37l73 322h-41zM739 441v233h91v-25h-58v-76h47v-24h-47
v-87h58v-21h-91zM581 707v235h90v-25h-58v-76h47v-24h-47v-87h59v-23h-91zM966 466q7 -4 16 -4t14 4q9 5 12.5 13.5t5.5 17.5q1 5 0.5 12t-0.5 12v83q0 10 -1 20.5t-9 18.5q-13 13 -29 8q-16 -4 -23 -22q-3 -17 -2 -37t1 -37v-42q0 -12 1.5 -26t13.5 -21zM1380 441v48
q0 9 1 18t-1 17q-2 13 -6.5 23.5t-9.5 21.5l-33 105h30l35 -112l34 112h32l-16 -48t-16 -49l-16 -48q-3 -8 -2.5 -16t0.5 -14v-58h-32zM1030 732q13 -5 29 0q10 5 12.5 13.5t3.5 16.5v109q0 10 -1 20.5t-9 17.5q-5 8 -12.5 9t-15.5 -1q-17 -1 -22 -20q-5 -17 -3 -37.5
t2 -37.5v-43q0 -12 1 -26t15 -21zM1434 707v235h32v-212h60v-23h-92zM1231 441v233h32v-212h59v-21h-91zM473 -388q-15 0 -22 6.5t-9.5 16t-2.5 21v20.5q0 11 0.5 22t4 19t11 12.5t21.5 3.5q12 -1 18.5 -7t9 -15t2.5 -19.5v-19.5v-19.5t-3 -19.5t-10 -15t-20 -6zM574 -240
q-14 0 -21 6.5t-9.5 16.5t-2.5 21.5v21.5t0.5 20.5t4 18.5t10.5 13t21 4q12 -1 18 -7t9 -15t3 -19.5v-19.5t-0.5 -20t-3.5 -20t-9.5 -15t-19.5 -6zM1479 -388q-14 0 -21 6.5t-9.5 16t-2.5 21v20.5q0 11 0.5 22t4 19t11 12.5t21.5 3.5q13 -1 18.5 -7t7.5 -15t1.5 -19.5
t-0.5 -19.5v-19.5t-2.5 -19.5t-9 -15t-19.5 -6zM1409 -238v119q11 0 26 0.5t26 -8.5t10 -24.5t-1 -27.5t0.5 -28.5t-13.5 -24.5q-9 -8 -23 -7t-25 1zM521 -387l2 119h18l21 -95l20 95h16l2 -119h-13l-1 88l-20 -88h-11l-19 88l-1 -88h-14zM775 -387v119q12 0 24 1t22 -4
q7 -4 10.5 -12t3.5 -17t-4 -16.5t-11 -10.5l17 -60h-16l-14 57h-13v-57h-19zM618 -387l2 119h17l21 -95l21 95h17l1 -119h-11l-2 88l-21 -88h-11l-18 88l-2 -88h-14zM623 -238v119q11 0 22.5 1t21.5 -4q7 -4 11 -12.5t4.5 -17.5t-3 -16.5t-12.5 -10.5l18 -59h-17l-17 55h-12
v-55h-16zM1265 -387v119q11 0 23 1t23 -4q6 -4 10 -12t4 -17t-3.5 -16.5t-10.5 -10.5l15 -60h-15l-15 57h-14v-57h-17zM635 263v121h30t26 -12q4 -11 3 -25t-9 -21q-8 -6 -16.5 -6.5t-17.5 -0.5v-56h-16zM793 -238v119h15v-52h31v52h18v-119h-18v55h-31v-55h-15zM1331 -238
v119h10l35 -79v79h13v-119h-10l-34 80v-80h-14zM818 263l26 121h16l26 -121h-18l-5 32h-25l-5 -32h-15zM1530 -387v119h10l35 -79v79h13v-119h-11l-35 82v-82h-12zM1253 -238l23 119h18l25 -119h-16l-6 30h-24l-7 -30h-13zM959 -387l25 119h17l25 -119h-15l-5 31h-26l-5 -31
h-16zM1489 491l-9 183h30l-10 -183h-11zM474 841q8 0 16 -0.5t18 1.5q12 3 15.5 12.5t3.5 20.5q1 13 -2 25t-17 16q-10 2 -18 1.5t-16 -0.5v-76zM1072 -238q-17 -5 -29.5 2.5t-16.5 24.5q-2 8 -1 15t1 13v64h15v-53q0 -5 -0.5 -14.5t0.5 -18.5t4.5 -16t11.5 -7t12 7t5.5 16
t1 18.5t-0.5 14.5v53h14v-54q0 -8 0.5 -17.5t-0.5 -19t-4.5 -17.5t-12.5 -11zM395 -388q-15 0 -22 9t-9 21.5t-1.5 27t0.5 25.5q0 16 8.5 28t28.5 10q18 -2 22 -14.5t4 -26.5h-16q0 5 0.5 10.5t-2.5 10.5q-2 8 -11 9t-13 -7q-6 -6 -4.5 -20t1.5 -23q0 -7 -1.5 -20t5.5 -21
q3 -7 12 -5.5t11 9.5q3 5 2.5 11t-0.5 11h16q0 -15 -5 -30t-26 -15zM882 -388q-16 0 -22.5 9t-8 21.5t-0.5 27t1 25.5q0 16 7.5 28t27.5 10q19 -2 23 -14.5t4 -26.5h-18q0 5 1 10.5t-2 10.5q-2 8 -10.5 9t-13.5 -7q-6 -6 -5 -20t1 -23q0 -7 -1 -20t6 -21q4 -7 12.5 -5.5
t10.5 9.5q3 5 2 11t-1 11h18q0 -15 -5 -30t-27 -15zM1199 262q-16 0 -23 10t-8 25l16 5q0 -6 2.5 -14t8.5 -12q8 -2 12.5 2.5t4.5 11.5q1 12 -9.5 21.5t-18.5 17.5q-11 9 -15.5 24t8.5 27q17 8 33 3q8 -4 11.5 -12.5t4.5 -16.5l-14 -3q-1 5 -2.5 11t-6.5 11q-5 2 -10.5 0
t-6.5 -10q-6 -8 2 -16l14 -14q7 -6 14.5 -13.5t9.5 -18.5q5 -14 -2.5 -26.5t-24.5 -12.5zM1371 -388q-16 0 -23.5 10.5t-9.5 24.5l16 4q0 -6 2 -13.5t8 -9.5q9 -5 14 -0.5t5 11.5q0 12 -10.5 21.5t-18.5 15.5q-11 11 -15 26.5t10 25.5q7 5 16.5 6t15.5 -3q8 -2 11.5 -10.5
t4.5 -16.5l-14 -5l-2 12t-6 11q-16 4 -20 -9q-4 -9 3.5 -16t14.5 -13q7 -8 14.5 -15.5t9.5 -18.5q5 -14 -3 -26t-23 -12zM925 262q-14 0 -22.5 10t-9.5 25l16 5q0 -6 2 -14t8 -12q8 -2 13.5 2.5t5.5 11.5q0 12 -10.5 21.5t-18.5 17.5q-11 9 -15 24t9 27q7 4 16 4.5t16 -1.5
q9 -4 12.5 -12.5t4.5 -16.5l-14 -3q-1 5 -2.5 11t-6.5 11q-6 2 -11.5 0t-7.5 -10q-3 -8 4 -16t12 -14q8 -6 16 -13.5t10 -18.5q5 -14 -3 -26.5t-24 -12.5zM731 841h16t17 2q11 5 14.5 15.5t1.5 23.5q0 11 -2.5 19t-13.5 13q-8 4 -17 3.5t-16 -0.5v-76zM1081 263l-27 121h18
l17 -88l19 88h13l-25 -121h-15zM1152 -387l-27 119h15l20 -87l16 87h17l-28 -119h-13zM966 263v121h48v-11h-31v-41h25v-12h-25v-45h32v-12h-49zM1205 -387v119h48v-10h-31v-39h25v-13h-25v-45h31v-12h-48zM716 -387v119h47v-10h-30v-39h25v-13h-25v-45h30v-12h-47z
M875 -238v119h46v-12h-29v-40h25v-12h-25v-45h29v-10h-46zM566 -226q10 -5 14.5 -1t6.5 11.5t2 16.5v15q0 4 0.5 12t0.5 16t-2 14.5t-6 9.5q-11 6 -18 -2t-7 -18v-19q0 -4 -0.5 -12.5t-0.5 -17t2 -16t8 -9.5zM764 263v121h46v-11h-31v-41h26v-12h-26v-45h31v-12h-46z
M1471 -371q10 -6 15 -2.5t7.5 10.5t2.5 16v15q0 4 0.5 12t-0.5 15.5t-3 14t-6 8.5q-12 8 -17 0t-5 -17v-18q0 -5 -1 -13t-1 -17t1.5 -16t6.5 -8zM464 -371q10 -6 15 -2.5t7 10.5t2 16v15q0 4 0.5 12t0 15.5t-2 14t-5.5 8.5q-13 8 -18.5 0t-5.5 -17q-1 -5 -0.5 -9.5t0.5 -8.5
q0 -5 -0.5 -13t-0.5 -17t1.5 -16t6.5 -8zM485 -238v119h46v-12h-28v-40h22v-12h-22v-55h-18zM1425 -228q11 0 18.5 2t9.5 15v63q-1 13 -9 15t-19 2v-97zM746 -238v107h-22v12h61v-12h-22v-107h-17zM1165 -238v119h17v-109h30v-10h-47zM1292 263v110h-23v11h58v-11h-20v-110
h-15zM971 -238v119h45v-12h-32v-40h24v-12h-24v-55h-13zM1108 -238v119h16v-109h30v-10h-46zM1350 164h14q10 0 15 -10t5.5 -23t-2.5 -24t-9 -14h-23v71zM706 263v121h15v-109h31v-12h-46zM1241 263v121h18v-121h-18zM1039 -387v119h15v-107h32v-12h-47zM1324 789h40
l-20 107zM432 -56h43v48h-43v-48zM930 -387v119h17v-119h-17zM1136 263v121h16v-121h-16zM1413 -387v119h15v-119h-15zM651 331h9t10 2q6 3 7 9t1 13q-1 14 -8.5 16t-18.5 2v-42zM1480 441v33h30v-33h-30zM639 -171q11 0 19 3.5t8 17.5t-8 16.5t-19 2.5v-40zM1282 -317
q11 0 19 2.5t8 16.5q0 12 -8 16t-19 4v-39zM794 -317q11 0 18 2.5t7 16.5q0 12 -7 16t-18 4v-39zM839 306h22l-9 55zM982 -345h21l-10 55zM1275 -196h21l-11 54zM927 43l8 51l7 -51h-15zM1763 201l-47 -257h43l10 61h28l8 -61h43l-45 257h-40zM1775 43l8 51l7 -51h-15z" />
    <glyph glyph-name="eight" unicode="8" horiz-adv-x="1954" 
d="M208 201l-30 -161l-29 161h-42l-4 -257h40l1 105l20 -105h30l21 106l2 -106h37l-2 257h-44zM1118 201l-30 -161l-29 161h-42l-4 -257h40l1 105l20 -105h30l21 106l2 -106h37l-2 257h-44zM1043 705q-53 0 -62 52q-2 11 -2 22v22q0 24 -1 51.5t5 50.5q6 20 21.5 29.5
t34.5 10.5q20 1 37.5 -7t24.5 -28q8 -22 7.5 -49.5t-0.5 -51.5q0 -14 -0.5 -27.5t-3.5 -26.5q-11 -48 -61 -48zM982 439q-25 0 -41 12.5t-21 36.5q-2 12 -1.5 23.5t0.5 24.5q0 23 -1 49.5t4 49.5q6 21 21 30.5t35 9.5q21 1 38 -6t24 -27q9 -23 7 -50.5t-2 -50.5
q0 -16 0.5 -28.5t-2.5 -26.5q-9 -47 -61 -47zM1307 201v-257h43v111h11l23 -111h43l-29 120q18 11 24 31.5t6 39.5q0 35 -15.5 50.5t-30.5 15.5h-75zM364 78l-44 123h-33v-257h40v126l45 -126h32v257h-40v-123zM1610 -56v108h49v-108h43v257h-43v-104h-49v104h-43v-257h43z
M688 40h26v-16.5t-2 -22t-7.5 -17t-16.5 -2.5q-7 2 -10 9t-4 15.5t-0.5 17t0.5 13.5v61q0 12 -0.5 27.5t2.5 28.5q3 5 8.5 8.5t11.5 2.5q13 -4 14 -16q2 -9 1.5 -18.5t-0.5 -20.5h43q0 22 -3 47t-25 39q-12 8 -28 8.5t-30 -4.5q-17 -5 -25.5 -20t-11.5 -32q-2 -18 -1.5 -37
t0.5 -38q0 -18 -0.5 -35.5t1.5 -35.5q2 -15 7.5 -30.5t19.5 -22.5q13 -9 32 -8.5t30 11.5l1 -8h34v134h-67v-38zM697 707v235q23 0 47.5 0.5t44.5 -10.5q12 -8 19 -23.5t7 -32.5t-7 -31.5t-21 -19.5l31 -118h-31l-31 111h-25v-111h-34zM580 78l-21 23q-7 7 -13.5 13t-9.5 17
q-3 8 -0.5 21.5t15.5 12.5q7 -1 10 -7t4.5 -13.5t2 -15.5t0.5 -14l40 2q0 24 -5 48t-28 34q-14 6 -28 5t-25.5 -7t-19 -17.5t-8.5 -26.5q-2 -15 0.5 -31t11.5 -28q3 -8 9.5 -13t12.5 -12q12 -14 26 -29.5t14 -35.5q0 -8 -1.5 -14.5t-8.5 -7.5q-6 -2 -10 1t-6 8
q-6 11 -7 22.5t-2 23.5l-40 -3q0 -17 1.5 -32t8.5 -30q8 -18 25.5 -26t36.5 -4q20 4 31.5 19t13.5 32q6 48 -30 85zM915 201l-47 -257h43l10 61h28l8 -61h43l-45 257h-40zM1231 56h46v45h-46v55h56v45h-99v-257h99v45h-56v67zM442 707v235h49q18 0 33.5 -4t24.5 -22
q5 -10 7.5 -22.5t1.5 -24.5t-6 -23t-14 -18q-13 -11 -31 -11h-33v-110h-32zM1078 441v233h22l66 -156v156h29v-233h-22l-68 159v-159h-27zM1140 707v235h22l65 -156v156h28v-235h-21l-68 159v-159h-26zM1279 707l49 235h32l49 -235h-30l-12 58h-47l-11 -58h-30zM531 442
q-21 -8 -46 -1t-34 32q-5 12 -6 25.5t-1 30.5v145h31v-156q0 -13 2 -30t17 -25q13 -4 21.5 0t13 12t6.5 18.5t2 20.5q1 20 0.5 37.5t-0.5 37.5v85h33v-107q0 -15 0.5 -34t-2 -37t-11 -33t-26.5 -21zM1517 -56v212h36v45h-116v-45h37v-212h43zM902 705q-29 0 -45.5 19.5
t-17.5 47.5l30 8q2 -11 4 -22.5t9 -18.5q8 -8 19 -9t19 6q9 8 8.5 22t-7.5 25q-6 10 -26 25q-11 10 -23.5 20.5t-20.5 22.5t-10 26.5t1 27t11.5 22.5t22.5 14q13 3 29 1.5t27 -9.5q12 -8 16 -22t5 -28l-25 -8q-2 12 -6.5 26t-19.5 18q-11 1 -20 -4.5t-11 -15.5t1 -18.5
t9 -15.5t13.5 -13t14.5 -11q15 -14 29 -28.5t19 -34.5q5 -29 -10 -51t-45 -22zM658 439q-30 0 -45 19t-17 48l31 8q1 -11 2.5 -22t8.5 -19q8 -9 19 -10t19 7q10 8 9 22t-8 23q-5 7 -11.5 14t-14.5 12q-11 11 -24 21.5t-21 23.5q-7 11 -9 24.5t1.5 26.5t11.5 23t22 14
q13 3 29 2t28 -9q11 -8 15 -22.5t5 -28.5l-25 -9q-2 14 -6.5 27.5t-19.5 16.5q-11 2 -19.5 -3.5t-10.5 -17.5q-3 -9 0 -17t9 -15t13.5 -12.5t13.5 -11.5q16 -14 29.5 -28t17.5 -36q7 -27 -8.5 -49t-44.5 -22zM764 -88h37l73 322h-41zM739 441v233h91v-25h-58v-76h47v-24h-47
v-87h58v-21h-91zM581 707v235h90v-25h-58v-76h47v-24h-47v-87h59v-23h-91zM966 466q7 -4 16 -4t14 4q9 5 12.5 13.5t5.5 17.5q1 5 0.5 12t-0.5 12v83q0 10 -1 20.5t-9 18.5q-13 13 -29 8q-16 -4 -23 -22q-3 -17 -2 -37t1 -37v-42q0 -12 1.5 -26t13.5 -21zM1380 441v48
q0 9 1 18t-1 17q-2 13 -6.5 23.5t-9.5 21.5l-33 105h30l35 -112l34 112h32l-16 -48t-16 -49l-16 -48q-3 -8 -2.5 -16t0.5 -14v-58h-32zM1030 732q13 -5 29 0q10 5 12.5 13.5t3.5 16.5v109q0 10 -1 20.5t-9 17.5q-5 8 -12.5 9t-15.5 -1q-17 -1 -22 -20q-5 -17 -3 -37.5
t2 -37.5v-43q0 -12 1 -26t15 -21zM1434 707v235h32v-212h60v-23h-92zM1231 441v233h32v-212h59v-21h-91zM473 -388q-15 0 -22 6.5t-9.5 16t-2.5 21v20.5q0 11 0.5 22t4 19t11 12.5t21.5 3.5q12 -1 18.5 -7t9 -15t2.5 -19.5v-19.5v-19.5t-3 -19.5t-10 -15t-20 -6zM574 -240
q-14 0 -21 6.5t-9.5 16.5t-2.5 21.5v21.5t0.5 20.5t4 18.5t10.5 13t21 4q12 -1 18 -7t9 -15t3 -19.5v-19.5t-0.5 -20t-3.5 -20t-9.5 -15t-19.5 -6zM1479 -388q-14 0 -21 6.5t-9.5 16t-2.5 21v20.5q0 11 0.5 22t4 19t11 12.5t21.5 3.5q13 -1 18.5 -7t7.5 -15t1.5 -19.5
t-0.5 -19.5v-19.5t-2.5 -19.5t-9 -15t-19.5 -6zM1409 -238v119q11 0 26 0.5t26 -8.5t10 -24.5t-1 -27.5t0.5 -28.5t-13.5 -24.5q-9 -8 -23 -7t-25 1zM521 -387l2 119h18l21 -95l20 95h16l2 -119h-13l-1 88l-20 -88h-11l-19 88l-1 -88h-14zM775 -387v119q12 0 24 1t22 -4
q7 -4 10.5 -12t3.5 -17t-4 -16.5t-11 -10.5l17 -60h-16l-14 57h-13v-57h-19zM618 -387l2 119h17l21 -95l21 95h17l1 -119h-11l-2 88l-21 -88h-11l-18 88l-2 -88h-14zM623 -238v119q11 0 22.5 1t21.5 -4q7 -4 11 -12.5t4.5 -17.5t-3 -16.5t-12.5 -10.5l18 -59h-17l-17 55h-12
v-55h-16zM1265 -387v119q11 0 23 1t23 -4q6 -4 10 -12t4 -17t-3.5 -16.5t-10.5 -10.5l15 -60h-15l-15 57h-14v-57h-17zM635 263v121h30t26 -12q4 -11 3 -25t-9 -21q-8 -6 -16.5 -6.5t-17.5 -0.5v-56h-16zM793 -238v119h15v-52h31v52h18v-119h-18v55h-31v-55h-15zM1331 -238
v119h10l35 -79v79h13v-119h-10l-34 80v-80h-14zM818 263l26 121h16l26 -121h-18l-5 32h-25l-5 -32h-15zM1530 -387v119h10l35 -79v79h13v-119h-11l-35 82v-82h-12zM1253 -238l23 119h18l25 -119h-16l-6 30h-24l-7 -30h-13zM959 -387l25 119h17l25 -119h-15l-5 31h-26l-5 -31
h-16zM1489 491l-9 183h30l-10 -183h-11zM474 841q8 0 16 -0.5t18 1.5q12 3 15.5 12.5t3.5 20.5q1 13 -2 25t-17 16q-10 2 -18 1.5t-16 -0.5v-76zM1072 -238q-17 -5 -29.5 2.5t-16.5 24.5q-2 8 -1 15t1 13v64h15v-53q0 -5 -0.5 -14.5t0.5 -18.5t4.5 -16t11.5 -7t12 7t5.5 16
t1 18.5t-0.5 14.5v53h14v-54q0 -8 0.5 -17.5t-0.5 -19t-4.5 -17.5t-12.5 -11zM395 -388q-15 0 -22 9t-9 21.5t-1.5 27t0.5 25.5q0 16 8.5 28t28.5 10q18 -2 22 -14.5t4 -26.5h-16q0 5 0.5 10.5t-2.5 10.5q-2 8 -11 9t-13 -7q-6 -6 -4.5 -20t1.5 -23q0 -7 -1.5 -20t5.5 -21
q3 -7 12 -5.5t11 9.5q3 5 2.5 11t-0.5 11h16q0 -15 -5 -30t-26 -15zM882 -388q-16 0 -22.5 9t-8 21.5t-0.5 27t1 25.5q0 16 7.5 28t27.5 10q19 -2 23 -14.5t4 -26.5h-18q0 5 1 10.5t-2 10.5q-2 8 -10.5 9t-13.5 -7q-6 -6 -5 -20t1 -23q0 -7 -1 -20t6 -21q4 -7 12.5 -5.5
t10.5 9.5q3 5 2 11t-1 11h18q0 -15 -5 -30t-27 -15zM1199 262q-16 0 -23 10t-8 25l16 5q0 -6 2.5 -14t8.5 -12q8 -2 12.5 2.5t4.5 11.5q1 12 -9.5 21.5t-18.5 17.5q-11 9 -15.5 24t8.5 27q17 8 33 3q8 -4 11.5 -12.5t4.5 -16.5l-14 -3q-1 5 -2.5 11t-6.5 11q-5 2 -10.5 0
t-6.5 -10q-6 -8 2 -16l14 -14q7 -6 14.5 -13.5t9.5 -18.5q5 -14 -2.5 -26.5t-24.5 -12.5zM1371 -388q-16 0 -23.5 10.5t-9.5 24.5l16 4q0 -6 2 -13.5t8 -9.5q9 -5 14 -0.5t5 11.5q0 12 -10.5 21.5t-18.5 15.5q-11 11 -15 26.5t10 25.5q7 5 16.5 6t15.5 -3q8 -2 11.5 -10.5
t4.5 -16.5l-14 -5l-2 12t-6 11q-16 4 -20 -9q-4 -9 3.5 -16t14.5 -13q7 -8 14.5 -15.5t9.5 -18.5q5 -14 -3 -26t-23 -12zM925 262q-14 0 -22.5 10t-9.5 25l16 5q0 -6 2 -14t8 -12q8 -2 13.5 2.5t5.5 11.5q0 12 -10.5 21.5t-18.5 17.5q-11 9 -15 24t9 27q7 4 16 4.5t16 -1.5
q9 -4 12.5 -12.5t4.5 -16.5l-14 -3q-1 5 -2.5 11t-6.5 11q-6 2 -11.5 0t-7.5 -10q-3 -8 4 -16t12 -14q8 -6 16 -13.5t10 -18.5q5 -14 -3 -26.5t-24 -12.5zM731 841h16t17 2q11 5 14.5 15.5t1.5 23.5q0 11 -2.5 19t-13.5 13q-8 4 -17 3.5t-16 -0.5v-76zM1081 263l-27 121h18
l17 -88l19 88h13l-25 -121h-15zM1152 -387l-27 119h15l20 -87l16 87h17l-28 -119h-13zM966 263v121h48v-11h-31v-41h25v-12h-25v-45h32v-12h-49zM1205 -387v119h48v-10h-31v-39h25v-13h-25v-45h31v-12h-48zM716 -387v119h47v-10h-30v-39h25v-13h-25v-45h30v-12h-47z
M875 -238v119h46v-12h-29v-40h25v-12h-25v-45h29v-10h-46zM566 -226q10 -5 14.5 -1t6.5 11.5t2 16.5v15q0 4 0.5 12t0.5 16t-2 14.5t-6 9.5q-11 6 -18 -2t-7 -18v-19q0 -4 -0.5 -12.5t-0.5 -17t2 -16t8 -9.5zM764 263v121h46v-11h-31v-41h26v-12h-26v-45h31v-12h-46z
M1471 -371q10 -6 15 -2.5t7.5 10.5t2.5 16v15q0 4 0.5 12t-0.5 15.5t-3 14t-6 8.5q-12 8 -17 0t-5 -17v-18q0 -5 -1 -13t-1 -17t1.5 -16t6.5 -8zM464 -371q10 -6 15 -2.5t7 10.5t2 16v15q0 4 0.5 12t0 15.5t-2 14t-5.5 8.5q-13 8 -18.5 0t-5.5 -17q-1 -5 -0.5 -9.5t0.5 -8.5
q0 -5 -0.5 -13t-0.5 -17t1.5 -16t6.5 -8zM485 -238v119h46v-12h-28v-40h22v-12h-22v-55h-18zM1425 -228q11 0 18.5 2t9.5 15v63q-1 13 -9 15t-19 2v-97zM746 -238v107h-22v12h61v-12h-22v-107h-17zM1165 -238v119h17v-109h30v-10h-47zM1292 263v110h-23v11h58v-11h-20v-110
h-15zM971 -238v119h45v-12h-32v-40h24v-12h-24v-55h-13zM1108 -238v119h16v-109h30v-10h-46zM1350 164h14q10 0 15 -10t5.5 -23t-2.5 -24t-9 -14h-23v71zM706 263v121h15v-109h31v-12h-46zM1241 263v121h18v-121h-18zM1039 -387v119h15v-107h32v-12h-47zM1324 789h40
l-20 107zM432 -56h43v48h-43v-48zM930 -387v119h17v-119h-17zM1136 263v121h16v-121h-16zM1413 -387v119h15v-119h-15zM651 331h9t10 2q6 3 7 9t1 13q-1 14 -8.5 16t-18.5 2v-42zM1480 441v33h30v-33h-30zM639 -171q11 0 19 3.5t8 17.5t-8 16.5t-19 2.5v-40zM1282 -317
q11 0 19 2.5t8 16.5q0 12 -8 16t-19 4v-39zM794 -317q11 0 18 2.5t7 16.5q0 12 -7 16t-18 4v-39zM839 306h22l-9 55zM982 -345h21l-10 55zM1275 -196h21l-11 54zM927 43l8 51l7 -51h-15zM1763 201l-47 -257h43l10 61h28l8 -61h43l-45 257h-40zM1775 43l8 51l7 -51h-15z" />
    <glyph glyph-name="nine" unicode="9" horiz-adv-x="1954" 
d="M208 201l-30 -161l-29 161h-42l-4 -257h40l1 105l20 -105h30l21 106l2 -106h37l-2 257h-44zM1118 201l-30 -161l-29 161h-42l-4 -257h40l1 105l20 -105h30l21 106l2 -106h37l-2 257h-44zM1043 705q-53 0 -62 52q-2 11 -2 22v22q0 24 -1 51.5t5 50.5q6 20 21.5 29.5
t34.5 10.5q20 1 37.5 -7t24.5 -28q8 -22 7.5 -49.5t-0.5 -51.5q0 -14 -0.5 -27.5t-3.5 -26.5q-11 -48 -61 -48zM982 439q-25 0 -41 12.5t-21 36.5q-2 12 -1.5 23.5t0.5 24.5q0 23 -1 49.5t4 49.5q6 21 21 30.5t35 9.5q21 1 38 -6t24 -27q9 -23 7 -50.5t-2 -50.5
q0 -16 0.5 -28.5t-2.5 -26.5q-9 -47 -61 -47zM1307 201v-257h43v111h11l23 -111h43l-29 120q18 11 24 31.5t6 39.5q0 35 -15.5 50.5t-30.5 15.5h-75zM364 78l-44 123h-33v-257h40v126l45 -126h32v257h-40v-123zM1610 -56v108h49v-108h43v257h-43v-104h-49v104h-43v-257h43z
M688 40h26v-16.5t-2 -22t-7.5 -17t-16.5 -2.5q-7 2 -10 9t-4 15.5t-0.5 17t0.5 13.5v61q0 12 -0.5 27.5t2.5 28.5q3 5 8.5 8.5t11.5 2.5q13 -4 14 -16q2 -9 1.5 -18.5t-0.5 -20.5h43q0 22 -3 47t-25 39q-12 8 -28 8.5t-30 -4.5q-17 -5 -25.5 -20t-11.5 -32q-2 -18 -1.5 -37
t0.5 -38q0 -18 -0.5 -35.5t1.5 -35.5q2 -15 7.5 -30.5t19.5 -22.5q13 -9 32 -8.5t30 11.5l1 -8h34v134h-67v-38zM697 707v235q23 0 47.5 0.5t44.5 -10.5q12 -8 19 -23.5t7 -32.5t-7 -31.5t-21 -19.5l31 -118h-31l-31 111h-25v-111h-34zM580 78l-21 23q-7 7 -13.5 13t-9.5 17
q-3 8 -0.5 21.5t15.5 12.5q7 -1 10 -7t4.5 -13.5t2 -15.5t0.5 -14l40 2q0 24 -5 48t-28 34q-14 6 -28 5t-25.5 -7t-19 -17.5t-8.5 -26.5q-2 -15 0.5 -31t11.5 -28q3 -8 9.5 -13t12.5 -12q12 -14 26 -29.5t14 -35.5q0 -8 -1.5 -14.5t-8.5 -7.5q-6 -2 -10 1t-6 8
q-6 11 -7 22.5t-2 23.5l-40 -3q0 -17 1.5 -32t8.5 -30q8 -18 25.5 -26t36.5 -4q20 4 31.5 19t13.5 32q6 48 -30 85zM915 201l-47 -257h43l10 61h28l8 -61h43l-45 257h-40zM1231 56h46v45h-46v55h56v45h-99v-257h99v45h-56v67zM442 707v235h49q18 0 33.5 -4t24.5 -22
q5 -10 7.5 -22.5t1.5 -24.5t-6 -23t-14 -18q-13 -11 -31 -11h-33v-110h-32zM1078 441v233h22l66 -156v156h29v-233h-22l-68 159v-159h-27zM1140 707v235h22l65 -156v156h28v-235h-21l-68 159v-159h-26zM1279 707l49 235h32l49 -235h-30l-12 58h-47l-11 -58h-30zM531 442
q-21 -8 -46 -1t-34 32q-5 12 -6 25.5t-1 30.5v145h31v-156q0 -13 2 -30t17 -25q13 -4 21.5 0t13 12t6.5 18.5t2 20.5q1 20 0.5 37.5t-0.5 37.5v85h33v-107q0 -15 0.5 -34t-2 -37t-11 -33t-26.5 -21zM1517 -56v212h36v45h-116v-45h37v-212h43zM902 705q-29 0 -45.5 19.5
t-17.5 47.5l30 8q2 -11 4 -22.5t9 -18.5q8 -8 19 -9t19 6q9 8 8.5 22t-7.5 25q-6 10 -26 25q-11 10 -23.5 20.5t-20.5 22.5t-10 26.5t1 27t11.5 22.5t22.5 14q13 3 29 1.5t27 -9.5q12 -8 16 -22t5 -28l-25 -8q-2 12 -6.5 26t-19.5 18q-11 1 -20 -4.5t-11 -15.5t1 -18.5
t9 -15.5t13.5 -13t14.5 -11q15 -14 29 -28.5t19 -34.5q5 -29 -10 -51t-45 -22zM658 439q-30 0 -45 19t-17 48l31 8q1 -11 2.5 -22t8.5 -19q8 -9 19 -10t19 7q10 8 9 22t-8 23q-5 7 -11.5 14t-14.5 12q-11 11 -24 21.5t-21 23.5q-7 11 -9 24.5t1.5 26.5t11.5 23t22 14
q13 3 29 2t28 -9q11 -8 15 -22.5t5 -28.5l-25 -9q-2 14 -6.5 27.5t-19.5 16.5q-11 2 -19.5 -3.5t-10.5 -17.5q-3 -9 0 -17t9 -15t13.5 -12.5t13.5 -11.5q16 -14 29.5 -28t17.5 -36q7 -27 -8.5 -49t-44.5 -22zM764 -88h37l73 322h-41zM739 441v233h91v-25h-58v-76h47v-24h-47
v-87h58v-21h-91zM581 707v235h90v-25h-58v-76h47v-24h-47v-87h59v-23h-91zM966 466q7 -4 16 -4t14 4q9 5 12.5 13.5t5.5 17.5q1 5 0.5 12t-0.5 12v83q0 10 -1 20.5t-9 18.5q-13 13 -29 8q-16 -4 -23 -22q-3 -17 -2 -37t1 -37v-42q0 -12 1.5 -26t13.5 -21zM1380 441v48
q0 9 1 18t-1 17q-2 13 -6.5 23.5t-9.5 21.5l-33 105h30l35 -112l34 112h32l-16 -48t-16 -49l-16 -48q-3 -8 -2.5 -16t0.5 -14v-58h-32zM1030 732q13 -5 29 0q10 5 12.5 13.5t3.5 16.5v109q0 10 -1 20.5t-9 17.5q-5 8 -12.5 9t-15.5 -1q-17 -1 -22 -20q-5 -17 -3 -37.5
t2 -37.5v-43q0 -12 1 -26t15 -21zM1434 707v235h32v-212h60v-23h-92zM1231 441v233h32v-212h59v-21h-91zM473 -388q-15 0 -22 6.5t-9.5 16t-2.5 21v20.5q0 11 0.5 22t4 19t11 12.5t21.5 3.5q12 -1 18.5 -7t9 -15t2.5 -19.5v-19.5v-19.5t-3 -19.5t-10 -15t-20 -6zM574 -240
q-14 0 -21 6.5t-9.5 16.5t-2.5 21.5v21.5t0.5 20.5t4 18.5t10.5 13t21 4q12 -1 18 -7t9 -15t3 -19.5v-19.5t-0.5 -20t-3.5 -20t-9.5 -15t-19.5 -6zM1479 -388q-14 0 -21 6.5t-9.5 16t-2.5 21v20.5q0 11 0.5 22t4 19t11 12.5t21.5 3.5q13 -1 18.5 -7t7.5 -15t1.5 -19.5
t-0.5 -19.5v-19.5t-2.5 -19.5t-9 -15t-19.5 -6zM1409 -238v119q11 0 26 0.5t26 -8.5t10 -24.5t-1 -27.5t0.5 -28.5t-13.5 -24.5q-9 -8 -23 -7t-25 1zM521 -387l2 119h18l21 -95l20 95h16l2 -119h-13l-1 88l-20 -88h-11l-19 88l-1 -88h-14zM775 -387v119q12 0 24 1t22 -4
q7 -4 10.5 -12t3.5 -17t-4 -16.5t-11 -10.5l17 -60h-16l-14 57h-13v-57h-19zM618 -387l2 119h17l21 -95l21 95h17l1 -119h-11l-2 88l-21 -88h-11l-18 88l-2 -88h-14zM623 -238v119q11 0 22.5 1t21.5 -4q7 -4 11 -12.5t4.5 -17.5t-3 -16.5t-12.5 -10.5l18 -59h-17l-17 55h-12
v-55h-16zM1265 -387v119q11 0 23 1t23 -4q6 -4 10 -12t4 -17t-3.5 -16.5t-10.5 -10.5l15 -60h-15l-15 57h-14v-57h-17zM635 263v121h30t26 -12q4 -11 3 -25t-9 -21q-8 -6 -16.5 -6.5t-17.5 -0.5v-56h-16zM793 -238v119h15v-52h31v52h18v-119h-18v55h-31v-55h-15zM1331 -238
v119h10l35 -79v79h13v-119h-10l-34 80v-80h-14zM818 263l26 121h16l26 -121h-18l-5 32h-25l-5 -32h-15zM1530 -387v119h10l35 -79v79h13v-119h-11l-35 82v-82h-12zM1253 -238l23 119h18l25 -119h-16l-6 30h-24l-7 -30h-13zM959 -387l25 119h17l25 -119h-15l-5 31h-26l-5 -31
h-16zM1489 491l-9 183h30l-10 -183h-11zM474 841q8 0 16 -0.5t18 1.5q12 3 15.5 12.5t3.5 20.5q1 13 -2 25t-17 16q-10 2 -18 1.5t-16 -0.5v-76zM1072 -238q-17 -5 -29.5 2.5t-16.5 24.5q-2 8 -1 15t1 13v64h15v-53q0 -5 -0.5 -14.5t0.5 -18.5t4.5 -16t11.5 -7t12 7t5.5 16
t1 18.5t-0.5 14.5v53h14v-54q0 -8 0.5 -17.5t-0.5 -19t-4.5 -17.5t-12.5 -11zM395 -388q-15 0 -22 9t-9 21.5t-1.5 27t0.5 25.5q0 16 8.5 28t28.5 10q18 -2 22 -14.5t4 -26.5h-16q0 5 0.5 10.5t-2.5 10.5q-2 8 -11 9t-13 -7q-6 -6 -4.5 -20t1.5 -23q0 -7 -1.5 -20t5.5 -21
q3 -7 12 -5.5t11 9.5q3 5 2.5 11t-0.5 11h16q0 -15 -5 -30t-26 -15zM882 -388q-16 0 -22.5 9t-8 21.5t-0.5 27t1 25.5q0 16 7.5 28t27.5 10q19 -2 23 -14.5t4 -26.5h-18q0 5 1 10.5t-2 10.5q-2 8 -10.5 9t-13.5 -7q-6 -6 -5 -20t1 -23q0 -7 -1 -20t6 -21q4 -7 12.5 -5.5
t10.5 9.5q3 5 2 11t-1 11h18q0 -15 -5 -30t-27 -15zM1199 262q-16 0 -23 10t-8 25l16 5q0 -6 2.5 -14t8.5 -12q8 -2 12.5 2.5t4.5 11.5q1 12 -9.5 21.5t-18.5 17.5q-11 9 -15.5 24t8.5 27q17 8 33 3q8 -4 11.5 -12.5t4.5 -16.5l-14 -3q-1 5 -2.5 11t-6.5 11q-5 2 -10.5 0
t-6.5 -10q-6 -8 2 -16l14 -14q7 -6 14.5 -13.5t9.5 -18.5q5 -14 -2.5 -26.5t-24.5 -12.5zM1371 -388q-16 0 -23.5 10.5t-9.5 24.5l16 4q0 -6 2 -13.5t8 -9.5q9 -5 14 -0.5t5 11.5q0 12 -10.5 21.5t-18.5 15.5q-11 11 -15 26.5t10 25.5q7 5 16.5 6t15.5 -3q8 -2 11.5 -10.5
t4.5 -16.5l-14 -5l-2 12t-6 11q-16 4 -20 -9q-4 -9 3.5 -16t14.5 -13q7 -8 14.5 -15.5t9.5 -18.5q5 -14 -3 -26t-23 -12zM925 262q-14 0 -22.5 10t-9.5 25l16 5q0 -6 2 -14t8 -12q8 -2 13.5 2.5t5.5 11.5q0 12 -10.5 21.5t-18.5 17.5q-11 9 -15 24t9 27q7 4 16 4.5t16 -1.5
q9 -4 12.5 -12.5t4.5 -16.5l-14 -3q-1 5 -2.5 11t-6.5 11q-6 2 -11.5 0t-7.5 -10q-3 -8 4 -16t12 -14q8 -6 16 -13.5t10 -18.5q5 -14 -3 -26.5t-24 -12.5zM731 841h16t17 2q11 5 14.5 15.5t1.5 23.5q0 11 -2.5 19t-13.5 13q-8 4 -17 3.5t-16 -0.5v-76zM1081 263l-27 121h18
l17 -88l19 88h13l-25 -121h-15zM1152 -387l-27 119h15l20 -87l16 87h17l-28 -119h-13zM966 263v121h48v-11h-31v-41h25v-12h-25v-45h32v-12h-49zM1205 -387v119h48v-10h-31v-39h25v-13h-25v-45h31v-12h-48zM716 -387v119h47v-10h-30v-39h25v-13h-25v-45h30v-12h-47z
M875 -238v119h46v-12h-29v-40h25v-12h-25v-45h29v-10h-46zM566 -226q10 -5 14.5 -1t6.5 11.5t2 16.5v15q0 4 0.5 12t0.5 16t-2 14.5t-6 9.5q-11 6 -18 -2t-7 -18v-19q0 -4 -0.5 -12.5t-0.5 -17t2 -16t8 -9.5zM764 263v121h46v-11h-31v-41h26v-12h-26v-45h31v-12h-46z
M1471 -371q10 -6 15 -2.5t7.5 10.5t2.5 16v15q0 4 0.5 12t-0.5 15.5t-3 14t-6 8.5q-12 8 -17 0t-5 -17v-18q0 -5 -1 -13t-1 -17t1.5 -16t6.5 -8zM464 -371q10 -6 15 -2.5t7 10.5t2 16v15q0 4 0.5 12t0 15.5t-2 14t-5.5 8.5q-13 8 -18.5 0t-5.5 -17q-1 -5 -0.5 -9.5t0.5 -8.5
q0 -5 -0.5 -13t-0.5 -17t1.5 -16t6.5 -8zM485 -238v119h46v-12h-28v-40h22v-12h-22v-55h-18zM1425 -228q11 0 18.5 2t9.5 15v63q-1 13 -9 15t-19 2v-97zM746 -238v107h-22v12h61v-12h-22v-107h-17zM1165 -238v119h17v-109h30v-10h-47zM1292 263v110h-23v11h58v-11h-20v-110
h-15zM971 -238v119h45v-12h-32v-40h24v-12h-24v-55h-13zM1108 -238v119h16v-109h30v-10h-46zM1350 164h14q10 0 15 -10t5.5 -23t-2.5 -24t-9 -14h-23v71zM706 263v121h15v-109h31v-12h-46zM1241 263v121h18v-121h-18zM1039 -387v119h15v-107h32v-12h-47zM1324 789h40
l-20 107zM432 -56h43v48h-43v-48zM930 -387v119h17v-119h-17zM1136 263v121h16v-121h-16zM1413 -387v119h15v-119h-15zM651 331h9t10 2q6 3 7 9t1 13q-1 14 -8.5 16t-18.5 2v-42zM1480 441v33h30v-33h-30zM639 -171q11 0 19 3.5t8 17.5t-8 16.5t-19 2.5v-40zM1282 -317
q11 0 19 2.5t8 16.5q0 12 -8 16t-19 4v-39zM794 -317q11 0 18 2.5t7 16.5q0 12 -7 16t-18 4v-39zM839 306h22l-9 55zM982 -345h21l-10 55zM1275 -196h21l-11 54zM927 43l8 51l7 -51h-15zM1763 201l-47 -257h43l10 61h28l8 -61h43l-45 257h-40zM1775 43l8 51l7 -51h-15z" />
    <glyph glyph-name="colon" unicode=":" horiz-adv-x="339" 
d="M292 424q-23 -54 -58 -69q-36 -16 -67 -3q-30 14 -39 44q-7 31 25 71q44 49 83 55q38 4 56 -22q16 -28 0 -76zM171 128q-22 -54 -58 -70q-35 -15 -66 -2q-31 12 -39 44q-8 31 24 70q48 51 84 55q38 6 55 -22q18 -27 0 -75z" />
    <glyph glyph-name="semicolon" unicode=";" horiz-adv-x="345" 
d="M299 499q-23 -54 -58 -69t-66 -3q-31 14 -38 44q-9 31 24 70q45 49 83 55q38 5 54 -22q18 -27 1 -75zM69 211q6 49 42 59q34 10 66 -8q31 -17 26 -56q-20 -67 -76 -129q-56 -61 -104 -88q-27 -12 -43 0q-15 12 0 33q20 23 35.5 45.5t26.5 42.5q22 42 27 101z" />
    <glyph glyph-name="less" unicode="&#x3c;" horiz-adv-x="5" 
d="M-878 -150q30 12 105.5 24t183 24t240.5 23.5t279.5 21t299 17t298 12t278 5.5t238.5 -1.5t179.5 -10.5t101.5 -21q26 -12 35 -33.5t7.5 -42t-10 -34.5t-15.5 -11q-41 15 -120.5 25.5t-186.5 17t-235.5 9.5t-267.5 2.5t-282.5 -3.5t-280.5 -8.5t-261.5 -13.5t-225 -18
t-171.5 -21.5t-101 -23.5q-37 -5 -71 -10t-66 -10q-30 -5 -33 4t8.5 23.5t32.5 30t41 23.5zM-927 -231q9 6 21 12q11 5 27.5 9.5t39.5 6.5q61 9 114.5 3.5t90 -15.5t53 -20t4.5 -11q-13 -1 -40 3.5t-70 8.5t-102.5 6t-137.5 -3z" />
    <glyph glyph-name="equal" unicode="=" horiz-adv-x="605" 
d="M48 162q-30 0 -39 13t-3 31q5 17 21 30q16 14 33 14q23 0 45.5 0.5t45.5 0.5q80 2 159 2.5t160 2.5q36 -2 36 -24q1 -23 -21 -47q-23 -23 -49 -23h-388zM116 335q-31 0 -40 13t-3 31q6 17 22 30q16 14 32 14q23 0 46 0.5t46 0.5q80 2 159 2.5t160 1.5q36 -2 36 -24
q1 -20 -21 -46q-23 -23 -49 -23h-388z" />
    <glyph glyph-name="greater" unicode="&#x3e;" horiz-adv-x="5" 
d="M1278 -31q11 -2 14.5 -15t0.5 -27.5t-11 -26t-20 -11.5q-52 -2 -110 -17t-110.5 -34.5t-92.5 -38.5t-56 -28q-9 -5 -19 -0.5t-17.5 12.5t-11 18t0.5 15q3 4 25 14.5t49 23t52 23t35 14.5q3 2 -9.5 4.5t-36.5 3.5q-67 1 -172.5 -2t-235.5 -10.5t-275.5 -18t-291.5 -25
t-285 -31t-255.5 -36t-203 -40.5t-127.5 -44q-7 -5 -17 8t-14.5 33t0.5 42.5t29 38.5q25 17 96 33.5t174 31.5t232.5 28.5t272 24.5t292.5 20t294 15.5t276 10t238.5 4t182 -2.5t107.5 -10z" />
    <glyph glyph-name="question" unicode="?" horiz-adv-x="788" 
d="M186 -27q-5 -51 -39 -63q-35 -12 -62 9t-7 68q37 67 72 58q34 -11 36 -72zM190 120q-5 -22 -25 -26q-19 -6 -39 4q-18 9 -15 31q16 76 62 135q23 29 49.5 55t58.5 49q31 23 63 45.5t67 43.5q81 51 153 108q70 57 114 134q27 56 -8 83q-35 26 -101 18q-67 -8 -133 -51
q-68 -44 -106 -127q-13 -22 -42 -19q-32 3 -52 22q-23 20 -11 48q45 84 118 130q74 47 155 59q81 13 150 -6q69 -18 105 -65q35 -49 16 -120q-16 -54 -65 -106q-24 -25 -52 -49.5t-61 -47.5q-65 -47 -135 -90q-34 -22 -65.5 -43.5t-60.5 -42.5q-59 -41 -97 -84t-43 -88z" />
    <glyph glyph-name="at" unicode="@" horiz-adv-x="791" 
d="M244 -103q-108 9 -159 70t-52 156q-2 94 39 198q39 103 112 192q71 88 169 142q97 54 210 49q78 -4 124 -44q43 -38 60 -99q15 -58 7 -130q-4 -36 -12.5 -71.5t-21.5 -70.5q-14 -35 -29.5 -67t-35.5 -61q-40 -60 -86 -94q-47 -36 -94 -36q-46 0 -72 32q-27 32 -24 83
q-52 -70 -105 -91q-53 -20 -81 6q-33 33 -28 92q6 58 35 127q30 69 72 129q43 61 83 94q54 45 96 31q41 -13 49 -74q3 4 9 15q7 10 15 24q9 12 16 19q14 12 34 4q21 -8 31 -28q12 -20 -4 -36q-38 -34 -73 -96q-17 -31 -30.5 -61.5t-24.5 -61.5q-21 -61 -20 -104
q2 -43 36 -47q17 -1 44 22q26 23 52 62q14 20 26.5 41.5t24.5 47.5q11 24 20.5 50t16.5 52t10.5 52t5.5 51t-1 47t-9 42q-10 39 -40 64q-27 24 -79 24q-74 0 -144 -36q-69 -36 -129 -90q-59 -53 -102 -130q-42 -73 -64 -147q-22 -69 -16 -131q6 -63 44 -99q37 -37 115 -43
q18 -2 20 -22q3 -21 -8 -35q-10 -13 -32 -13zM283 118q14 0 41 34q14 17 28 38t29 46t28 50t24 51q23 53 29 87q6 35 -13 41q-21 3 -60 -32q-19 -18 -37 -40.5t-35 -49.5q-32 -52 -54 -107q-21 -54 -18 -88q4 -34 38 -30z" />
    <glyph glyph-name="A" unicode="A" horiz-adv-x="854" 
d="M1016 868q3 -19 -11 -53.5t-38 -79t-55 -96.5t-63 -107q58 0 93 -6q15 -3 18.5 -18.5t-2.5 -33t-20 -30t-34 -8.5q-50 11 -104 12q-30 -55 -57 -120.5t-46 -127t-28 -111.5t-3 -74q5 -20 -10 -31t-35.5 -13t-39 6t-18.5 26q-2 45 10 98t33 111t49 118t58 118
q-69 -2 -138 -11.5t-134 -23.5q-40 -61 -76.5 -130t-67.5 -140t-54.5 -141t-36.5 -133q-3 -15 -21.5 -19.5t-37 1t-31 21.5t-4.5 42q17 57 40 117.5t50.5 120.5t58.5 119t65 114q-78 -20 -131 -39.5t-66 -29.5q-15 -11 -30 -4t-22.5 21t-4 31t24.5 26q67 28 140.5 50
t149.5 39q24 33 48 63q64 80 130 147.5t128.5 118.5t118.5 83.5t99 42t71 -6t34 -59.5zM755 529q36 67 68.5 125.5t53.5 100t26 62.5t-13 14q-96 -36 -194 -121.5t-192 -208.5q69 11 132 18t119 10z" />
    <glyph glyph-name="B" unicode="B" horiz-adv-x="844" 
d="M355 406q81 54 153.5 106t129.5 101t94 93.5t46 84.5q10 44 -9 67.5t-54 29.5t-80.5 -5t-87.5 -36q13 -2 23.5 -8.5t16.5 -15.5t6 -19.5t-7 -20.5q-43 -61 -103 -155t-128 -222zM198 5q-8 -17 -7 -26.5t8 -13.5t17.5 -4.5t21.5 1.5q27 4 65 19t80.5 39t86 56t83.5 70
t73 81t54 90q-40 -9 -88 -28t-97 -45t-97 -57t-88.5 -63t-70 -62.5t-41.5 -56.5zM511 830q-38 -21 -74.5 -47t-68.5 -53t-58.5 -52.5t-43.5 -45.5q-14 -16 -32 -12.5t-31 17t-17 31.5t11 32q50 46 110 91.5t124.5 81t131 55.5t130.5 16q58 -5 96 -29t52 -61.5t2.5 -86
t-52.5 -102.5q-14 -18 -31 -36t-35.5 -35.5t-36.5 -33t-33 -27.5q39 -7 72.5 -35.5t44.5 -73.5q47 8 88.5 12.5t83.5 0.5q7 -1 10 -14.5t1.5 -29.5t-8 -29.5t-18.5 -13.5q-16 2 -37 2t-43 -1.5t-42.5 -4t-35.5 -5.5q-20 -70 -62 -134.5t-100 -120.5t-127.5 -101.5
t-144.5 -76.5q-71 -30 -121 -28t-73 28.5t-15 72.5t53 105q39 49 100 97t131 90t142.5 75t133.5 53q-3 19 -17.5 31.5t-37 16t-50.5 -2t-58 -22.5q-34 -19 -69.5 -43t-66 -47t-54 -42t-33.5 -26q-12 -9 -29.5 -6t-32.5 14t-22 27.5t3 33.5q20 34 45.5 77.5t53 90t56 94.5
t54 91.5t46.5 80t35 61.5z" />
    <glyph glyph-name="C" unicode="C" horiz-adv-x="740" 
d="M541 461q115 113 168 197t58 134.5t-30.5 65t-97.5 -11.5t-144 -96t-169 -187q-42 -56 -74.5 -117.5t-54 -122t-31.5 -116t-6.5 -100t21 -75t50.5 -40.5q38 -11 87 5t103 49t108.5 77.5t104 90.5t89 87t63.5 68q8 8 19.5 7t20 -8.5t10.5 -19.5t-9 -24
q-139 -156 -255 -249.5t-207 -135t-156 -36.5t-104 45t-50 110t6 159t64 190.5t124 205.5q81 109 161 179t150.5 106t128.5 40.5t95.5 -18.5t51 -70.5t-4.5 -114.5t-71.5 -152t-149.5 -182q-14 -14 -31.5 -11.5t-30.5 13.5t-17 27.5t10 30.5z" />
    <glyph glyph-name="D" unicode="D" horiz-adv-x="789" 
d="M109 728q76 73 158.5 116.5t162.5 60t153 7.5t130.5 -40.5t94.5 -84t45 -122.5q8 -69 -13.5 -142.5t-63 -146t-99 -141t-123 -126.5t-135 -103t-133.5 -71q-76 -31 -133.5 -34.5t-95 14t-54 53t-11.5 82t32.5 101t78.5 111.5q32 36 65.5 65t64 53t56 43t42.5 33
q4 8 20.5 42t40 81.5t52 102.5t55.5 105q9 18 28.5 17t37 -11.5t27.5 -26.5t0 -29q-16 -24 -35 -55.5t-37 -62.5t-33 -57.5t-23 -39.5q23 11 44.5 20t45.5 19q11 4 22 -6.5t16.5 -25.5t2.5 -30t-19 -20q-26 -11 -52.5 -23t-51 -24t-46 -24.5t-36.5 -23.5q-22 -39 -41 -80.5
t-35.5 -82t-31 -78t-26.5 -68.5q-5 -11 -19.5 -14t-29.5 1.5t-25.5 15.5t-7.5 26q1 7 11 30t22.5 51.5t26.5 58.5t24 52q-48 -31 -90.5 -77t-70 -91.5t-35.5 -83t14 -52.5q29 -20 78.5 -14.5t109.5 31.5q56 25 116 66t117 93t107 112.5t87 124.5t57.5 129t17.5 125
t-29.5 103t-70.5 66.5t-102 26.5t-122.5 -16.5t-132 -63t-131.5 -113.5q-9 -12 -25 -7t-29.5 18t-19.5 29t5 26z" />
    <glyph glyph-name="E" unicode="E" horiz-adv-x="630" 
d="M661 349q6 8 14.5 7.5t14.5 -6.5t8.5 -16t-2.5 -20q-19 -37 -48 -79.5t-64.5 -85.5t-76.5 -84.5t-84.5 -75.5t-89 -58.5t-89.5 -34.5q-63 -14 -110 1t-74.5 49t-34.5 82t11 101q19 57 57.5 106.5t86.5 91.5t99.5 76t95.5 58q-59 22 -83 60t-23 83t24 93t58.5 91t79 77
t87.5 51q39 15 73.5 11t59 -22t36 -48.5t5 -68t-34 -80.5t-80.5 -87q-13 -11 -29 -4t-26.5 21t-12.5 30t13 24q13 8 28 19.5t28.5 24.5t25 27.5t18.5 28.5q9 17 11 32t-4.5 23t-22 7.5t-40.5 -13.5q-28 -14 -65 -44t-71 -67t-58 -76t-25.5 -71.5t25.5 -53.5t96 -21
q17 1 27.5 -15.5t11.5 -39t-8.5 -43t-32.5 -26.5q-36 -10 -82.5 -35t-93 -60t-88.5 -76.5t-70 -82.5t-37 -78.5t12 -65.5q15 -20 50.5 -17.5t82.5 23t103 57t112.5 83.5t109.5 102.5t96 114.5z" />
    <glyph glyph-name="F" unicode="F" horiz-adv-x="668" 
d="M1053 830q-94 18 -183 22t-186 -2q15 -7 25.5 -20t3.5 -27q-31 -55 -70 -124.5t-76 -140.5q39 8 97 10t115 -4q12 -2 15 -14t-1 -25.5t-13 -24t-20 -8.5q-31 5 -65 7t-65.5 1t-58.5 -5.5t-45 -12.5q-28 -50 -56.5 -105.5t-57.5 -111t-60.5 -109.5t-65.5 -100
q-40 -55 -78.5 -83t-70 -32.5t-53.5 12t-29.5 51t1.5 84t40 111.5q26 52 63.5 101t84 91.5t100.5 77t113 58.5q7 11 21 39.5t32 65t37.5 76.5t37 73.5t31.5 57t20 27.5q-61 -5 -119 -16.5t-104 -36.5t-75.5 -67t-33.5 -108q-1 -11 -15 -18t-30.5 -7t-30 6.5t-12.5 22.5
q10 68 41.5 118t78 84t105.5 55t124.5 32t135.5 14t138 1.5t131 -5.5t116 -7q17 -2 21 -16.5t-1.5 -31t-19.5 -28.5t-33 -8zM258 148q27 43 50.5 84.5t43 76.5t34 63t23.5 44q-88 -50 -150.5 -115.5t-94.5 -132.5q-33 -68 -39.5 -107t8 -44.5t47.5 26t78 105.5z" />
    <glyph glyph-name="G" unicode="G" horiz-adv-x="691" 
d="M760 907q12 13 29.5 14t33 -7t24.5 -22t4 -29q-21 -74 -54 -162.5t-74 -179.5t-88 -180t-97 -164.5t-100.5 -132.5t-98.5 -85q-43 -24 -84.5 -31t-78 0t-64.5 26t-44 46t-17 59.5t17 67.5q4 6 8.5 13t9.5 10t9 0t7 -15q18 -84 50.5 -114.5t74 -20t89.5 55t97 109
t96.5 144t89 159.5t74 154t50.5 130q-22 -31 -52.5 -76.5t-67 -97t-77 -105.5t-83 -102.5t-85 -87t-81.5 -59.5q-31 -17 -64.5 -16.5t-61 16t-44.5 44.5t-15 68q3 41 26.5 98.5t62 120t87 124.5t101 112.5t105.5 83t100 36.5q90 8 138 -61q14 16 28 33t20 24zM183 281
q16 -8 47 9.5t69.5 51.5t82.5 80t86 97t79.5 102.5t63.5 95.5t37.5 76t1.5 45q-23 21 -58 12t-76 -39t-84.5 -76.5t-83.5 -100.5q-44 -59 -79.5 -119.5t-58 -111t-30.5 -84t3 -38.5z" />
    <glyph glyph-name="H" unicode="H" horiz-adv-x="893" 
d="M946 518q20 -4 23.5 -18.5t-3.5 -28.5t-21 -22.5t-28 -1.5q-5 2 -18.5 5.5t-33.5 6.5q-43 -81 -76.5 -158t-56.5 -140.5t-35 -108t-11 -59.5q1 -14 -16 -22.5t-35.5 -7.5t-32 13.5t-6.5 39.5q29 112 77.5 228.5t104.5 225.5q-45 5 -99 7.5t-113 1.5q-43 -74 -92.5 -150.5
t-104 -151.5t-112 -145.5t-117.5 -131.5q-15 -15 -34 -8.5t-33.5 21.5t-20 32t7.5 23q16 8 58.5 50t99.5 109.5t122 156.5t126 190q-74 -5 -146.5 -18.5t-135.5 -36.5q-19 -7 -32.5 1.5t-19.5 23t-2.5 29t18.5 19.5q23 8 60 16t83.5 15t101.5 12.5t114 8.5q47 85 85 171.5
t61 174.5q6 20 24 24.5t36.5 -1.5t32 -19t9.5 -27q-16 -51 -54.5 -134.5t-95.5 -185.5q53 1 105.5 -1t104.5 -7q38 70 76.5 133t74 114.5t66 90t53.5 60.5q14 13 32.5 7t31.5 -22t15.5 -37t-15.5 -37q-72 -65 -133.5 -148t-113.5 -173l22 -4t22 -5z" />
    <glyph glyph-name="I" unicode="I" horiz-adv-x="477" 
d="M720 820q-60 -55 -114 -124.5t-100.5 -145t-85 -152.5t-68.5 -147t-50.5 -129.5t-30.5 -98.5q20 2 41 5l42 6q17 2 23 -12.5t3 -33t-13.5 -34.5t-26.5 -17q-65 -2 -126.5 -8t-135.5 -19q-17 -3 -22.5 11.5t-3 33t13 35t27.5 17.5q43 2 83 6q22 79 53 160.5t67.5 160.5
t76 153t79 140t76.5 120.5t68 94.5q-17 2 -35 4t-38 4q-17 1 -19 17t6 33t22.5 30t30.5 10q65 -15 127.5 -25t131.5 -19q17 -2 19 -18t-5.5 -33t-22 -30t-30.5 -9q-17 4 -32 7.5t-31 6.5z" />
    <glyph glyph-name="J" unicode="J" 
d="M925 727q17 2 25 -8t9.5 -23t-2.5 -25t-11 -14t-23 -6t-33.5 -9t-33 -10t-21.5 -8q-20 -77 -62.5 -161.5t-101.5 -166t-131 -155t-150 -130.5q-79 -57 -143.5 -81.5t-109.5 -20.5t-67.5 33.5t-17 78.5t41.5 115.5t109 144.5q113 121 253 220t301 175q10 39 6.5 71.5
t-20 56.5t-44 37t-64.5 12q-35 -1 -73 -10.5t-78.5 -32t-83.5 -61.5t-88 -99q-9 -13 -26.5 -12t-32.5 10t-22.5 22.5t2.5 24.5q53 69 121.5 120.5t140.5 79.5t142.5 27.5t129.5 -36.5q41 -24 64.5 -72.5t20.5 -104.5q5 1 14.5 4t20 5.5l21 5t17.5 3.5zM377 119
q51 42 102.5 95t99 113.5t87.5 126t67 133.5q-50 -20 -107.5 -52t-117 -72t-116.5 -87t-106 -96q-57 -58 -93 -110t-50 -90t-6 -59.5t37 -20t80 29.5t123 89z" />
    <glyph glyph-name="K" unicode="K" horiz-adv-x="697" 
d="M768 -15q17 -5 18 -23t-8 -36.5t-25 -30.5t-34 -4q-28 13 -59.5 35t-64 50t-64 59.5t-59.5 62t-51 58.5t-37 50q-8 -16 -24.5 -45t-38 -63.5t-46.5 -71.5t-50.5 -71t-49 -61.5t-41.5 -42.5q-16 -13 -34 -7t-31.5 20t-19 30t4.5 24q45 33 88.5 81t81 100t66 101t44.5 83
q-7 13 -16 28.5t-18 31.5t-16 31.5t-10 29.5q-4 18 3.5 30.5t19 18t23 3.5t16.5 -14q9 -21 19.5 -40t17.5 -28q9 18 25.5 61.5t34 98.5t32 113.5t20 105.5t-1.5 74t-33 19q-18 -6 -42 -29.5t-51 -60t-55.5 -82t-54 -93.5t-47 -96.5t-34.5 -90.5q-5 -13 -20.5 -15.5t-32 3
t-28 16.5t-6.5 25q19 44 47 100.5t63 114.5t75.5 112t82.5 93t84 58.5t82 7.5q33 -10 45 -47.5t10 -89.5t-14.5 -112.5t-29 -116t-33.5 -99.5t-27 -63q25 19 73.5 62t105.5 103.5t114.5 134t101.5 153.5q9 16 27 16.5t34 -8.5t25 -24.5t0 -30.5q-44 -76 -109.5 -151
t-136.5 -142.5t-140.5 -124.5t-121.5 -97q15 -24 40 -53.5t55.5 -60t64 -59.5t65 -53t59.5 -40.5t47 -20.5z" />
    <glyph glyph-name="L" unicode="L" horiz-adv-x="599" 
d="M766 898q20 -16 26 -41.5t2 -57t-15 -65.5t-26 -66t-30.5 -60t-28.5 -46q-81 -117 -170 -188t-189 -111q-11 -26 -21 -53.5t-18.5 -55t-15.5 -52.5t-12 -44q28 3 66 1.5t77 -8.5t75 -19t60 -30q13 -10 10 -28t-14 -33t-26.5 -22t-26.5 6q-7 8 -27.5 20t-51 21.5
t-69.5 15.5t-83 2.5t-91 -18t-94 -45.5q-15 -10 -28.5 -4t-21 19t-6.5 28.5t15 23.5q39 24 69 35.5t68 20.5q5 19 13 46t17.5 56.5t20 58.5t19.5 53q-6 0 -23.5 1t-38.5 4.5t-43.5 9t-39.5 14.5q-15 9 -17 26t4.5 31.5t19.5 22.5t28 1q40 -21 78 -27t62 -1q45 104 98.5 205
t118.5 195q25 36 58 76t70 68t76 35.5t76 -21.5zM684 680q32 61 41 100.5t-2.5 50.5t-42.5 -10t-80 -81q-30 -37 -61.5 -83.5t-61 -96.5t-56 -100t-46.5 -95q40 17 84 51t86 77t78.5 91.5t60.5 95.5z" />
    <glyph glyph-name="M" unicode="M" horiz-adv-x="1281" 
d="M1282 807q31 -10 36 -41.5t-7 -79.5t-36 -108.5t-52.5 -127.5t-56 -137.5t-46 -138t-24 -129t11.5 -110.5q6 -17 -8.5 -30.5t-34.5 -20t-39.5 -3.5t-22.5 19q-11 48 -4.5 110.5t23.5 131.5t41.5 140t49 137.5t46.5 123.5t34.5 97t12.5 60t-20 11q-23 -10 -50.5 -31.5
t-57 -49t-58.5 -59t-53 -60t-41.5 -53t-24.5 -37.5q-11 -22 -30 -59t-41 -80t-47 -89t-48.5 -87t-45 -74t-36.5 -50q-7 -9 -17 -15t-19.5 -9t-18.5 -1.5t-15 8.5q-12 15 -4.5 48.5t27 76.5t47 91t55.5 92t53 79.5t39 53.5q9 20 26 58t35 84t34.5 95.5t26 91.5t8.5 71.5
t-18 37.5q-17 7 -39.5 1t-47 -20t-49.5 -32.5t-46 -37t-36.5 -34t-20.5 -22.5q-22 -89 -60.5 -183.5t-86.5 -186.5t-101 -176t-104 -152q-85 -114 -145 -149.5t-101 -11.5q-38 22 -17.5 109.5t108.5 239.5q45 78 95.5 147.5t104 133.5t108.5 122t111 113q10 35 12 63.5
t-2.5 49.5t-14 33t-22.5 15q-29 6 -65.5 -5t-76 -34t-80 -55.5t-78 -69.5t-69.5 -76t-54 -76q-9 -13 -26 -11.5t-31.5 12t-20.5 26.5t7 32q69 87 139.5 150t136 102t124.5 53.5t106 2.5q19 -5 38.5 -15t36 -25t27.5 -34t14 -41q60 54 116.5 89.5t102 48t77 0.5t43.5 -52
t1.5 -109.5t-50.5 -172.5q13 15 35 37.5t49 47t57 48.5t59.5 41.5t56.5 25.5t49 1zM281 102q39 54 77.5 118.5t73.5 129t64 124.5t48 105q-35 -35 -77 -82.5t-85.5 -102t-86 -114t-76.5 -118.5q-30 -52 -51 -96t-31.5 -74.5t-8 -44t19 -3t49.5 48.5t84 109z" />
    <glyph glyph-name="N" unicode="N" horiz-adv-x="891" 
d="M961 925q20 -9 27.5 -35.5t-0.5 -73t-34 -115.5t-72 -162q-45 -91 -82.5 -173.5t-61.5 -153t-31.5 -126.5t7.5 -93q7 -17 -7 -30.5t-35 -19t-42 0t-26 26.5q-10 39 -1 96t30 122.5t49.5 135t58.5 135.5t57 123t45 98q25 60 29 93.5t-9 43.5t-39.5 -3t-62.5 -47
q-41 -39 -91.5 -101.5t-104.5 -138.5t-109 -160t-105 -165.5t-92 -155.5t-70 -131q-8 -16 -27.5 -15t-36.5 12t-26 29t4 38q12 18 39.5 65.5t64 113t77.5 142.5t79 154.5t69 149.5t47.5 127t15 86.5t-29.5 28.5q-30 -4 -72.5 -41t-88 -94t-90.5 -126t-79 -137
q-8 -14 -24.5 -14.5t-31.5 8t-23.5 22t-0.5 28.5q39 66 82 129t88 116t91.5 93.5t93.5 60.5q38 16 72.5 14.5t59 -19.5t35 -51t0.5 -79q-9 -41 -25 -84t-33 -81.5t-32.5 -69t-23.5 -45.5q18 30 52 80t76.5 105.5t91.5 111t98 95t95.5 57.5t84.5 0z" />
    <glyph glyph-name="O" unicode="O" 
d="M574 924q46 0 83 -22t62.5 -58t38.5 -83t12 -97q-2 -72 -25 -154.5t-60 -164.5t-84.5 -158.5t-97 -136.5t-98 -99t-88.5 -46q-27 -5 -55.5 8.5t-52 38t-40 55t-19.5 60.5q-70 52 -89 129.5t-1 165.5q13 66 43 133t71.5 129.5t91 117t102 95t105.5 64t101 23.5zM690 724
q1 23 -2 44.5t-14 37.5t-31.5 23t-54.5 1q-67 -13 -134.5 -60t-127 -114t-106.5 -146t-73.5 -156.5t-28 -145t30.5 -111.5q-5 50 6.5 109t35 120t56 120.5t70 111t78.5 91.5t80 63q16 9 28.5 -5t19 -35t6.5 -42t-9 -25q-46 -24 -91 -73.5t-83 -113t-66.5 -134.5t-40.5 -136
q-12 -63 -5 -104t34.5 -45.5t76 35t120.5 137.5q44 60 84 132t70.5 146.5t49 145.5t21.5 129z" />
    <glyph glyph-name="P" unicode="P" horiz-adv-x="757" 
d="M630 936q69 -2 114.5 -34t69.5 -82t27 -112t-13 -123q-12 -47 -36.5 -95t-59.5 -92t-80 -80.5t-98 -61t-114 -34t-128 1.5q-13 -27 -36 -70t-50 -88t-55 -85.5t-50 -63.5q-13 -14 -28.5 -15.5t-30 5t-26 18.5t-17 25t-4.5 24.5t13 17.5q34 17 70.5 57.5t72.5 96t71 121.5
t66.5 134.5t59 134t48.5 120t34 94t17 55.5q-38 -25 -72 -55t-61 -61t-46 -59.5t-29 -50.5q-8 -18 -26.5 -21t-35.5 5.5t-26.5 25t-0.5 36.5q14 31 39 66.5t59 70.5t75.5 67t88 56.5t97 38t101.5 12.5zM337 278q73 -5 138.5 25t119 80t92.5 113t59.5 126t20.5 118t-24 88.5
t-75.5 38.5t-133.5 -32q7 -2 14 -7t12.5 -12.5t7 -17t-2.5 -20.5q-10 -26 -28 -68t-40 -91.5t-46 -102.5t-46 -99.5t-40 -83.5t-28 -55z" />
    <glyph glyph-name="Q" unicode="Q" horiz-adv-x="705" 
d="M599 42q16 -5 16.5 -24.5t-7.5 -38t-21.5 -30.5t-26.5 -2q-9 7 -30 13.5t-51.5 10t-67.5 0.5t-78 -15.5t-84 -36.5t-83 -63q-13 -13 -27 -7.5t-23 19.5t-10 31.5t11 28.5q46 43 106 74q-29 26 -49 60t-23 66q-35 25 -57 56t-32.5 67t-10.5 75.5t9 81.5q13 63 43 127
t71.5 123t91 110.5t102 90t105.5 60.5t101 22q46 0 83 -20.5t62.5 -55t38.5 -79t12 -92.5q-2 -75 -29.5 -162.5t-70.5 -173t-97 -163t-108 -132.5q69 0 134 -21zM239 205q-12 -60 -5 -98.5t34.5 -43t76 33t120.5 130.5q44 57 84 125.5t70.5 139t49 137.5t21.5 122
q1 22 -2 43t-14 36t-31.5 21.5t-54.5 0.5q-50 -9 -101 -37t-99 -68.5t-91 -91.5t-77.5 -106t-58.5 -111.5t-34.5 -108.5t-6 -96.5t28.5 -75.5q-5 48 6.5 103.5t35 113.5t56 114.5t70 105t78.5 87t80 59.5q16 9 28.5 -4.5t19 -33.5t6.5 -39.5t-9 -23.5q-46 -23 -91 -70
t-83 -107.5t-66.5 -127.5t-40.5 -129z" />
    <glyph glyph-name="R" unicode="R" horiz-adv-x="729" 
d="M734 -31q16 -2 18 -18.5t-5 -34.5t-21 -30.5t-30 -7.5q-30 11 -78 41t-103.5 73t-114 95.5t-109.5 109.5q-16 -30 -38 -67.5t-45 -73.5t-46.5 -67.5t-42.5 -50.5q-20 -20 -43.5 -14.5t-40.5 22t-21.5 36.5t12.5 28q25 12 50.5 36t52 57.5t52.5 74t52 85.5
q-14 16 -26.5 33t-24.5 34q-11 15 -6.5 32t15.5 28t25 12t23 -15q11 -22 33 -50q38 73 71.5 148t59 138.5t42 109.5t20.5 63q-38 -24 -72 -53.5t-61 -59t-46 -57.5t-29 -49q-8 -18 -26.5 -20t-35.5 6t-26.5 23.5t-0.5 34.5q14 30 39 64.5t59 68.5t75.5 65t88 54.5t97 36.5
t101.5 12q69 -2 118 -33t77 -79t34.5 -108t-9.5 -119q-11 -42 -33 -85.5t-53.5 -85t-72.5 -77t-90 -61.5t-105.5 -39t-119.5 -9q36 -38 78.5 -76.5t88.5 -73t94.5 -63t98.5 -44.5zM335 286q80 -2 149 27.5t123.5 78.5t93 110t57.5 121.5t17 113t-28.5 84.5t-79.5 36
t-135 -32q7 -2 14 -7t12.5 -12t7 -16.5t-2.5 -19.5q-10 -25 -28 -66t-40 -89t-46 -98.5t-46 -96t-40 -81.5t-28 -53z" />
    <glyph glyph-name="S" unicode="S" horiz-adv-x="750" 
d="M837 717q13 8 25 1t19 -19.5t6.5 -27t-12.5 -20.5q-78 -47 -157 -93t-145 -94q48 -43 70.5 -84.5t26 -81.5t-10.5 -77.5t-39 -73t-59.5 -69t-72.5 -64.5q-66 -54 -132.5 -85.5t-124.5 -42t-102 -0.5t-64.5 40t-13 79.5t52.5 117t133.5 153t228.5 188.5q-21 17 -42.5 36
t-39.5 40.5t-29 46.5t-11 54q0 37 18 72.5t48 66.5t68.5 57.5t80.5 47.5t84 35t79 21q16 3 27 -11t14.5 -32.5t-2.5 -35t-24 -19.5q-24 -3 -56.5 -12.5t-67 -24.5t-68 -35t-58.5 -44.5t-39 -53t-9 -59.5q4 -27 25.5 -50.5t61.5 -56.5q29 21 65 46t76.5 52t83.5 55.5t86 56.5
zM159 54q-18 -38 -11.5 -57.5t30 -23.5t60.5 5.5t79 29.5t86 48.5t80.5 63t63 73t34.5 78t-6.5 77.5t-59.5 73q-41 -29 -91.5 -70t-100.5 -89t-93.5 -101t-70.5 -107z" />
    <glyph glyph-name="T" unicode="T" horiz-adv-x="381" 
d="M802 913q14 -2 17.5 -17t-1 -30.5t-16.5 -27.5t-28 -8q-32 8 -73 12.5t-88 7.5q-68 -64 -127 -151.5t-108.5 -182.5t-88.5 -190t-65.5 -174.5t-39.5 -135.5t-12 -72q1 -14 -15.5 -21.5t-35.5 -6.5t-33 13t-7 38q19 77 47.5 160.5t62 167t70.5 164t74.5 153t73 133
t66.5 103.5q-57 -6 -111 -24t-99.5 -51t-79 -83t-47.5 -121q-3 -12 -18 -17t-31.5 -2t-28.5 13.5t-8 27.5q30 101 80.5 165t113.5 101.5t134.5 52.5t145 17t144.5 -4t132 -10z" />
    <glyph glyph-name="U" unicode="U" horiz-adv-x="817" 
d="M871 862q12 18 32.5 16t37.5 -15.5t24.5 -33t-6.5 -35.5q-43 -51 -83.5 -117t-77 -139.5t-67.5 -151t-55.5 -152.5t-42 -143t-26.5 -123q-3 -19 -20.5 -27t-36.5 -6.5t-33.5 12.5t-10.5 30q16 72 40 145t50 138.5t50 119t40 87.5q-10 -14 -30.5 -44t-47.5 -70
t-58.5 -86.5t-65 -92.5t-67 -89.5t-63 -76.5t-53.5 -53t-39 -21q-24 -1 -44.5 9.5t-35 29t-22 43t-4.5 51.5q2 20 22 64t51 103.5t68.5 129l75 139t69.5 134t52 115t24 81.5t-16 33q-23 2 -56.5 -17t-71 -53t-76.5 -79t-74 -94t-63.5 -99t-43.5 -94q-6 -17 -24.5 -19.5
t-35.5 5.5t-27 25t2 40q26 52 62 107.5t77.5 107t88 96.5t93.5 77t92.5 48.5t87.5 11.5q48 -6 61 -41.5t1 -90t-42.5 -124t-69.5 -143.5t-81 -148.5t-76 -139.5t-54.5 -115.5t-17.5 -76.5q3 -28 28 -13.5t64 58.5t88.5 111.5t102.5 144.5t105.5 157.5t98 151t80 124.5
t50.5 78z" />
    <glyph glyph-name="V" unicode="V" horiz-adv-x="842" 
d="M930 1010q6 20 26 21t40.5 -9.5t34 -28.5t5.5 -36q-55 -125 -113.5 -251.5t-116 -242.5t-112 -217t-100.5 -176t-82 -119t-57 -45q-23 -2 -45.5 7.5t-41.5 27t-32 41.5t-16 51q-2 20 9.5 66.5t29.5 109t38.5 135.5t35.5 146q15 69 25.5 134t14 116t-2.5 82t-25 33
q-23 2 -52 -17.5t-59.5 -53.5t-61 -79t-56 -94.5t-44.5 -100t-26 -94.5q-3 -17 -20.5 -19.5t-35.5 5.5t-30.5 25.5t-5.5 40.5q16 52 41.5 107.5t57 107t68.5 97t77 77.5t82 48.5t83 11.5q48 -6 71 -43t28 -95t-4 -130.5t-25.5 -150t-37 -153.5t-38 -141t-28 -113t-7.5 -68
q3 -22 21.5 -8.5t47.5 54t66.5 104t78.5 142t83.5 167.5t81.5 180t72.5 180t56.5 168z" />
    <glyph glyph-name="W" unicode="W" horiz-adv-x="1140" 
d="M1231 908q6 18 26 19t39.5 -8.5t32.5 -26t5 -33.5q-53 -117 -107 -229t-106 -212.5t-100 -185.5t-89.5 -147t-74.5 -97.5t-54 -36.5q-29 -2 -52.5 7.5t-40 24.5t-26 31.5t-10.5 27.5q-5 33 -1 72.5t12.5 78.5t18 73.5t16.5 57.5q-60 -99 -115.5 -185.5t-102.5 -151.5
t-83.5 -103t-57.5 -41q-23 -3 -49 7t-47 28.5t-34.5 42.5t-11.5 50q1 18 19 61.5t46 102t62 127.5t67 138.5t61.5 134t45 115t18.5 81.5t-18 33q-23 2 -56 -16t-70 -50t-75.5 -74t-72.5 -88.5t-61 -93.5t-42 -88q-6 -16 -24 -18t-35.5 5.5t-27.5 23.5t1 37q26 49 60.5 101
t75.5 100t86 90.5t91.5 72.5t92 45.5t87.5 10.5q48 -6 64 -39t9 -85t-32 -118.5t-58.5 -138.5t-70 -145.5t-68 -140t-52 -121.5t-20.5 -90t22 -29t59 45t85 105.5t100.5 152.5t105.5 186t100 206q6 14 18.5 19.5t27 5t28.5 -7t24 -17t13.5 -24t-3.5 -28.5
q-50 -109 -78.5 -196.5t-42 -152.5t-16 -106.5t-0.5 -56.5q2 -21 17.5 -12.5t40 39.5t57 82.5t68.5 117t75 142.5t76 159t71 167t61 167z" />
    <glyph glyph-name="X" unicode="X" horiz-adv-x="483" 
d="M843 827q-64 -38 -130 -90.5t-131.5 -114.5t-128 -131t-120.5 -139q9 -78 23.5 -151t32 -133.5t35 -106t32.5 -69.5q7 -11 -5.5 -23t-31.5 -19.5t-38 -6.5t-25 17q-35 95 -59 196.5t-39 202.5q-49 -63 -91 -122.5t-75.5 -111t-57.5 -93t-36 -68.5q-7 -16 -25.5 -17.5
t-36 7.5t-26.5 26t4 38q74 119 158 234t172 222q-13 133 -10 243.5t19 180.5q3 15 22 21.5t39 5.5t35 -8.5t11 -20.5q-25 -72 -33 -156t-4 -172q67 78 133 147.5t126 127.5t112.5 103.5t93.5 74.5q17 12 33.5 2t26 -28t10 -38.5t-14.5 -29.5z" />
    <glyph glyph-name="Y" unicode="Y" horiz-adv-x="712" 
d="M716 932q12 15 32 16.5t38.5 -6t30.5 -21.5t8 -30q-19 -77 -49 -169.5t-68 -188.5t-82 -189.5t-91.5 -174t-96 -141.5t-95.5 -92q-42 -27 -83.5 -36t-78 -3t-65.5 24.5t-45.5 45.5t-19 61t14.5 70q3 7 7.5 14t9 10.5t9 1t7.5 -15.5q22 -86 55.5 -116t74.5 -17.5t87 60
t92.5 117t91 153t82.5 168t67.5 162.5t45.5 136q-21 -33 -50 -80t-64 -100.5t-73.5 -109.5t-79 -107.5t-80.5 -95t-77 -71.5q-29 -21 -62.5 -22.5t-62 14t-47 45.5t-18.5 71q0 21 12.5 60.5t33 90.5t47.5 108t57.5 112.5t62 104t61.5 82.5q9 10 27 6t34 -15.5t25 -26.5
t-1 -27q-16 -20 -38.5 -52.5t-47.5 -73t-51.5 -86.5t-50.5 -91t-43.5 -87t-31 -75t-13 -55t9.5 -27q27 -12 67.5 17t88 84.5t99.5 129.5t103.5 152t98.5 153t85 133z" />
    <glyph glyph-name="Z" unicode="Z" horiz-adv-x="869" 
d="M731 893q57 -9 89.5 -37.5t45.5 -70.5t9.5 -93t-18.5 -103q-19 -66 -51 -128.5t-70 -119.5t-79.5 -106.5t-78.5 -89.5q32 -14 67.5 -39t67.5 -56.5t57 -67t36 -69.5q7 -21 -5.5 -38.5t-31.5 -25t-38 -2t-26 29.5q-10 38 -32.5 72.5t-50.5 62t-58 45.5t-55 22
q-22 -22 -60.5 -49t-86.5 -51t-101 -42t-105 -21q-33 -2 -58.5 12t-38.5 37.5t-11.5 51t23.5 52.5q34 39 87.5 63t112 37t115.5 15.5t97 -1.5q50 39 98.5 96t90 121t74 129.5t49.5 121t16 95.5t-25 54q-43 25 -98 18t-111 -39t-107 -85t-87 -121q-10 -20 -29 -23t-36 5.5
t-27 25.5t-2 37q9 23 32.5 54.5t58 64t77 64t89 54t94 34t91.5 4.5zM123 1q6 -6 25 -4t45 10t55.5 20t57.5 26t51 28.5t36 26.5q-15 3 -41 -0.5t-55 -11t-59.5 -18.5t-55 -24t-41 -26.5t-18.5 -26.5z" />
    <glyph glyph-name="bracketleft" unicode="[" horiz-adv-x="5" 
d="M-337 -83q55 10 137 15t174 5.5t186.5 -3.5t174.5 -11t136.5 -17.5t74.5 -23.5q26 -19 37.5 -44.5t11.5 -47t-9 -33t-22 -1.5q-9 7 -43.5 16t-86 19t-117 19.5t-138 18t-148 14t-147.5 7t-136.5 -2.5t-114.5 -14q-20 -5 -23.5 7t4 28.5t21.5 31.5t28 17z" />
    <glyph glyph-name="backslash" unicode="\" horiz-adv-x="438" 
d="M63 932q26 -111 59 -241.5t74 -283.5q42 -153 78 -282t68 -237q4 -26 -17 -38q-22 -11 -47 -4q-26 6 -36 33q-29 144 -62.5 283.5t-71.5 277.5t-77 256t-81 218q-10 31 14 49t56 13q31 -6 43 -44z" />
    <glyph glyph-name="bracketright" unicode="]" horiz-adv-x="5" 
d="M780 -76q16 -1 33 -15.5t26.5 -30t7 -27.5t-25.5 -9q-66 8 -160.5 14t-204.5 8.5t-229.5 2.5t-236.5 -3t-225.5 -9.5t-196.5 -16t-148.5 -23t-82.5 -29.5q-13 -11 -23.5 0t-13 32.5t7 48t36.5 47.5q26 20 89 32.5t151 19t195 7.5t221 -1.5t229 -8t218.5 -12t189.5 -14
t143 -13.5zM821 -158q-60 0 -106 -6.5t-78.5 -14t-53 -13.5t-30.5 -6q-9 0 3 12t39.5 25t68 22.5t88.5 4.5q18 0 31 -3.5t21 -8.5q10 -5 17 -12z" />
    <glyph glyph-name="asciicircum" unicode="^" horiz-adv-x="385" 
d="M362 711q-8 -12 -22 -21q-17 -8 -33 -12q-18 -3 -28 -2q-11 0 -9 7q4 8 4 30q2 23 0 51q-1 28 -6 49t-10 24q-5 1 -32 -19q-26 -20 -57 -48q-16 -14 -30 -27.5t-27 -25.5q-25 -27 -30 -34q-6 -10 -24 -4t-31 22q-14 15 -6 33q8 14 46 47q19 16 40 33t45 34q24 18 46 32.5
t42 26.5q38 24 52 22q13 -7 33 -53q10 -23 18 -46.5t14 -49.5q12 -50 5 -69z" />
    <glyph glyph-name="underscore" unicode="_" horiz-adv-x="5" 
d="M1156 -62q16 0 34 -14t29 -29.5t9.5 -27.5t-23.5 -7q-55 12 -145 20.5t-205 14t-249 7.5t-276.5 -0.5t-287 -9t-280.5 -17.5t-258 -27.5t-219 -38.5t-163.5 -49t-91.5 -61q-11 -14 -22 -4t-15.5 32t2 50.5t31.5 51.5q22 25 87.5 45.5t163 36.5t220.5 28t260 20t282 12.5
t286.5 5.5t273 -1t241 -7t191.5 -13t125 -18z" />
    <glyph glyph-name="grave" unicode="`" horiz-adv-x="225" 
d="M204 814q4 -18 -8 -32t-31 -20q-17 -6 -25 3q-15 19 -46 52q-17 18 -33.5 33t-33.5 29q-14 15 3 40q18 25 43 40q27 16 41 5q17 -17 48 -65q28 -44 42 -85z" />
    <glyph glyph-name="a" unicode="a" horiz-adv-x="488" 
d="M267 287q-28 -27 -64 -66.5t-74.5 -75t-78 -56.5t-75.5 -10q-24 7 -31.5 28t-2 49.5t23 61.5t42.5 65.5t56.5 60.5t65.5 47q40 23 74.5 14t58.5 -44q7 7 17 18t20.5 23t21 23t18.5 17q13 11 28 10.5t25.5 -8t14 -21.5t-5.5 -30q-55 -101 -72.5 -153t-2.5 -60t62 26
t121 104q9 8 17 7.5t12.5 -6.5t3.5 -16t-11 -22q-94 -110 -156 -146.5t-105 -14.5q-27 14 -31 54t28 121zM80 190q17 12 38.5 31t42 39t36.5 38t21 27q4 7 -4 12t-25.5 1t-44 -21t-59.5 -54q-7 -8 -17.5 -21.5t-19 -27t-14 -25.5t-4 -17.5t13 -2t36.5 20.5z" />
    <glyph glyph-name="b" unicode="b" horiz-adv-x="505" 
d="M-97 19q14 56 40.5 125t61 142.5t74.5 147t81 139.5t80 120.5t72 88.5q13 14 32.5 9t33.5 -19.5t17.5 -34t-14.5 -33.5q-16 -13 -43.5 -41.5t-60 -69.5t-68 -90.5t-68.5 -103.5t-60.5 -110t-44.5 -109q12 18 35.5 53.5t53.5 75.5t65 78t70 62q33 23 61.5 27.5t49 -5.5
t32 -32t10.5 -52.5t-15 -66.5t-44 -74q15 6 41.5 16t54 21t52.5 20t39 14q10 3 16.5 -3t8.5 -15t-1 -18.5t-12 -13.5q-12 -5 -32.5 -13.5t-45.5 -19.5t-52.5 -23.5t-52 -24t-45 -22t-31.5 -17.5q-39 -42 -71.5 -66.5t-58 -34.5t-43.5 -8.5t-28 12.5q-23 24 0.5 62.5
t101.5 76.5q19 9 40.5 30.5t40 47t32.5 51.5t17.5 43t-5.5 22t-35 -11t-55 -45t-58.5 -65t-58.5 -75.5t-53 -76t-42.5 -67t-28.5 -47.5q-12 -21 -28.5 -25.5t-30.5 1t-22.5 18.5t-4.5 29z" />
    <glyph glyph-name="c" unicode="c" horiz-adv-x="309" 
d="M343 309q7 4 14 1.5t11.5 -8.5t4.5 -13.5t-6 -13.5q-18 -18 -44.5 -42.5t-58.5 -50t-67 -49.5t-70 -39.5t-68 -20.5t-61 7t-38.5 38t-5.5 60t24.5 72t51 74t73.5 66.5t92 48.5q18 7 31 -4.5t17 -28.5t-2 -34.5t-25 -23.5q-61 -18 -100.5 -54t-55.5 -70t-7.5 -57.5
t44.5 -17.5q25 4 59.5 24t69.5 45.5t66.5 50.5t50.5 40z" />
    <glyph glyph-name="d" unicode="d" horiz-adv-x="386" 
d="M245 293q-19 -25 -42.5 -55.5t-49 -61t-53 -58.5t-53.5 -46.5t-50 -25.5t-44 4q-24 13 -28 42t7 65.5t33.5 78t51.5 80.5t62 71t64 51q19 12 38.5 14.5t36.5 -2t31 -15t21 -23.5q8 10 26.5 36.5t43 61t52 73.5t53.5 74.5t47 64.5t33 43q10 13 25.5 10.5t27 -14.5
t14.5 -29.5t-12 -33.5q-100 -111 -165.5 -221t-101.5 -206.5t-46 -174.5t2 -125q3 -11 -9 -21t-28.5 -14.5t-32 -1t-19.5 18.5q-3 11 -1.5 45t9 81.5t22 103.5t35.5 110zM220 357q5 7 -0.5 14.5t-19.5 5.5q-19 -2 -43 -22.5t-47.5 -49.5t-45 -62.5t-34.5 -60.5t-15.5 -42.5
t10.5 -10.5q10 4 26.5 19.5t36.5 38t41.5 48.5t40 50t32 43.5t18.5 28.5z" />
    <glyph glyph-name="e" unicode="e" horiz-adv-x="351" 
d="M78 155q11 -8 33 -3.5t50 17t59 30.5t60.5 38t54.5 40.5t42 36.5q6 5 14 2t12.5 -11t3 -18t-15.5 -18q-22 -20 -51.5 -45.5t-63 -50t-69.5 -46t-70.5 -35.5t-66.5 -18t-58 8q-29 13 -40 37.5t-7.5 55.5t19 66t38 69t51 63.5t57.5 50.5q39 27 72.5 31.5t53.5 -9.5
t22 -43.5t-21 -69.5q-15 -24 -36.5 -46.5t-46 -39t-50 -25t-47.5 -4.5q-3 -5 -6 -13.5t-3.5 -18t1.5 -18.5t9 -13zM96 257q21 2 52 25t54 68q8 15 7 20t-7.5 2.5t-18 -11.5t-23.5 -22q-21 -22 -40 -46.5t-24 -35.5z" />
    <glyph glyph-name="f" unicode="f" horiz-adv-x="284" 
d="M91 191q4 -31 -2 -72t-19.5 -83.5t-33.5 -82.5t-44 -69.5t-51 -44t-54 -6.5q-31 9 -37.5 43.5t4 85t36.5 112.5t60 127.5t73.5 129t78 117.5t73.5 92.5t60 54.5q14 9 28 0t22.5 -24.5t9 -33.5t-13.5 -28q-35 -26 -65 -55.5t-55 -61t-45.5 -63t-36.5 -60.5q31 -6 64.5 -3
t64 12t56.5 23.5t43 33.5q7 7 15.5 5t14 -9.5t5.5 -19t-10 -22.5q-21 -23 -49.5 -41t-60.5 -31t-66 -20t-65 -6zM29 186q-30 -56 -51.5 -105t-33.5 -85.5t-15 -56.5t4 -17q9 3 27 27.5t34.5 61.5t27.5 83t7 92z" />
    <glyph glyph-name="g" unicode="g" horiz-adv-x="478" 
d="M449 456q-3 -11 -13 -36t-23 -58t-29 -69.5t-31 -70.5q28 19 71.5 46.5t88.5 55.5q10 6 19.5 2.5t14.5 -12t3.5 -19t-11.5 -17.5q-14 -9 -36 -24t-47 -31.5t-51 -33.5t-47.5 -31t-37 -25t-18.5 -14q-32 -58 -62 -110.5t-60.5 -99.5t-64.5 -87.5t-73 -73.5
q-52 -43 -97.5 -44t-70 26t-19.5 74.5t53 101.5q41 45 94.5 87t102.5 75t84.5 55t40.5 27q12 21 25 47t25 52.5t23 51t18 41.5q-38 -50 -85 -99.5t-98 -87.5q-18 -13 -37.5 -24.5t-39.5 -19.5t-39 -11t-36 3q-24 7 -31 28t-0.5 50t25 62.5t45 66.5t60 62.5t70.5 49.5
q42 22 75 12.5t56 -45.5q6 6 17 20t23 30t23.5 31.5t19.5 23.5q10 10 25.5 10t29 -7t21.5 -18t4 -23zM96 215q18 12 40.5 31.5t44 40.5t38.5 39t22 27q4 7 -3.5 12.5t-25.5 1t-45.5 -21.5t-61.5 -55q-8 -8 -18.5 -21.5t-20 -28t-15.5 -26.5t-4.5 -18t12.5 -2.5t37 21.5z
M175 46q-22 -15 -46.5 -33t-49.5 -37t-47.5 -37.5t-40.5 -33.5q-40 -36 -56.5 -64.5t-14 -42t22 -8.5t52.5 35q25 23 50 51t48.5 57t44.5 58t37 55z" />
    <glyph glyph-name="h" unicode="h" horiz-adv-x="484" 
d="M515 312q5 5 12.5 3t12.5 -8t5.5 -14.5t-9.5 -17.5q-47 -46 -93 -84t-86.5 -62.5t-74 -32.5t-54.5 5q-22 13 -22 42.5t11.5 64t29.5 70t31 62t16 39t-15 0.5q-26 -17 -54 -45t-55 -61.5t-53 -70t-48.5 -70t-40 -62t-28.5 -45.5q-12 -20 -28.5 -25t-30.5 0.5t-22 18.5
t-4 29q13 51 38.5 116.5t58.5 136.5t71 143t78 137.5t79 119.5t74 89q14 13 32.5 8t31.5 -20t15.5 -34.5t-15.5 -33.5q-17 -13 -42 -40t-54.5 -65t-61 -85t-62 -98.5t-57.5 -105.5t-46 -107q12 17 31.5 43t43 55.5t50 59.5t53 55t51 42t44.5 21q21 4 39 -2t27.5 -21
t8.5 -38.5t-17 -55.5q-15 -29 -30 -59t-26 -56t-18 -46.5t-5 -29.5q2 -11 20.5 -4t47 26t65 48.5t75.5 64.5z" />
    <glyph glyph-name="i" unicode="i" horiz-adv-x="290" 
d="M237 490q-7 -9 -20.5 -25.5t-29.5 -31.5t-31.5 -24t-25.5 -3q-11 7 -9.5 25.5t9 40t18 41.5t17.5 30q10 13 26.5 12t30.5 -10.5t20.5 -24.5t-5.5 -30zM289 307q7 4 14 1t12 -9t5.5 -14t-5.5 -14q-11 -10 -30 -31.5t-44 -46t-54 -49.5t-60 -42.5t-61.5 -25t-58.5 3.5
q-29 11 -37 41.5t0 70t30 82.5t52 81q10 13 27 11.5t30.5 -10.5t19.5 -23.5t-5 -28.5q-26 -34 -41.5 -62.5t-21.5 -49t-4.5 -33t10.5 -13.5q13 -2 38.5 11t56.5 36t64.5 52.5t62.5 61.5z" />
    <glyph glyph-name="j" unicode="j" horiz-adv-x="210" 
d="M108 328q-14 -35 -33 -75t-38 -82q33 18 58 32.5t47.5 28t45.5 25.5t51 26q10 5 18 1t11 -12.5t0 -18t-14 -15.5q-16 -9 -41 -23.5t-53.5 -32t-58 -36t-53.5 -34.5t-41 -27.5t-20 -14.5q-28 -52 -53 -99t-51.5 -89t-56 -78t-65.5 -66q-35 -29 -67.5 -38.5t-58.5 -4
t-43.5 23.5t-21 44.5t9 59.5t45.5 68q45 47 93.5 84t90.5 63t71.5 42t34.5 21q18 39 34.5 76t30.5 70t25 60t19 46q6 16 21.5 19t31 -2.5t26 -17t5.5 -24.5zM191 517q-6 -11 -17.5 -29.5t-25 -36.5t-28 -29.5t-24.5 -7.5q-12 5 -13.5 23.5t3 41t12.5 44t14 32.5q8 15 25 17
t32 -5t23 -20.5t-1 -29.5zM-140 -3q-44 -29 -77.5 -52.5t-68.5 -54.5q-40 -36 -57.5 -64.5t-16 -42t20 -8.5t51.5 35q49 46 82 90.5t66 96.5z" />
    <glyph glyph-name="k" unicode="k" horiz-adv-x="421" 
d="M91 280q11 13 30.5 33.5t42 41.5t45.5 39.5t41 26.5q45 25 77 26t49.5 -13.5t19 -40t-14.5 -53.5q-17 -29 -46.5 -50t-61.5 -35.5t-62 -21.5t-46 -8q-3 -48 11.5 -67.5t40 -17.5t59 20.5t68.5 45.5t68 58.5t57 59.5q8 10 18.5 8t17.5 -11t8 -22t-10 -25
q-18 -20 -54 -53.5t-80 -67t-92 -58.5t-89 -28t-71 24.5t-39 99.5q-27 -29 -48 -66.5t-43 -69.5q-11 -16 -25 -20t-26 1t-19 17.5t-2 29.5q16 47 46.5 113t68.5 139t80.5 148t84.5 141t79.5 117t65.5 76q10 9 27.5 3t31 -20.5t18 -33t-11.5 -33.5q-41 -39 -84.5 -93.5
t-85 -115.5t-79 -124.5t-65.5 -119.5zM183 286q20 2 41 9.5t39.5 18t32.5 23.5t20 27q4 10 -1.5 10.5t-17.5 -5t-28 -15.5t-32 -22t-30.5 -24.5t-23.5 -21.5z" />
    <glyph glyph-name="l" unicode="l" horiz-adv-x="179" 
d="M350 815q13 12 30.5 6.5t30.5 -19.5t16 -32.5t-14 -32.5q-66 -56 -123 -129t-103.5 -151t-82 -155.5t-59.5 -142t-35.5 -110t-10.5 -60.5q1 -12 -16.5 -19.5t-37.5 -6.5t-35 11.5t-9 34.5q21 82 55.5 167t75.5 166.5t86 157t88 137.5t80.5 108t63.5 70z" />
    <glyph glyph-name="m" unicode="m" horiz-adv-x="728" 
d="M506 337q-14 -6 -33.5 -28t-42.5 -50t-48 -58.5t-49.5 -53t-48.5 -33.5t-45 0q-18 9 -22.5 29.5t0 47.5t15.5 57.5t24.5 60t26.5 55t22 42.5q-25 -23 -54.5 -60t-60 -78.5t-61.5 -81.5t-60 -70q-29 -32 -57.5 -48t-52.5 -5q-16 7 -18.5 30.5t4.5 55t21.5 68t32 70.5
t36 61t33.5 41q13 14 28.5 10.5t27 -14.5t15.5 -26.5t-6 -25.5q-12 -12 -27 -35t-29.5 -48t-26 -47.5t-15.5 -32.5q28 26 60 65.5t64.5 82.5t65.5 83.5t64 68.5t59.5 38t52.5 -8q11 -8 13.5 -24t-1.5 -36.5t-13.5 -44.5t-22.5 -49q-14 -27 -26.5 -54.5t-21.5 -48.5t-12 -33
t2 -8q6 5 23 27t40.5 51t51 59.5t56 52.5t54.5 30t46 -9q11 -9 11.5 -27t-4.5 -40.5t-13.5 -45.5t-14.5 -43.5t-7.5 -34.5t6.5 -17q12 -5 35.5 5.5t50 27t52 36t40.5 33.5q7 6 14.5 4.5t12 -7.5t4 -14.5t-10.5 -17.5q-36 -32 -75.5 -62t-77 -51t-70 -27.5t-54.5 9.5
q-14 10 -17.5 28.5t-1 40t9 43.5t13 40.5t11 30.5t2.5 13z" />
    <glyph glyph-name="n" unicode="n" horiz-adv-x="475" 
d="M225 118q-25 13 -25.5 44.5t12 69t31 74.5l30.5 61q-22 -12 -47.5 -38t-52 -59.5t-54 -70.5t-54.5 -71q-26 -32 -54 -50t-51 -8q-15 7 -17.5 28.5t4 51.5t19.5 65t28.5 67t31 58t27.5 39q13 13 29 10t28.5 -14t17.5 -25.5t-4 -23.5q-11 -11 -25 -33t-27.5 -46t-24.5 -45
t-15 -31q15 17 39 48.5t53 67t60.5 70.5t62.5 59.5t59 33t50 -8.5q16 -12 14 -37t-13 -55t-26 -60.5t-24.5 -54t-9.5 -36t19 -6t62 35.5t118 89q7 5 15 2t12.5 -10.5t4 -17.5t-10.5 -17q-12 -9 -33.5 -27t-47 -38.5t-54.5 -41t-57.5 -35t-54 -19.5t-45.5 5z" />
    <glyph glyph-name="o" unicode="o" horiz-adv-x="353" 
d="M256 266q-3 -21 -17 -52t-37 -59.5t-55.5 -47.5t-74.5 -16q-18 1 -36 10.5t-31 25.5t-20 37.5t-3 48.5q7 48 27.5 82t44.5 57q12 11 30 6.5t32 -20.5q-26 35 -24.5 65t18.5 49t43.5 24.5t52 -8t43.5 -49t17 -97.5q15 -5 31.5 -6t33 1t31.5 5.5t26 6.5q9 3 14.5 -3t7 -15
t-1 -18t-8.5 -12q-43 -19 -81.5 -20t-62.5 5zM128 320q3 -6 2 -12t-10 -14q-18 -16 -32 -39.5t-20.5 -44.5t-3.5 -35.5t20 -13.5q15 1 31.5 15t30.5 32.5t24.5 39.5t13.5 37q-13 4 -30 14t-26 21zM163 414q-5 -3 -5.5 -11.5t3.5 -19t12 -20.5t20 -16q1 12 -0.5 25.5t-5.5 24
t-10.5 16t-13.5 1.5z" />
    <glyph glyph-name="p" unicode="p" horiz-adv-x="486" 
d="M-256 -242q15 33 43 89.5t62.5 126t73.5 145.5t76.5 148.5t71 135t57.5 104.5q9 16 27 16t33 -10t22.5 -27t-4.5 -36q-45 -70 -89.5 -134.5t-73.5 -127.5q13 18 37.5 50.5t56.5 69t68.5 71.5t72.5 58q52 33 88 28t49 -35t0 -77t-59 -98q14 6 37.5 14.5t48.5 17.5
t45.5 16.5t28.5 10.5q9 4 15.5 0t8.5 -11.5t-1 -15.5t-12 -12q-16 -6 -49 -20t-70 -30.5t-70.5 -33t-50.5 -26.5q-29 -26 -57.5 -45t-53.5 -30t-44.5 -12.5t-29.5 8.5q-11 10 -12.5 23.5t9.5 29t36.5 32t68.5 34.5q17 7 38 25.5t39.5 41.5t32.5 45.5t17.5 37.5t-5 18.5
t-35.5 -12.5q-40 -24 -100 -78.5t-125 -136t-128.5 -187.5t-109.5 -232q-6 -15 -22.5 -18t-32.5 3t-26 18.5t-3 27.5z" />
    <glyph glyph-name="q" unicode="q" horiz-adv-x="439" 
d="M243 261q-22 -21 -52.5 -52.5t-64 -58.5t-67 -43t-60.5 -5q-24 9 -31 33.5t0.5 57.5t27 70.5t47.5 74t62.5 69t72.5 53.5q20 11 41 11.5t39.5 -6t34 -19t24.5 -26.5q25 23 48 43t39 32q12 10 26.5 5.5t25 -16t13.5 -26t-7 -24.5q-54 -56 -99 -126.5t-81 -144.5
t-63 -146.5t-44 -132.5t-24.5 -103t-5.5 -58q1 -8 -7 -14.5t-21 -10t-28 -3.5t-27 4.5t-19 14t-3 25.5q8 35 21.5 78t30 89.5t35 95t38.5 95t40 88.5t38 76zM105 214q19 15 46 38.5t52.5 48t45 45t24.5 29.5q3 5 0.5 12t-9.5 12t-17.5 7t-25.5 -4q-23 -9 -48 -32.5t-47 -51
t-38 -55.5t-21 -45.5t3 -21t35 17.5z" />
    <glyph glyph-name="r" unicode="r" horiz-adv-x="420" 
d="M260 348q-23 -10 -54 -41t-64.5 -70t-66.5 -80.5t-59 -73.5q-16 -20 -35 -23t-33.5 4.5t-22 23.5t-1.5 34q12 32 37.5 81.5t55 98t56 87t40.5 50.5q13 12 28.5 7t27 -17.5t14.5 -27.5t-7 -23q-13 -10 -29.5 -29t-34 -43t-35 -50t-31.5 -49t-24.5 -40t-13.5 -23
q14 16 38.5 47.5t54 68t63.5 72.5t67 62t64 37.5t55 -2.5q22 -12 20 -34t-12.5 -47t-22 -50t-8.5 -43q1 -7 12 -5.5t27 9.5t36 22.5t39 33.5q6 6 12.5 5.5t10.5 -5.5t3 -13t-10 -17q-59 -58 -111 -79t-83 -10.5t-35 50t32 102.5z" />
    <glyph glyph-name="s" unicode="s" horiz-adv-x="252" 
d="M244 433q-33 -7 -69 -29t-63 -53t-39 -68t3 -73q7 5 25.5 14.5t42 22t50 25.5t50 25t41 20.5t23.5 11.5q11 5 18.5 -0.5t10.5 -15t0 -20.5t-13 -17q-15 -9 -44 -23.5t-62.5 -32t-65.5 -35t-53 -32.5q5 -18 8.5 -39.5t1.5 -45.5t-11.5 -49t-30.5 -50q-38 -45 -76 -65
t-69.5 -21t-53 15t-26.5 43.5t9.5 64.5t56.5 79q23 22 50.5 44t58.5 43q-26 56 -17 110t40 100.5t78 82.5t98 56q17 6 30.5 -5.5t18.5 -28.5t1 -33.5t-22 -20.5zM31 108q-20 -14 -49.5 -39t-48.5 -52q-31 -45 -19.5 -56.5t46.5 17.5q19 15 34 33t24.5 35.5t13 33.5t-0.5 28z
" />
    <glyph glyph-name="t" unicode="t" horiz-adv-x="215" 
d="M348 815q13 12 31 6t31 -21t16 -33.5t-14 -32.5q-23 -19 -45 -40.5t-43 -44.5q20 1 47 1t54.5 -1t52.5 -3t42 -5q13 -4 15.5 -17.5t-3.5 -27t-19 -22t-30 -3.5q-15 4 -41 7.5t-55.5 6t-60 3.5t-54.5 0q-45 -58 -82.5 -120.5t-67.5 -123.5t-52 -117.5t-37.5 -103.5
t-23.5 -82t-10 -52q-2 -16 -20 -24t-37.5 -6t-34 14t-8.5 36q19 74 49.5 150.5t66.5 151t76 144.5t79 131q-37 -3 -76.5 -10t-72.5 -18q-14 -7 -26 0t-17.5 19.5t-2 26t22.5 18.5q51 14 105 19t110 8q40 58 75 100.5t60 65.5z" />
    <glyph glyph-name="u" unicode="u" horiz-adv-x="494" 
d="M80 420q10 14 26.5 11.5t30.5 -12.5t21 -24t-3 -23q-5 -4 -17.5 -24.5t-28 -48.5t-30.5 -58.5t-24 -55t-9.5 -38t13.5 -6.5q17 8 40.5 30t49 50.5t51.5 61.5t48.5 63t39.5 55t25 38q10 17 27 16.5t32 -10.5t23 -24t1 -24q-3 -4 -12 -22t-19.5 -42.5t-21 -52.5t-16 -51.5
t-5 -39.5t12.5 -16q10 0 30.5 13t45 34t51.5 46t51 48q7 7 15.5 6t14.5 -7t6.5 -16t-6.5 -21q-15 -16 -35 -36.5t-43.5 -42.5t-47.5 -42t-47.5 -35t-43.5 -22t-35 -2q-39 13 -49 49.5t4 96.5q-40 -47 -80 -92.5t-91 -73.5q-25 -14 -47.5 -14t-40 9t-28 26t-11.5 39
q-1 15 6.5 38.5t19.5 51t27 57t30 56.5t28 48t21 33z" />
    <glyph glyph-name="v" unicode="v" horiz-adv-x="409" 
d="M52 410q7 15 25 17t34.5 -5t26 -20.5t-0.5 -29.5q-6 -10 -15.5 -31.5t-20 -47t-19.5 -52.5t-15 -49.5t-7 -36.5t6 -14q10 1 30 21.5t41.5 48.5t39.5 57t24 46q5 52 16 87t25.5 55.5t30 27.5t30.5 4q27 -6 31.5 -29t-2 -50.5t-20.5 -55t-24 -43.5q-2 -35 5.5 -50t20.5 -16
t30 8t34 23t32.5 28.5t26.5 24.5q7 7 15.5 5t14.5 -9t6 -17.5t-9 -20.5q-27 -29 -60.5 -56.5t-66.5 -42t-61 -9t-44 43.5q-6 -8 -19.5 -25t-31 -36.5t-38 -38t-39.5 -30.5q-24 -15 -47.5 -16t-42.5 8t-30.5 26t-12.5 39t8 58t22 74t27 73t24 56z" />
    <glyph glyph-name="w" unicode="w" horiz-adv-x="609" 
d="M260 385q10 16 26.5 16.5t31.5 -8t23 -21t0 -21.5q-32 -44 -50.5 -83.5t-24.5 -66.5t-0.5 -39t21.5 -2q7 4 23 21t34.5 40.5t36.5 51.5t30 55q5 51 16 85.5t25 54.5t30 26.5t31 2.5q26 -7 31 -29.5t-2 -50t-20.5 -54.5t-23.5 -42q-2 -41 9 -54.5t30.5 -8.5t45.5 25t54 46
q7 7 16 4.5t14.5 -10t6 -17.5t-9.5 -19q-11 -11 -29 -26t-39 -30t-43.5 -26t-43.5 -12.5t-39 9t-30 38.5q-8 -10 -22 -29.5t-32.5 -40.5t-39.5 -40t-41 -29q-25 -12 -48 -6.5t-41 21t-28 37.5t-10 43q-6 -9 -24 -30t-39.5 -43t-44.5 -40t-39 -21q-35 -6 -59.5 15.5
t-25.5 59.5q0 17 10 43.5t25.5 57.5t34.5 63.5t36.5 60.5t31.5 49.5t20 31.5q9 14 27.5 11.5t35.5 -14t26 -26.5t-2 -26q-14 -14 -34.5 -42t-41.5 -59.5t-39.5 -63.5t-28 -54.5t-8 -31t20.5 5.5q21 16 50 47.5t58 67t54 70t38 57.5z" />
    <glyph glyph-name="x" unicode="x" horiz-adv-x="311" 
d="M56 445q10 16 28 16.5t33.5 -8t24.5 -22t0 -24.5q-26 -34 -42.5 -72t-18.5 -68q37 43 71.5 83.5t63 75t49.5 60t31 37.5q8 10 22 7.5t25 -11.5t16 -22t-5 -22q-15 -15 -40.5 -42.5t-57.5 -62.5t-69 -76.5t-75 -84.5q6 -2 9 -2q19 -2 50 11t62.5 31t58 37t37.5 29
q9 8 17.5 6.5t14.5 -8.5t7 -16.5t-6 -16.5q-76 -66 -138.5 -101t-118.5 -33q-11 1 -21 2.5t-19 5.5q-45 -51 -86.5 -100t-73.5 -91q-8 -9 -22 -6.5t-26 11t-17.5 20t4.5 21.5q36 35 81 83.5t93 102.5q-23 38 -17.5 101.5t55.5 148.5z" />
    <glyph glyph-name="y" unicode="y" horiz-adv-x="457" 
d="M409 447q-3 -11 -14 -38.5t-25.5 -63.5t-31 -75t-31.5 -72q27 18 72.5 47.5t96.5 56.5q10 5 19.5 1.5t14.5 -11t3.5 -17.5t-11.5 -17q-14 -9 -36.5 -24t-48.5 -32t-53.5 -35t-50.5 -33t-39 -26t-19 -14q-32 -58 -61.5 -110t-60.5 -98.5t-65 -87t-74 -74.5
q-35 -29 -67 -38.5t-57.5 -4t-42 23.5t-20 45.5t9 61t44.5 69.5q41 45 93 86t99.5 72.5t81.5 52.5t39 26q9 14 19 33t20.5 39.5t19.5 41t17 37.5q-18 -21 -36 -44t-37.5 -44t-40 -39.5t-43.5 -30.5q-25 -14 -48 -14.5t-40.5 9t-28 26.5t-10.5 39q-1 22 14.5 61t36.5 80.5
t43 78t34 53.5q10 14 26.5 11.5t30.5 -12.5t21 -24t-3 -23q-5 -4 -18 -24.5t-28.5 -47.5t-31.5 -57t-25.5 -53.5t-10 -36.5t13.5 -7q28 12 63 49.5t70 84.5t66 96t52 86q9 15 26 17t32.5 -5t25.5 -21t5 -30zM129 21q-22 -15 -47 -33t-49.5 -37t-47.5 -37.5t-41 -33.5
q-40 -36 -56.5 -64.5t-14 -42t22 -8.5t52.5 35q25 23 50 51t48.5 57t44.5 58t38 55z" />
    <glyph glyph-name="z" unicode="z" horiz-adv-x="391" 
d="M94 158q18 5 43.5 8t52.5 2t52.5 -6t43.5 -17q11 -7 10 -22.5t-9.5 -29.5t-20 -21t-21.5 4q-14 14 -43.5 20t-66 3.5t-77.5 -14.5t-78 -33q-14 -8 -28 -2.5t-23 17t-11 25t9 22.5q19 16 53.5 42t74.5 56t82 62.5t76.5 62.5t57.5 56t25 43q1 11 -12.5 11t-35.5 -8.5
t-49 -24t-53 -36.5t-47.5 -46t-31.5 -51q-6 -14 -22.5 -15t-31.5 6.5t-23 21t3 30.5q23 34 58.5 66.5t75.5 58.5t81.5 43t77.5 21.5t62.5 -6.5t36.5 -42q7 -21 -8.5 -49t-43.5 -58.5t-64 -61.5t-70.5 -58.5t-63 -48.5t-41.5 -31z" />
    <glyph glyph-name="braceleft" unicode="{" horiz-adv-x="5" 
d="M556 -62q16 0 34.5 -12.5t29 -27.5t9.5 -27t-24 -11q-67 3 -153 2t-182 -6t-197.5 -13.5t-199 -19.5t-187 -25t-162 -29.5t-123.5 -33t-71 -36.5q-13 -11 -25 -1t-15.5 31.5t4 49t32.5 50.5q24 22 77.5 38.5t126.5 29t162 20.5t184 13.5t192 8t186.5 3t167 -0.5t134.5 -3
z" />
    <glyph glyph-name="bar" unicode="|" horiz-adv-x="396" 
d="M241 944q-6 -118 -11 -257t-8 -303q-4 -163 -5.5 -301t0.5 -253q-4 -28 -31 -37q-25 -10 -52 -1q-26 11 -29 38q27 304 30 597q2 147 -3.5 273t-18.5 235q-1 34 30 50t65 8q32 -9 33 -49z" />
    <glyph glyph-name="braceright" unicode="}" horiz-adv-x="5" 
d="M-890 -96q55 6 144 13.5t197.5 14t230.5 12t243.5 8t236 1.5t208 -7.5t160 -19t91.5 -32.5q27 -21 34.5 -49t4.5 -50.5t-13 -33t-19 4.5q-17 27 -69 45.5t-130.5 30t-179 17t-215 6t-238.5 -3t-249 -9.5t-246.5 -14t-231.5 -16q-22 -3 -24 9t7 27.5t26 30t32 15.5z
M-931 -178q6 7 16 12q8 5 21 8.5t30 3.5q47 5 87 -4.5t67 -22.5t38.5 -25t2.5 -12q-10 0 -29.5 6t-51.5 13.5t-76.5 14t-104.5 6.5z" />
    <glyph glyph-name="asciitilde" unicode="~" horiz-adv-x="565" 
d="M367 280q-29 0 -50 7q-23 6 -42 15l-19 9.5t-17 9.5q-9 5 -18 9.5l-17 8.5q-15 7 -33 7q-22 0 -35 -8q-16 -9 -27 -17q-8 -6 -12 -8q-4 -4 -9 -4q-13 0 -3 19q11 19 34 42t55 40q32 16 62 13q20 -4 52 -21q13 -7 27 -13.5t29 -12.5q16 -7 33 -10t35 -5q20 0 35 6
q13 5 27 14q5 5 10 8.5t10 8.5q10 8 17 13q8 5 15 5q10 0 5 -14q-4 -11 -20 -34q-16 -21 -38 -40q-11 -10 -23.5 -18.5t-26.5 -15.5q-28 -14 -56 -14z" />
    <glyph glyph-name="exclamdown" unicode="&#xa1;" horiz-adv-x="645" 
d="M70 -135q-20 -38 -55 -35q-36 3 -56 29q-23 26 -4 58q66 98 123 194t107 193t104 206.5t114 234.5q9 20 31 23q20 3 35 -11q14 -16 4 -37q-75 -180 -186 -405q-57 -112 -110.5 -224t-106.5 -226zM558 1013q58 5 56 -36q-3 -41 -39 -89q-37 -48 -85 -65q-39 -7 -40 36
q0 46 29 94q29 50 79 60z" />
    <glyph glyph-name="cent" unicode="&#xa2;" horiz-adv-x="759" 
d="M145 -60q2 10 7 22q3 7 6.5 14l7.5 15q2 5 6 13q-73 44 -83 124q-12 80 24 173q37 95 105 178q71 85 160 138q88 53 188 53q4 5 6.5 9t4.5 7l6 9q1 2 2 3t2 3q2 4 4 6q14 17 32 14q18 -2 30 -15q11 -12 3 -29l-6 -9q-3 -4 -7 -10q52 -18 69 -56q17 -39 10 -81
q-8 -44 -27 -81q-20 -38 -42 -55q-21 -23 -48 -17q-26 6 -31 24q-5 19 17 38q30 20 50 61q22 40 17 78q-6 35 -50 42q-54 -69 -144 -207q-45 -69 -95 -155t-106 -191q50 -30 124 3q74 31 144 98t104 138q10 11 23 8q14 -5 21 -16q7 -13 -1 -27q-23 -33 -52 -68t-64 -70
q-70 -73 -156 -116q-86 -44 -182 -27q-1 -2 -2 -4.5t-3 -6.5q-2 -5 -4.5 -10l-5.5 -11q-3 -5 -6 -11t-6 -11q-8 -11 -20 -12q-12 0 -22 7q-10 6 -10 18zM215 89q36 70 73.5 137.5t78.5 134.5q40 66 77 125t72 111q-76 -17 -145 -77q-35 -30 -63.5 -63.5t-51.5 -69.5
q-23 -37 -39 -75.5t-26 -80.5q-20 -83 24 -142z" />
    <glyph glyph-name="sterling" unicode="&#xa3;" horiz-adv-x="525" 
d="M-13 -33q24 5 53 6h13q8 23 17.5 49.5t20.5 56.5q12 31 23.5 58.5t22.5 51.5q-8 -1 -14 -1.5t-12 -0.5q-6 -1 -11 -1.5t-9 -0.5q-10 1 -10 15q2 14 9 29q7 13 20 20q6 1 14 1.5t17 1.5q6 0 12 0.5t11 1.5q37 80 71 146.5t66 120.5q63 106 101 135q38 28 72 25
q34 -5 53 -28q11 -12 18 -24t10 -26q6 -35 -8 -79q-14 -45 -38 -88q-11 -22 -23 -38.5t-23 -28.5q-14 -13 -31 -7q-18 4 -26 21q-8 15 9 33q30 29 56 77q26 47 34 87q6 38 -23 42q-28 4 -75 -63q-23 -33 -44 -70t-41 -78t-38.5 -78t-38.5 -72q5 0 9 0.5t8 0.5q8 1 15 1.5
t12 0.5t9 0.5t9 -0.5q10 -1 10 -16q-2 -15 -10 -29q-8 -16 -21 -20q-11 -2 -24 -3t-29 -1q-4 -1 -8 -1h-9q-11 -26 -22.5 -53.5t-23.5 -57.5q-11 -31 -21 -58.5t-18 -53.5q25 -2 66 0h50.5t47.5 -2q18 -3 21 -20q2 -19 -7 -32q-9 -14 -27 -15q-54 -1 -148 0h-158
q-12 1 -15 11q-4 9 2 29q7 19 24 25z" />
    <glyph glyph-name="currency" unicode="&#xa4;" horiz-adv-x="597" 
d="M273 104q-32 0 -59 11t-46 30q-32 -22 -62.5 -44.5t-56.5 -51.5q-17 -4 -30.5 1t-21 15t-9.5 23t4 25q38 29 69 51t67 47l1 -2q-6 21 -6.5 44t7.5 48q9 29 27 55t41 45q-8 21 -19 39.5t-16 42.5q0 12 11.5 21t26 13t28 1.5t17.5 -13.5q3 -17 8.5 -32.5t11.5 -32.5
q31 11 66 11q30 0 56 -10.5t46 -28.5q30 21 58.5 44.5t54.5 50.5q10 10 23 4.5t23.5 -18t15 -29.5t-4.5 -29q-24 -18 -59 -39t-70 -50q13 -43 1 -86q-8 -32 -28 -60t-46 -49q11 -24 20.5 -49.5t19.5 -51.5q3 -7 -6 -15t-22 -12.5t-26 -3.5t-19 13q-11 26 -18.5 45.5
t-15.5 36.5q-29 -10 -62 -10zM328 361q-25 0 -50.5 -14.5t-42 -36t-20.5 -48t15 -50.5q18 -23 44 -24t51.5 12t45.5 35.5t25 45.5q7 33 -13 56.5t-55 23.5z" />
    <glyph glyph-name="yen" unicode="&#xa5;" horiz-adv-x="584" 
d="M265 161q-2 -3 -3.5 -6.5t-4.5 -8.5q-2 -5 -4.5 -10t-4.5 -10l-7 -14t-5 -11h46.5t46.5 1q14 0 17 -11q4 -12 0 -27q-5 -14 -15 -26q-11 -11 -25 -11h-103q-3 -7 -7 -15t-8 -18q-15 -35 -28 -62q-12 -25 -34 -26q-21 -1 -35 13q-14 17 -2 43q16 37 30 66q-17 0 -34 -0.5
t-34 -0.5q-21 2 -24 19q-3 19 7 37q10 19 27 19q23 1 46 1h46q4 10 12 26l9 18q4 8 6 14h-34.5t-34.5 -1q-22 2 -23 19q-2 18 10 35q10 19 28 19h18.5t19.5 -1h29q1 32 6 71t14 86q16 93 39 178q22 84 39 120q11 17 31 14q21 -3 34 -18q15 -15 7 -36q-19 -37 -43 -115
q-12 -38 -22.5 -76.5t-19.5 -78.5q-9 -39 -13 -70.5t-4 -55.5q39 18 90 101q52 81 96 179q44 94 58 153q6 18 26 20q22 0 36 -13q17 -15 11 -38q-17 -51 -40 -103.5t-55 -108.5q-31 -56 -66 -108t-76 -101h26.5t26.5 1q14 0 17 -12q3 -10 -3 -25q-5 -14 -17 -25
q-10 -11 -26 -11h-83q-5 0 -9 0.5t-8 0.5z" />
    <glyph glyph-name="brokenbar" unicode="&#xa6;" horiz-adv-x="396" 
d="M292 954q-6 -51 -10.5 -110.5t-8.5 -129.5t-5 -129.5t1 -108.5q-5 -12 -31 -17q-27 -3 -52 0q-26 4 -29 17q27 131 30 256q2 63 -3.5 117.5t-19.5 101.5q0 15 31 21q31 7 64 3q33 -3 33 -21zM255 383q-6 -51 -11 -111t-8 -130q-4 -70 -5.5 -129t0.5 -109q-4 -12 -31 -16
q-26 -5 -52 0q-26 3 -29 16q27 130 30 257q2 63 -3.5 117t-18.5 101q-1 15 30 22q33 6 65 3q31 -5 33 -21z" />
    <glyph glyph-name="section" unicode="&#xa7;" horiz-adv-x="3983" 
d="M1834 74q-15 -21 -34 -25.5t-34 2.5t-23 23t-2 35q10 32 31 78q-35 -30 -74 -58.5t-78 -49t-75.5 -28t-66.5 4.5q-30 11 -41.5 35.5t-9.5 55.5t15.5 66.5t35 70.5t48.5 66t55 53q38 29 71.5 35t54 -7t24 -42.5t-17.5 -70.5q-14 -25 -34.5 -48t-44.5 -40.5t-49 -27.5
t-47 -7q-3 -5 -5.5 -14t-3 -18.5t1.5 -18t10 -12.5q11 -7 32 -2t47 17.5t55.5 31t57.5 39.5t52.5 41.5t41.5 37.5q26 48 50 86.5t37 50.5q13 13 29 8.5t27.5 -16.5t16 -27t-5.5 -24q-12 -10 -28 -30t-32.5 -44.5t-32.5 -51.5t-29.5 -50.5t-23 -41t-12.5 -23.5q13 17 36 49.5
t51.5 70t60.5 75.5t64 65.5t62 40t55 0.5q15 -7 19.5 -20t2 -28t-9.5 -32.5t-13.5 -34.5t-11 -32.5t-2.5 -27.5q2 -7 12.5 -5.5t26.5 10.5t35 24t37 35q40 94 85.5 181.5t88.5 160.5q-249 -8 -426.5 -22t-294 -29.5t-177.5 -29.5t-77 -20q-14 -8 -18 7.5t0 38t16 44.5t30 28
q25 8 104 15.5t205.5 14t297.5 11t380 7.5q18 30 39 64t41 65.5t37.5 57t29.5 37.5q8 8 19.5 7t23 -8.5t21 -19t14.5 -24.5t3.5 -26t-12.5 -23t-25 -26t-28.5 -34t-28 -35.5t-23.5 -29.5q14 2 39.5 2.5t54.5 1.5q17 24 32.5 44.5t30.5 37.5q13 14 32 9t33 -19t17.5 -33.5
t-14.5 -34.5q-2 -1 -2.5 -2t-1.5 -2q21 0 37.5 -1t25.5 -2q13 -3 9.5 -19t-17 -33t-33 -29t-36.5 -8q-9 2 -23.5 4.5t-33.5 4.5q-29 -39 -60.5 -89t-62 -106.5t-57.5 -116.5t-45 -118q11 18 29 45.5t40.5 58t47.5 61.5t50 57t49 44t44 23q21 5 39 0.5t28.5 -19t11 -38.5
t-14.5 -57q-14 -30 -27.5 -60.5t-24 -57t-16 -47t-3.5 -29.5q3 -9 16.5 -5t35 18.5t49 37t58.5 51.5l5 7q26 36 56 65.5t66 52.5q86 49 154 -19l29 35q8 9 15 17.5t15 16.5q7 9 13.5 15.5t10.5 11.5q18 11 37 6q20 -7 28 -23q11 -16 3 -34q-51 -120 -1 -169
q23 -25 61.5 -35.5t89.5 -8.5q53 3 107 16t111 37q114 45 191 119q17 10 35 0t26 -32q10 -23 -6 -37q-29 -26 -73 -52t-103 -49q-115 -49 -241 -67q-63 -10 -116.5 -4.5t-99.5 25.5q-91 39 -100 160q-12 -13 -24.5 -28.5t-27.5 -33.5q-19 -23 -39.5 -46.5t-42.5 -46.5
q-42 -47 -90 -76q-44 -30 -88 -22q-57 13 -49 73q1 6 1.5 12.5t2.5 13.5q-59 -50 -109.5 -74.5t-80.5 -7.5q-23 12 -24.5 41t9 64.5t26.5 71.5t28 63.5t14 39.5t-15 0q-38 -27 -78 -77.5t-76 -106t-64.5 -106t-43.5 -77.5q-12 -21 -28 -26.5t-30.5 -0.5t-23 18t-5.5 29
q12 58 38.5 134t61 158t75.5 164t82 152q-29 3 -54.5 4t-43.5 0q-43 -60 -79 -125.5t-65 -130t-50.5 -124.5t-36.5 -110t-22.5 -86.5t-8.5 -53.5q-1 -16 -19 -24.5t-38 -8t-35 12t-10 35.5q10 46 25 94.5t34 98.5q-49 -40 -90.5 -51.5t-65.5 2.5t-25.5 51.5t28.5 96.5
q-22 -12 -52 -44t-62 -73t-63 -83.5t-55 -75.5zM1394 -81q12 -6 2.5 -20.5t-30.5 -27t-48.5 -18t-51.5 6.5q-20 10 -24 46t1 84.5t16 103t22 100t18.5 76t5.5 31.5q-14 -7 -32.5 -29.5t-40 -52t-45 -61t-47.5 -55.5t-47.5 -36t-44.5 -2q-18 8 -23.5 28.5t-2.5 47.5t13 58.5
t22 61.5t24 56t20 43q-24 -24 -51.5 -62.5t-56.5 -81t-58.5 -84t-56.5 -72.5q-28 -34 -55.5 -52t-52.5 -7q-15 6 -15.5 33t8.5 66t25 86t33 93q12 32 15 52t-0.5 31.5t-13.5 16t-23 5.5q-18 1 -33.5 1.5t-26.5 0.5q-27 -56 -51 -123t-40.5 -129.5t-23.5 -113t1 -74.5
q6 -20 -9 -31.5t-35 -14.5t-38.5 4.5t-19.5 25.5q-4 45 5.5 98.5t28 112.5t43.5 120t52 121q-69 -5 -137.5 -17.5t-132.5 -29.5q-37 -63 -70.5 -133.5t-61 -143.5t-48 -144t-30.5 -135q-3 -15 -20.5 -20.5t-36.5 -1t-32.5 19.5t-6.5 42q28 117 78.5 242.5t113.5 239.5
q-77 -24 -129.5 -45.5t-64.5 -32.5q-15 -12 -30 -5.5t-23 20.5t-5.5 30.5t23.5 26.5q66 32 138 57.5t147 45.5q12 17 23.5 33.5t22.5 31.5q60 83 123 154t123 124.5t114.5 88.5t97.5 46.5t71.5 -2.5t36.5 -58q4 -19 -8 -53.5t-34 -80.5t-50.5 -99.5t-58.5 -110.5q28 2 52 1
t41 -2q29 -1 47.5 -10t25.5 -28.5t1.5 -51t-23.5 -76.5q-13 -32 -27.5 -64t-27 -59t-21.5 -45.5t-11 -24.5q27 27 56.5 68t60 85.5t62 87t61.5 72t58 40.5t53 -6q11 -8 14 -23.5t0 -36.5t-11.5 -45.5t-20.5 -49.5q-13 -28 -24.5 -55.5t-19 -49.5t-10 -34t2.5 -8q6 5 21.5 28
t38 53t48.5 62t53.5 55.5t53 32.5t46.5 -7q12 -9 6.5 -40.5t-17.5 -76t-25 -96t-16 -100t9.5 -88.5t51.5 -61zM1619 -70q85 19 188 28.5t214 12.5t226 -0.5t224 -10.5t207 -17.5t175.5 -21.5t130 -21.5t70.5 -19.5q36 -18 48 -42t8.5 -44.5t-18.5 -32t-33 -2.5q-17 8 -92 25
t-190 35.5t-262 35t-308 24t-327 2t-320 -31.5q-30 -5 -32.5 5.5t11 25.5t36.5 30t44 20zM1035 -94q15 0 32.5 -11t28 -24.5t9.5 -24.5t-22 -11q-70 0 -140.5 -12.5t-136.5 -31.5t-125.5 -43t-106 -47t-78 -42.5t-42.5 -29.5q-11 -11 -22 -2t-15.5 28.5t1 45.5t28.5 49
q15 15 48.5 32t80 33.5t103 32.5t117 28.5t122 20.5t118.5 9zM690 465q33 69 63 129t49 102.5t23.5 64t-13.5 13.5q-94 -42 -188 -131t-183 -217q68 14 131 24t118 15zM3133 389q-18 3 -50 -15q-34 -19 -77 -71q-12 -15 -24 -37q-14 -23 -22 -42q-6 -19 4 -20q5 -1 17 5.5
t30 20.5q12 10 25.5 21.5t28.5 27.5q14 14 27 28t25 28q23 28 29 42q4 10 -13 12zM1657 332q7 16 5.5 21t-8 2t-17 -12.5t-22.5 -23.5q-20 -23 -38 -48t-22 -37q21 4 51 28.5t51 69.5z" />
    <glyph glyph-name="dieresis" unicode="&#xa8;" horiz-adv-x="408" 
d="M293 778q-43 -3 -62 21q-19 25 -16 55q1 30 22 51q20 19 55 7q45 -18 57 -48t-3 -56q-15 -25 -53 -30zM125 769q-43 -1 -62 22q-19 25 -16 55q1 29 22 50q21 20 55 8q45 -18 57 -49q12 -30 -3 -55t-53 -31z" />
    <glyph glyph-name="copyright" unicode="&#xa9;" horiz-adv-x="839" 
d="M273 -73q-83 0 -142 37q-62 38 -88 109q-27 73 -14 178q5 35 14 69t23 69t32 68t41 65q22 32 48 59.5t56 53.5q58 48 132 78q73 29 157 29q98 0 162 -38t92 -100q14 -32 21.5 -66.5t5.5 -73.5q-2 -79 -31 -157q-15 -41 -36 -79.5t-49 -74.5q-80 -106 -198 -166
q-117 -60 -226 -60zM293 7q76 0 161 43q84 43 159 127q36 42 65.5 93t51.5 113q27 82 6 156q-22 73 -82 116q-59 41 -148 32q-126 -18 -212 -86q-43 -34 -76.5 -73.5t-56.5 -86.5q-24 -47 -38 -93t-19 -94q-6 -86 17 -139q23 -56 68 -81q46 -27 104 -27zM203 272
q23 97 89 187q67 89 136 128q47 23 85 9q39 -14 61 -50q22 -35 19 -81q-3 -45 -40 -87q-16 -16 -35 -13q-19 5 -25 18q-9 13 2 26q24 26 34 58q8 32 2 54t-21 22q-41 -4 -92 -55q-48 -51 -87 -120q-39 -71 -51 -129q-12 -60 19 -84q21 -12 54 4q32 14 71 50q38 35 70 77
q12 15 25 12q12 -5 12 -19q0 -29 -32 -72q-15 -21 -34 -39.5t-41 -34.5q-62 -42 -118 -36t-86 51q-30 47 -17 124z" />
    <glyph glyph-name="ordfeminine" unicode="&#xaa;" horiz-adv-x="504" 
d="M315 573q8 10 20 9t21.5 -7.5t13 -17.5t-4.5 -21q-20 -21 -38 -44t-33 -49q-18 -31 -20.5 -46.5t6 -18t24.5 6t35 26.5q6 6 12 5t9 -6.5t2.5 -12.5t-6.5 -13q-39 -38 -76 -50.5t-54 0.5q-10 8 -11.5 25t2.5 34q-16 -21 -36 -37.5t-43 -19.5q-21 -3 -40.5 5.5t-25.5 27.5
q-6 21 -3.5 43t11.5 43t22.5 39.5t28.5 33.5q21 19 45 31t46.5 13.5t40 -8t23.5 -33.5zM174 485q-6 -6 -16 -20t-16.5 -29t-5 -26t18.5 -11t42 20t48 52q12 15 14.5 26t0 18t-8 10t-10.5 3q-19 -2 -35.5 -14t-31.5 -29z" />
    <glyph glyph-name="guillemotleft" unicode="&#xab;" horiz-adv-x="737" 
d="M338 43q-30 0 -100 38q-34 20 -66 40.5t-61 43.5q-60 46 -64 71q2 21 52 73q25 26 54 54.5t64 58.5q35 31 66.5 57.5t60.5 49.5q58 46 77 54q21 5 37 -13q18 -18 24 -40t-10 -33q-9 -5 -25.5 -16t-42.5 -29q-26 -17 -53 -36.5t-56 -40.5q-29 -22 -54.5 -41.5t-46.5 -37.5
q-43 -35 -44 -45q3 -14 41 -37q20 -13 41.5 -24.5t46.5 -23.5q25 -11 45 -19t37 -13q28 -10 30 -31q1 -21 -15 -39q-15 -19 -38 -21zM569 91q-33 0 -100 34q-68 33 -128 73q-59 41 -63 62q1 17 51 64q25 23 54.5 47.5t63.5 51.5q67 53 127 94q29 20 48.5 31.5t29.5 15.5
q19 3 37 -12q16 -14 23 -35q6 -19 -10 -29q-18 -8 -68 -39q-25 -15 -52 -32t-56 -36q-30 -19 -55 -36t-46 -32q-42 -30 -45 -40q3 -12 42 -33q20 -11 41.5 -21t45.5 -20q25 -11 45.5 -17.5t37.5 -11.5q28 -7 30 -26q0 -19 -15 -35q-17 -17 -38 -18z" />
    <glyph glyph-name="logicalnot" unicode="&#xac;" horiz-adv-x="512" 
d="M393 351h-52.5t-52.5 1h-118.5t-117.5 -1q-28 2 -35 25q-8 23 1 46t31 23q96 2 194 0h166h23.5t18.5 -2q14 -1 28 -17q12 -16 9 -76q-1 -35 -0.5 -69t1.5 -69q-2 -17 -24 -21q-22 -6 -47 -1q-24 4 -24 17q-1 29 -1 57v57v30z" />
    <glyph glyph-name="registered" unicode="&#xae;" horiz-adv-x="835" 
d="M305 -79q-75 0 -138 33q-62 33 -100 100t-42 168q-2 95 39 185q40 89 111 163q69 72 161 117q91 44 186 44q99 0 163 -38q63 -36 93 -98q16 -31 23.5 -64.5t8.5 -70.5q0 -38 -5.5 -75t-17.5 -75t-29.5 -73.5t-40.5 -69.5q-87 -122 -197 -184q-112 -62 -215 -62zM295 -10
q63 0 129 29q62 29 121 77q55 45 97 101q48 66 70 145q22 81 15 157q-9 77 -55 124q-47 50 -139 51q-50 -1 -94.5 -11t-82.5 -29q-78 -37 -131 -98q-54 -61 -85 -134q-30 -72 -36 -145q-5 -73 13 -132q19 -61 64 -98q44 -37 114 -37zM209 159q22 45 78 130q29 42 56 81.5
t55 75.5q53 72 72 83q12 5 25 -4q9 -10 14 -23q3 -14 -4 -24q-37 -34 -123 -163q105 21 153 66q49 46 52 94q4 46 -30 71t-96 2q-63 -23 -142 -117q-13 -12 -32 -6q-20 8 -29 24q-11 15 5 31q124 107 217 124q92 15 143 -27q49 -43 49 -110q-2 -67 -63 -124
q-62 -56 -192 -68q2 -10 16 -30q15 -21 36 -42q20 -21 38 -32q14 -11 7 -28q-8 -19 -24 -29q-18 -12 -36 -3q-24 15 -46 46q-11 15 -20.5 30t-17.5 30t-13.5 26t-8.5 19q-2 -5 -7.5 -14.5t-13.5 -24.5q-9 -15 -17.5 -30.5t-17.5 -32.5q-5 -10 -9 -17.5t-8 -15.5
q-8 -13 -28 -11q-17 3 -31 15q-13 12 -7 28z" />
    <glyph glyph-name="macron" unicode="&#xaf;" horiz-adv-x="705" 
d="M61 715q-41 1 -52 24q-11 21 3 47q15 23 47 23q146 1 293 0h279q27 0 38 -14q10 -15 6 -33q-3 -16 -21 -33q-17 -14 -46 -14h-95.5t-95.5 1h-179t-177 -1z" />
    <glyph glyph-name="degree" unicode="&#xb0;" horiz-adv-x="310" 
d="M97 886q31 31 77 45q44 13 84 4q39 -9 53 -49q11 -37 -1 -79q-12 -43 -36 -83q-11 -20 -23.5 -35t-25.5 -26q-20 -17 -41.5 -27.5t-44.5 -16.5q-45 -12 -80 3q-34 14 -40 62q-5 52 16 106q22 57 62 96zM132 668q27 0 55 40q14 20 23.5 41.5t17.5 45.5q14 49 8 73
q-4 24 -32 22q-27 -3 -48 -32q-18 -27 -37 -78q-17 -48 -15 -81q1 -31 28 -31z" />
    <glyph glyph-name="plusminus" unicode="&#xb1;" horiz-adv-x="552" 
d="M455 355q23 -2 21 -22q0 -20 -15 -39t-37 -20q-17 -1 -37 -1h-43q-11 0 -20 0.5t-17 0.5l-76 -133q-10 -15 -31 -13q-22 0 -38 12q-16 11 -8 29l56 105h-92q-18 0 -22 11q-3 12 3 27q3 8 7.5 14t9.5 12q10 10 21 12l121 2l67 116q14 18 36 17q23 -2 38 -15q15 -12 9 -31
l-51 -86zM340 69q13 0 18 -12q3 -11 0 -26q-5 -17 -14 -26q-11 -12 -25 -12h-61t-67 -1q-34 0 -66 -0.5t-61 -0.5q-17 0 -20 11t3 26q5 15 15 25q9 10 18 12z" />
    <glyph glyph-name="twosuperior" unicode="&#xb2;" horiz-adv-x="499" 
d="M244 775q1 -8 -12 -12.5t-29.5 -4.5t-29.5 5t-10 16q7 35 31.5 68.5t59.5 52.5q16 9 36.5 15t42.5 7.5t43 -2t38 -13.5q26 -15 29 -35.5t-8 -42.5t-33 -44.5t-46.5 -43t-48 -37t-37.5 -25.5q-17 -11 -34 -21.5t-36 -20.5q16 0 36 1.5t39.5 5.5t37 11.5t28.5 18.5t24 6.5
t20.5 -16t7 -25.5t-16.5 -22q-24 -13 -68 -18.5t-89 -6t-81 3t-43 8.5q-5 4 -6 12.5t1.5 16.5t8 13t13.5 4q10 3 33 15.5t51.5 31t60 41t57 45.5t42 45t16.5 40q-1 16 -11 21t-25 2q-19 -5 -37.5 -17t-32 -28.5t-20 -35t-2.5 -35.5z" />
    <glyph glyph-name="threesuperior" unicode="&#xb3;" horiz-adv-x="405" 
d="M169 838q-4 -10 -16.5 -9t-24.5 8t-19 17.5t1 19.5q26 31 70 45t86 12q22 -2 37 -10.5t23 -22t7.5 -30t-9.5 -34.5q-8 -17 -21 -30.5t-29 -24.5q30 -17 32 -46.5t-17 -58.5q-12 -18 -33.5 -34t-47 -28t-52.5 -17t-49 -0.5t-36.5 21.5t-15.5 49q1 13 15 15.5t18 -7.5
q7 -22 26 -25t41 4.5t42.5 21t31.5 24.5q26 29 26.5 41.5t-21.5 19.5q-7 -2 -14 -4.5t-15 -4.5t-15 6t-11 18t-2.5 18.5t11.5 7.5t25.5 6.5t30 18t26 23t14.5 22.5q6 19 -8 23t-34.5 -2.5t-42 -21t-30.5 -31.5z" />
    <glyph glyph-name="acute" unicode="&#xb4;" horiz-adv-x="225" 
d="M21 786q14 40 43 85q14 23 26 39t21 26q15 10 41 -5q13 -8 24 -18t19 -22q16 -25 4 -41q-18 -13 -34.5 -28.5t-32.5 -32.5q-17 -17 -28 -30.5t-18 -22.5q-9 -8 -26 -2q-17 5 -30 19q-14 15 -9 33z" />
    <glyph glyph-name="mu" unicode="&#xb5;" horiz-adv-x="487" 
d="M264 546q5 9 19 9t27 -7t20 -18.5t-1 -25.5q-20 -31 -38 -58t-34.5 -52.5t-32 -51.5t-30.5 -54q-14 -29 -2.5 -36.5t46.5 15.5q24 15 45.5 35.5t42.5 40.5q24 23 52 58t53 67q28 38 57 78q7 10 21 10.5t26 -6t18.5 -19t-0.5 -27.5q-32 -44 -66 -98q-29 -46 -64.5 -109.5
t-68.5 -138.5q-8 -8 -21 -9t-25 3t-20.5 12.5t-7.5 20.5q12 32 30.5 63t29.5 54q-45 -63 -81.5 -89.5t-63 -31t-41.5 5.5t-17 19q-18 -35 -34.5 -65t-33 -60.5t-33 -63t-35.5 -72.5q-8 -14 -24.5 -13t-32.5 9.5t-26 20t-4 20.5q23 40 55.5 94.5t69 114t73.5 118.5t68.5 108
t54 83.5t29.5 45.5z" />
    <glyph glyph-name="paragraph" unicode="&#xb6;" horiz-adv-x="641" 
d="M242 0q-6 -12 -22.5 -14.5t-33 2t-27.5 14.5t-6 24q39 95 81.5 183t89.5 175.5t100.5 178t114.5 191.5q-16 -1 -32.5 -2t-32.5 -1q-46 -70 -85.5 -129t-74 -113.5t-66 -108t-61.5 -112.5t-59.5 -127t-61.5 -151q-8 -11 -24.5 -12t-31.5 4.5t-24.5 16t-3.5 22.5
q36 75 68.5 139t64 122t63 112.5t66.5 110.5q-51 34 -57 82t23 92.5t88 77.5t139 38q31 2 67 3t73.5 1t75 -1t70.5 -3q10 -2 12.5 -12.5t0 -22.5t-10 -22t-18.5 -11q-17 1 -39.5 4t-39.5 3q-69 -105 -129 -206.5t-109.5 -197t-87 -183.5t-60.5 -167z" />
    <glyph glyph-name="periodcentered" unicode="&#xb7;" horiz-adv-x="326" 
d="M161 251q-48 -5 -53 23t19 59q23 31 62 43q33 4 40 -24t-10 -62q-18 -33 -58 -39z" />
    <glyph glyph-name="cedilla" unicode="&#xb8;" horiz-adv-x="452" 
d="M174 116q15 -6 10 -24l-1 -4q-2 -4 -10 -16.5t-24 -32.5q-5 -7 -10 -13t-10 -11h6q85 0 94 -59q3 -14 -6 -36q-7 -21 -22 -36q-42 -40 -123 -37q-56 6 -50 32l2 7q18 34 34 28q24 -11 30 -11q53 0 67 18q22 32 -22 38h-62q-12 1 -19 16t5 30q20 31 37.5 56.5t34.5 48.5
l23 6h16z" />
    <glyph glyph-name="onesuperior" unicode="&#xb9;" horiz-adv-x="286" 
d="M56 616l34 52l34 52q18 25 33.5 48t29.5 45q13 26 34 23q22 -5 37 -19q18 -15 4 -39q-16 -23 -33 -47t-36 -50q-18 -26 -36.5 -51.5t-37.5 -50.5q-11 -11 -27 -5q-18 6 -30 18q-14 12 -6 24z" />
    <glyph glyph-name="ordmasculine" unicode="&#xba;" horiz-adv-x="310" 
d="M119 851q34 31 80 45q45 13 85 4q38 -9 49 -49q8 -37 -7 -79q-16 -44 -43 -83q-26 -39 -54 -61q-42 -31 -90 -44q-46 -12 -79 3q-33 14 -35 62q-1 51 24 106q26 56 70 96zM137 633q26 0 57 40q31 39 48 87q18 48 15 73q-3 23 -31 22q-27 -3 -50 -32q-21 -27 -43 -78
q-21 -46 -23 -81q0 -31 27 -31z" />
    <glyph glyph-name="guillemotright" unicode="&#xbb;" horiz-adv-x="737" 
d="M422 535q33 -4 101 -52q34 -23 66 -48t61 -52q60 -54 64 -79q-1 -18 -52 -66q-25 -23 -54 -47.5t-64 -50.5q-67 -51 -127 -91q-57 -38 -78 -43q-19 -3 -36 17q-18 19 -24 43q-6 23 10 32q9 4 25.5 13t42.5 23q25 14 52.5 30t56.5 34q57 34 101 65q42 29 44 39
q-3 16 -41 43q-20 15 -41.5 29.5t-46.5 29.5q-49 30 -83 43q-28 13 -29 34q-2 21 15 38q16 18 37 16zM192 517q32 -5 100 -47q35 -21 66.5 -43.5t61.5 -46.5q59 -48 63 -70q-2 -18 -51 -57q-25 -20 -54.5 -40.5t-64.5 -43.5q-67 -45 -127 -77q-55 -32 -77 -37q-20 -2 -37 16
q-17 17 -23 38t10 28q8 3 25 10.5t42 19.5q26 12 53 25.5t56 28.5t54.5 28.5t46.5 26.5q42 25 45 34q-3 13 -42 38q-20 14 -41.5 27t-46.5 26q-24 14 -44.5 23.5t-37.5 15.5q-29 12 -30 31q0 18 15 33q18 14 38 13z" />
    <glyph glyph-name="onequarter" unicode="&#xbc;" horiz-adv-x="698" 
d="M624 882q26 35 57 26q32 -8 44 -24q14 -15 -9 -43q-74 -90 -154.5 -195.5t-171.5 -230.5q-90 -125 -178.5 -250.5t-176.5 -256.5q-20 -23 -41 -22q-22 2 -39 13q-18 12 -5 37q73 97 158 213.5t184 255.5t181 257.5t151 219.5zM215 655q19 29 37 56.5t37 54.5t35.5 52
t31.5 48q15 28 37 25q20 -4 40 -21q18 -15 3 -41q-17 -24 -35 -50t-38 -55q-20 -28 -40 -55t-40 -53q-11 -12 -29 -6q-20 8 -32 19q-14 13 -7 26zM526 271q3 6 16 4t26 -8t21.5 -14.5t4.5 -15.5q-35 -42 -64.5 -95t-51.5 -102.5t-35 -89t-14 -54.5q-3 -6 -17 -7t-29 1.5
t-25.5 8t-6.5 13.5q11 24 20 44q8 17 14.5 32t8.5 20q-8 3 -25 0.5t-35 -6t-34.5 -7t-22.5 -3.5q-26 8 -36.5 27t1.5 32q59 61 104 118.5t73 95.5q4 7 17 4t26 -11t21 -17t2 -14t-24 -24t-41.5 -45.5t-47.5 -56t-42 -56.5q20 4 40 5t46 1l23.5 47t32 65t31.5 64t23 44z" />
    </font>
</defs>
</svg>
