<?xml version="1.0" standalone="no"?>
<!DOCTYPE svg PUBLIC "-//W3C//DTD SVG 1.1//EN" "http://www.w3.org/Graphics/SVG/1.1/DTD/svg11.dtd" >
<svg xmlns="http://www.w3.org/2000/svg" xmlns:xlink="http://www.w3.org/1999/xlink" version="1.1">
<metadata>
Created by FontForge 20170731 at Fri Jul 17 15:49:37 2015
 By Aleksey,,,
Copyright (c) 2015 by Kostas Bartsokas. All rights reserved.
</metadata>
<defs>
<font id="Averta-Black" horiz-adv-x="1200" >
  <font-face 
    font-family="Averta-Black"
    font-weight="400"
    font-stretch="normal"
    units-per-em="2048"
    panose-1="0 0 10 0 0 0 0 0 0 0"
    ascent="1602"
    descent="-446"
    x-height="1003"
    cap-height="1455"
    bbox="-586 -533 2941 2051"
    underline-thickness="130"
    underline-position="-210"
    unicode-range="U+0020-2E18"
  />
<missing-glyph horiz-adv-x="894" 
 />
    <glyph glyph-name=".notdef" horiz-adv-x="894" 
 />
    <glyph glyph-name=".null" horiz-adv-x="0" 
 />
    <glyph glyph-name="nonmarkingreturn" horiz-adv-x="682" 
 />
    <glyph glyph-name="space" unicode=" " horiz-adv-x="470" 
 />
    <glyph glyph-name="exclam" unicode="!" horiz-adv-x="612" 
d="M176 524l-61 984h379l-61 -984h-257zM307 -21q-83 0 -141.5 57.5t-58.5 139.5q0 80 59 137.5t141 57.5q53 0 99 -26.5t73 -71.5t27 -97q0 -82 -58.5 -139.5t-140.5 -57.5z" />
    <glyph glyph-name="quotedbl" unicode="&#x22;" horiz-adv-x="966" 
d="M54 884l59 571h351l-149 -571h-261zM521 884l59 571h353l-150 -571h-262z" />
    <glyph glyph-name="numbersign" unicode="#" horiz-adv-x="1320" 
d="M182 -107l56 353h-193v265h234l38 242h-216v264h257l50 326h242l-51 -326h232l51 326h241l-50 -326h199l-2 -264h-238l-38 -242h221l-2 -265h-260l-55 -353h-242l54 353h-230l-55 -353h-243zM520 511h232l38 242h-231z" />
    <glyph glyph-name="dollar" unicode="$" horiz-adv-x="1145" 
d="M1095 425q0 -169 -99 -280t-270 -145v-193h-285v191q-231 43 -402 214l221 272q80 -76 170.5 -112.5t165.5 -36.5q28 0 47.5 8.5t28.5 21.5t9 30q0 15 -5 26t-21 25t-49.5 28t-86.5 30q-57 17 -100 31.5t-92 36.5t-84 45t-69 55t-55 69t-33.5 85.5t-12.5 105.5
q0 166 97.5 280t270.5 145v215h285v-225q97 -23 189 -69t162 -105l-214 -270q-87 59 -155.5 83t-132.5 24q-92 0 -92 -51q0 -23 29.5 -46t114.5 -48q54 -16 94 -29t84 -29.5t75 -32.5t63.5 -36.5t54 -43t41.5 -51t31.5 -61t18 -72t6.5 -85.5z" />
    <glyph glyph-name="percent" unicode="%" horiz-adv-x="2057" 
d="M829 -58l-249 108l651 1440l248 -108zM454 651q-85 0 -161.5 30t-132.5 83.5t-89 131t-33 168.5q0 112 51.5 205t147.5 148.5t217 55.5q115 0 210 -50.5t151.5 -144.5t56.5 -214q0 -113 -51.5 -207t-148 -150t-218.5 -56zM457 885q45 0 81 24t55.5 64t19.5 88
q0 77 -45 126t-111 49q-69 0 -112.5 -50.5t-43.5 -124.5q0 -77 45 -126.5t111 -49.5zM1601 -21q-114 0 -208.5 51t-151 146t-56.5 216q0 84 30 159t83.5 130.5t132 88t170.5 32.5q114 0 209 -50.5t151.5 -145t56.5 -214.5q0 -113 -51.5 -207t-147.5 -150t-218 -56zM1603 213
q46 0 82 24t55 64t19 89q0 51 -21 91t-56.5 61.5t-78.5 21.5q-69 0 -112.5 -50.5t-43.5 -123.5q0 -78 45 -127.5t111 -49.5z" />
    <glyph glyph-name="ampersand" unicode="&#x26;" horiz-adv-x="1332" 
d="M918 0l-53 72h-3q-132 -93 -342 -93q-136 0 -247 57t-177 163t-66 241q0 264 254 425l-145 198q13 188 140 300.5t329 112.5q84 0 155.5 -19t122 -50t93 -76t69.5 -89.5t50 -98.5l-289 -104q-24 61 -64.5 98.5t-98.5 37.5q-31 0 -54.5 -11t-35.5 -28.5t-17.5 -33.5
t-5.5 -30l355 -491h3q22 67 22 136l327 8q0 -115 -30.5 -232t-95.5 -217v-7l195 -269h-391zM381 462q0 -77 50 -121.5t128 -44.5q65 0 122 26v1l-214 293q-86 -55 -86 -154z" />
    <glyph glyph-name="quotesingle" unicode="'" horiz-adv-x="498" 
d="M54 884l59 571h351l-149 -571h-261z" />
    <glyph glyph-name="parenleft" unicode="(" horiz-adv-x="646" 
d="M342 -338q-129 185 -196 426.5t-67 513.5t67 514.5t196 426.5l257 -114q-99 -181 -150.5 -393.5t-51.5 -433.5t51.5 -432t150.5 -394z" />
    <glyph glyph-name="parenright" unicode=")" horiz-adv-x="646" 
d="M330 -338l-257 114q99 183 150.5 394t51.5 432t-51.5 433.5t-150.5 393.5l257 114q129 -184 196 -426.5t67 -514.5t-67 -513.5t-196 -426.5z" />
    <glyph glyph-name="asterisk" unicode="*" horiz-adv-x="783" 
d="M288 768l10 182l-150 -96l-105 176l160 80l-160 83l105 179l150 -99l-10 182h205l-11 -182l153 95l105 -175l-162 -81l161 -82l-104 -179l-147 99l5 -182h-205z" />
    <glyph glyph-name="plus" unicode="+" horiz-adv-x="1167" 
d="M432 79v340h-339v298h339v342h302v-342h341v-298h-341v-340h-302z" />
    <glyph glyph-name="comma" unicode="," horiz-adv-x="509" 
d="M28 -276l59 570h351l-149 -570h-261z" />
    <glyph glyph-name="hyphen" unicode="-" horiz-adv-x="764" 
d="M66 471v325h632v-325h-632z" />
    <glyph glyph-name="period" unicode="." horiz-adv-x="547" 
d="M274 -21q-83 0 -141.5 57.5t-58.5 139.5q0 80 59 137.5t141 57.5t140.5 -57.5t58.5 -137.5q0 -82 -58.5 -139.5t-140.5 -57.5z" />
    <glyph glyph-name="slash" unicode="/" horiz-adv-x="913" 
d="M197 -227l-248 113l778 1750l245 -113z" />
    <glyph glyph-name="zero" unicode="0" horiz-adv-x="1265" 
d="M632 -21q-260 0 -414 194.5t-154 530.5q0 164 40.5 299t113.5 228.5t179 144.5t235 51q172 0 300.5 -87t199 -251t70.5 -385q0 -220 -70 -384.5t-199 -252.5t-301 -88zM632 335q81 0 128.5 90t47.5 279q0 54 -4.5 101t-13 88.5t-23 73.5t-34 55.5t-45 36t-56.5 12.5
q-80 0 -127.5 -90.5t-47.5 -276.5q0 -110 17 -190.5t57 -129.5t101 -49z" />
    <glyph glyph-name="one" unicode="1" horiz-adv-x="881" 
d="M371 0v949l-192 -145l-182 284l457 318h302v-1406h-385z" />
    <glyph glyph-name="two" unicode="2" horiz-adv-x="1064" 
d="M584 342h422v-342h-951l-4 245l400 430q43 45 71.5 80.5t49 70t29.5 67t9 66.5q0 52 -32 85.5t-82 33.5q-106 0 -189 -112l-270 196q33 56 78 102t105 83.5t139 58.5t170 21q93 0 176.5 -29.5t147.5 -82.5t102 -134t38 -178q0 -88 -17 -153t-67.5 -143t-145.5 -176
l-179 -185v-4z" />
    <glyph glyph-name="three" unicode="3" horiz-adv-x="1069" 
d="M801 725q103 -49 160 -134t57 -203q0 -124 -64 -217.5t-176 -142.5t-254 -49q-191 0 -332.5 94t-194.5 242l332 128q20 -68 60 -101.5t107 -33.5q53 0 90 33.5t37 97.5q0 59 -40.5 95.5t-115.5 36.5h-85v289h109q56 0 89 31.5t33 83.5q0 55 -33.5 87t-87.5 32
q-50 0 -81.5 -25.5t-52.5 -79.5l-304 162q42 121 166.5 198.5t281.5 77.5q98 0 183.5 -26t149.5 -73.5t100.5 -120.5t36.5 -163q0 -99 -45 -180.5t-126 -135.5v-3z" />
    <glyph glyph-name="four" unicode="4" horiz-adv-x="1140" 
d="M560 0v213h-546v217l622 976h289v-886h175v-307h-175v-213h-365zM386 491h215v343z" />
    <glyph glyph-name="five" unicode="5" horiz-adv-x="1070" 
d="M594 917q85 0 162 -33t134 -90.5t90.5 -143t33.5 -184.5q0 -142 -67 -253.5t-184.5 -172.5t-263.5 -61q-314 0 -505 209l270 220q90 -90 198 -90q71 0 120.5 45t49.5 109q0 28 -7.5 52t-21 41t-30 30t-35 21t-36 12t-33.5 4q-27 0 -51 -5.5t-53.5 -20.5t-64.5 -41
l-197 78l46 763h787v-340h-486l-11 -175q93 26 155 26z" />
    <glyph glyph-name="six" unicode="6" horiz-adv-x="1153" 
d="M683 911q53 0 104 -13t97 -38t85 -64.5t68 -88.5t45 -113t16 -137q0 -144 -67 -253t-185.5 -167t-270.5 -58q-151 0 -267 72t-180 204.5t-64 305.5q0 123 31 240t95 223t154.5 192t216 149t272.5 91l98 -289q-120 -34 -208 -77.5t-146.5 -97t-94.5 -121.5l6 -2
q93 42 195 42zM578 306q75 0 119 46.5t44 118.5q0 71 -44 115t-119 44q-26 0 -54 -10t-57 -29.5t-52 -46.5v-17q0 -101 47.5 -161t115.5 -60z" />
    <glyph glyph-name="seven" unicode="7" horiz-adv-x="949" 
d="M25 1406h881v-242l-423 -1200l-374 66l389 1039h-473v337z" />
    <glyph glyph-name="eight" unicode="8" horiz-adv-x="1135" 
d="M841 761q113 -41 182 -137t69 -234q0 -126 -70.5 -220.5t-189.5 -142.5t-267 -48q-109 0 -204.5 28.5t-166 80.5t-111 130t-40.5 172q0 138 69 234t181 138v2q-72 31 -121.5 110t-49.5 176q0 92 34.5 165t95.5 118.5t140.5 69.5t172.5 24q94 0 174 -24t141 -70
t95.5 -118.5t34.5 -164.5q0 -96 -48.5 -175t-120.5 -111v-3zM565 1138q-29 0 -53.5 -16t-39 -44t-14.5 -62q0 -50 30.5 -83t76.5 -33q18 0 35 5.5t30 16t23 25t15 32t5 37.5q0 52 -31 87t-77 35zM565 285q62 0 102.5 46t40.5 112q0 42 -18.5 76.5t-51 54t-73.5 19.5
q-61 0 -102 -43t-41 -107q0 -67 41.5 -112.5t101.5 -45.5z" />
    <glyph glyph-name="nine" unicode="9" horiz-adv-x="1157" 
d="M563 1427q160 0 280 -74t183 -206.5t63 -306.5q0 -123 -31.5 -240t-96 -223t-155.5 -192.5t-217 -149t-274 -90.5l-99 289q122 34 210.5 78.5t147.5 99t95 124.5q-100 -46 -205 -46q-64 0 -124 18.5t-112.5 56t-92 90.5t-62.5 127.5t-23 161.5q0 108 40 199t109 153
t163 96.5t201 34.5zM407 930q0 -71 43.5 -115t118.5 -44q26 0 55 10t57.5 29.5t51.5 46.5v17q0 101 -48.5 162t-116.5 61q-50 0 -87 -22.5t-55.5 -60t-18.5 -84.5z" />
    <glyph glyph-name="colon" unicode=":" horiz-adv-x="554" 
d="M281 630q-83 0 -141.5 57.5t-58.5 139.5q0 80 59 137.5t141 57.5t140.5 -57.5t58.5 -137.5q0 -82 -58.5 -139.5t-140.5 -57.5zM281 -21q-83 0 -141.5 57.5t-58.5 139.5q0 80 59 137.5t141 57.5t140.5 -57.5t58.5 -137.5q0 -82 -58.5 -139.5t-140.5 -57.5z" />
    <glyph glyph-name="semicolon" unicode=";" horiz-adv-x="525" 
d="M255 631q-83 0 -141.5 57.5t-58.5 139.5q0 80 59 137.5t141 57.5t140.5 -57.5t58.5 -137.5q0 -82 -58.5 -139.5t-140.5 -57.5zM28 -276l59 570h351l-149 -570h-261z" />
    <glyph glyph-name="less" unicode="&#x3c;" horiz-adv-x="1162" 
d="M1082 26l-975 403v246l975 413v-329l-537 -203l537 -209v-321z" />
    <glyph glyph-name="equal" unicode="=" horiz-adv-x="1184" 
d="M101 657v298h982v-298h-982zM101 181v298h982v-298h-982z" />
    <glyph glyph-name="greater" unicode="&#x3e;" horiz-adv-x="1162" 
d="M106 26v321l537 209l-537 203v329l975 -413v-246z" />
    <glyph glyph-name="question" unicode="?" horiz-adv-x="961" 
d="M242 512l-2 98q-1 27 3.5 52t16 50t20 42t29.5 42t30 35.5t35.5 37.5t32.5 34l8 8q28 29 43 45.5t35.5 43.5t29.5 50.5t9 47.5q0 48 -27 75t-81 27q-95 0 -178 -83l-246 224q71 83 196 135.5t256 52.5q97 0 179 -25t145.5 -73.5t99.5 -129t36 -183.5q0 -45 -11 -88
t-27 -76t-42 -67.5t-49 -58.5t-55 -53q-5 -4 -14 -12q-35 -32 -52 -48t-39.5 -40t-33 -44t-12.5 -41l-10 -78h-325zM412 -21q-83 0 -141.5 57.5t-58.5 139.5q0 52 27 97t73 71.5t100 26.5q82 0 140.5 -57.5t58.5 -137.5q0 -82 -58.5 -139.5t-140.5 -57.5z" />
    <glyph glyph-name="at" unicode="@" horiz-adv-x="1805" 
d="M1371 957l-57 -570q-3 -21 -3 -40q0 -38 13 -56t45 -18q38 0 71 24t54.5 61t36.5 81.5t21.5 84t6.5 70.5q0 96 -23 182t-70.5 159t-116 126t-164.5 83t-211 30q-109 0 -204.5 -23.5t-166.5 -63t-129 -94t-96.5 -115.5t-64.5 -128t-37.5 -130.5t-11.5 -124.5
q0 -133 45.5 -249.5t123 -198t185 -128.5t227.5 -47q206 0 406 122l99 -145q-113 -79 -242.5 -121.5t-262.5 -42.5q-164 0 -308 61t-247 168t-162.5 258.5t-59.5 324.5q0 77 15 157.5t48.5 165.5t83 162.5t123.5 147t164.5 120.5t211.5 80.5t260 29.5q144 0 268 -39
t215.5 -109t157 -165t98.5 -210t33 -242q0 -44 -5.5 -88.5t-20.5 -96.5t-38.5 -98t-62 -89.5t-87.5 -75t-119.5 -50.5t-153.5 -19q-119 0 -186 36q-56 29 -79 88h-3q-41 -50 -97 -76.5t-120 -26.5q-151 0 -239 106t-88 281q0 43 8.5 93t25.5 106.5t46.5 107.5t68.5 92.5
t96 66t123 24.5q65 0 113.5 -23.5t89.5 -73.5h2l11 78h340zM776 511q0 -57 30 -91t72 -34q51 0 96.5 48t45.5 128q0 58 -29 92.5t-70 34.5q-51 0 -98 -50.5t-47 -127.5z" />
    <glyph glyph-name="A" unicode="A" horiz-adv-x="1420" 
d="M1017 0l-73 235h-467l-73 -235h-408l528 1455h372l528 -1455h-407zM578 562h264l-130 418h-4z" />
    <glyph glyph-name="B" unicode="B" horiz-adv-x="1283" 
d="M938 777q83 -22 142 -58t92.5 -85t49 -104t15.5 -121q0 -89 -29 -163t-85 -129t-144.5 -86t-201.5 -31h-669v1455h571q123 0 215.5 -25t151 -71.5t87 -111.5t28.5 -148q0 -48 -10.5 -90.5t-34.5 -86t-69.5 -80t-108.5 -61.5v-4zM485 1116v-235h127q72 0 115 31t43 85
q0 35 -17 61t-54 42t-90 16h-124zM657 334q81 0 129 34t48 98q0 59 -44.5 94.5t-134.5 35.5h-170v-262h172z" />
    <glyph glyph-name="C" unicode="C" horiz-adv-x="1446" 
d="M821 -21q-102 0 -197 22t-179.5 63.5t-155 105.5t-121 145t-78.5 185.5t-28 223.5q0 104 23 200t66 179.5t109 152t148.5 117.5t188 76t224.5 27q159 0 317.5 -70t275.5 -211l-285 -244q-25 28 -55.5 52.5t-69.5 47.5t-86.5 36.5t-96.5 13.5q-54 0 -105 -15t-95.5 -46.5
t-77.5 -76t-52 -106t-19 -133.5q0 -74 24 -141t68 -118t110.5 -81t146.5 -30q85 0 169.5 41t138.5 107l285 -245q-101 -124 -255 -201t-338 -77z" />
    <glyph glyph-name="D" unicode="D" horiz-adv-x="1448" 
d="M108 0v1455h524q170 0 311.5 -54t239 -149.5t151 -231t53.5 -295.5t-51 -293.5t-146 -229.5t-236.5 -149t-315.5 -53h-530zM486 346h127q108 0 192 51t129 137t45 191q0 80 -26.5 151t-71.5 122t-108 80.5t-133 29.5h-154v-762z" />
    <glyph glyph-name="E" unicode="E" horiz-adv-x="1176" 
d="M106 0v1455h967v-347h-590v-219h462v-338h-462v-205h633v-346h-1010z" />
    <glyph glyph-name="F" unicode="F" horiz-adv-x="1155" 
d="M108 0v1455h1000v-347h-622v-274h509v-345h-509v-489h-378z" />
    <glyph glyph-name="G" unicode="G" horiz-adv-x="1486" 
d="M821 -18q-127 0 -240.5 31t-208.5 93t-164 149.5t-107.5 207.5t-38.5 261q0 126 31.5 239.5t94 207t151 161.5t208 106t258.5 38q108 0 217 -30t210 -91.5t173 -147.5l-276 -233q-142 136 -325 136q-53 0 -102.5 -16t-92 -48.5t-74 -78t-49.5 -108t-18 -135.5
q0 -78 24 -147.5t67.5 -123t111.5 -84.5t150 -31q114 0 218 48v134h-248v314h613v-677q-101 -76 -260 -125.5t-323 -49.5z" />
    <glyph glyph-name="H" unicode="H" horiz-adv-x="1444" 
d="M108 0v1455h394v-580h439v580h394v-1455h-394v530h-439v-530h-394z" />
    <glyph glyph-name="I" unicode="I" horiz-adv-x="629" 
d="M117 0v1455h395v-1455h-395z" />
    <glyph glyph-name="J" unicode="J" horiz-adv-x="1013" 
d="M434 -21q-123 0 -237 52t-190 151l228 259q73 -99 163 -99q53 0 90 42.5t37 132.5v938h388v-910q0 -566 -479 -566z" />
    <glyph glyph-name="K" unicode="K" horiz-adv-x="1354" 
d="M579 523h-1l-83 -101v-422h-387v1455h387v-490h4l354 490h492l-512 -622l533 -833h-478z" />
    <glyph glyph-name="L" unicode="L" horiz-adv-x="1112" 
d="M108 0v1455h392v-1109h578v-346h-970z" />
    <glyph glyph-name="M" unicode="M" horiz-adv-x="1734" 
d="M1231 1455h395v-1455h-385v717h-6l-244 -454h-248l-245 456h-5v-719h-385v1455h394l362 -719h8z" />
    <glyph glyph-name="N" unicode="N" horiz-adv-x="1489" 
d="M991 1455h390v-1455h-404l-477 796h-5v-796h-387v1455h392l486 -820h5v820z" />
    <glyph glyph-name="O" unicode="O" horiz-adv-x="1633" 
d="M818 -21q-166 0 -307 55t-240 153t-154.5 237t-55.5 303t55.5 303.5t154.5 237.5t240 153t307 55q164 0 304 -54.5t239 -152t155 -237.5t56 -305t-56 -304.5t-155 -237t-239 -152t-304 -54.5zM817 342q101 0 181.5 51.5t124 139t43.5 194.5t-43.5 194.5t-124 139
t-181.5 51.5t-181 -51t-124.5 -139t-44.5 -195t44.5 -194.5t125 -139t180.5 -51.5z" />
    <glyph glyph-name="P" unicode="P" horiz-adv-x="1237" 
d="M108 0v1455h566q107 0 194.5 -25t149.5 -71t104 -110.5t61.5 -142t19.5 -168.5q0 -161 -69 -273.5t-192 -166.5t-292 -54h-164v-444h-378zM486 781h101q96 0 153.5 43t57.5 123q0 71 -54.5 118.5t-155.5 47.5h-102v-332z" />
    <glyph glyph-name="Q" unicode="Q" horiz-adv-x="1647" 
d="M1611 193l-186 -244l-168 153q-187 -123 -438 -123q-166 0 -307 55t-240 153t-154.5 237t-55.5 303t55.5 303.5t154.5 237.5t240 153t307 55q164 0 304 -54.5t239 -152t155 -237.5t56 -305q0 -229 -106 -407zM819 342q75 0 141 30l-97 88l184 229l103 -90q18 60 18 128
q0 80 -25.5 150.5t-71 122.5t-111 82t-141.5 30q-101 0 -181 -51t-124.5 -139t-44.5 -195t44.5 -194.5t125 -139t180.5 -51.5z" />
    <glyph glyph-name="R" unicode="R" horiz-adv-x="1318" 
d="M1303 0h-453l-274 444h-90v-444h-378v1455h583q134 0 236.5 -38.5t166 -108.5t95.5 -163t32 -207q0 -79 -16.5 -146.5t-48.5 -121.5t-77 -95t-104 -69l-1 -3zM486 1113v-332h118q96 0 154.5 43t58.5 123q0 71 -55.5 118.5t-157.5 47.5h-118z" />
    <glyph glyph-name="S" unicode="S" horiz-adv-x="1144" 
d="M555 -21q-146 0 -285 58.5t-253 174.5l220 271q81 -82 169.5 -121.5t162.5 -39.5q63 0 94 27.5t31 66.5q0 45 -35.5 73.5t-148.5 66.5q-53 18 -94.5 34.5t-89 41t-83.5 50.5t-70.5 63t-56 78.5t-35 95.5t-13.5 116q0 122 62.5 221.5t173.5 157.5t249 61
q145 3 276.5 -48.5t238.5 -145.5l-216 -278q-92 71 -156.5 101t-120.5 30q-50 0 -76 -23t-26 -63t37 -72.5t142 -72.5q184 -71 244 -103q132 -71 177 -176q30 -69 30 -163q0 -76 -17.5 -141t-48 -113.5t-73.5 -87.5t-91 -65t-103 -43t-108 -24.5t-107 -7.5z" />
    <glyph glyph-name="T" unicode="T" horiz-adv-x="1197" 
d="M406 0v1108h-370v347h1125v-347h-368v-1108h-387z" />
    <glyph glyph-name="U" unicode="U" horiz-adv-x="1416" 
d="M705 -21q-138 0 -250 41.5t-192.5 120.5t-124.5 199t-44 271v844h394v-822q0 -80 22.5 -144.5t73 -106t121.5 -41.5q64 0 114.5 33.5t80 100.5t29.5 158v822h392v-844q0 -191 -70 -332.5t-210 -220.5t-336 -79z" />
    <glyph glyph-name="V" unicode="V" horiz-adv-x="1405" 
d="M985 1455h419l-529 -1455h-342l-532 1455h423l276 -900h5z" />
    <glyph glyph-name="W" unicode="W" horiz-adv-x="2089" 
d="M1658 1455h416l-452 -1455h-354l-216 885h-4l-227 -885h-354l-452 1455h415l212 -811h5l194 811h410l191 -811h5z" />
    <glyph glyph-name="X" unicode="X" horiz-adv-x="1458" 
d="M990 0l-258 435h-5l-260 -435h-453l456 733l-436 722h445l248 -422h5l248 422h444l-436 -722l456 -733h-454z" />
    <glyph glyph-name="Y" unicode="Y" horiz-adv-x="1312" 
d="M874 1455h451l-472 -827v-628h-397v628l-469 827h447l222 -445h2z" />
    <glyph glyph-name="Z" unicode="Z" horiz-adv-x="1243" 
d="M1176 1161l-610 -811v-4h609v-346h-1107v303l589 801v4h-572v347h1091v-294z" />
    <glyph glyph-name="bracketleft" unicode="[" horiz-adv-x="744" 
d="M118 -309v1818h561v-260h-259v-1297h259v-261h-561z" />
    <glyph glyph-name="backslash" unicode="\" horiz-adv-x="913" 
d="M742 -227l-775 1750l245 113l778 -1750z" />
    <glyph glyph-name="bracketright" unicode="]" horiz-adv-x="744" 
d="M652 -309h-561v261h259v1297h-259v260h561v-1818z" />
    <glyph glyph-name="asciicircum" unicode="^" horiz-adv-x="920" 
d="M70 1023l273 432h232l275 -432h-268l-122 225l-133 -225h-257z" />
    <glyph glyph-name="underscore" unicode="_" horiz-adv-x="1077" 
d="M-18 -294v239h1113v-239h-1113z" />
    <glyph glyph-name="grave" unicode="`" horiz-adv-x="998" 
d="M420 1085l-252 313l357 -2l222 -311h-327z" />
    <glyph glyph-name="a" unicode="a" horiz-adv-x="1204" 
d="M751 1003h367v-1003h-347v94h-3q-90 -115 -258 -115q-102 0 -188.5 38.5t-147.5 106.5t-95.5 165.5t-34.5 212.5q0 113 34 211t93.5 166t141.5 106.5t175 38.5q156 0 260 -120h3v99zM591 299q75 0 125.5 56t50.5 146q0 88 -50.5 144.5t-125.5 56.5q-78 0 -128 -56
t-50 -145q0 -91 50 -146.5t128 -55.5z" />
    <glyph glyph-name="b" unicode="b" horiz-adv-x="1220" 
d="M729 1024q75 0 142.5 -24.5t122 -71t95 -109.5t62.5 -144.5t22 -172.5q0 -153 -59 -272.5t-165 -185t-242 -65.5q-173 0 -266 115h-4v-94h-347v1508h367v-605h3q107 121 269 121zM626 299q78 0 128 55.5t50 146.5q0 89 -50 145t-128 56q-53 0 -95 -25t-66 -71t-24 -105
q0 -91 52 -146.5t133 -55.5z" />
    <glyph glyph-name="c" unicode="c" horiz-adv-x="1059" 
d="M573 -21q-149 0 -269 65.5t-188.5 185t-68.5 271.5q0 153 69.5 272t195 185t285.5 66q129 0 246.5 -53.5t191.5 -153.5l-243 -207q-76 90 -186 90q-86 0 -138.5 -55t-52.5 -141q0 -88 54.5 -144t140.5 -56q110 0 181 82l249 -217q-69 -85 -189.5 -137.5t-277.5 -52.5z
" />
    <glyph glyph-name="d" unicode="d" horiz-adv-x="1218" 
d="M761 1508h367v-1508h-347v94h-4q-93 -115 -266 -115q-102 0 -188.5 38.5t-147.5 106.5t-95.5 165.5t-34.5 212.5q0 113 34 211t93.5 166t141.5 106.5t175 38.5q162 0 269 -121h3v605zM592 299q81 0 133 55.5t52 146.5q0 89 -52 145t-133 56q-78 0 -128 -56t-50 -145
q0 -91 50 -146.5t128 -55.5z" />
    <glyph glyph-name="e" unicode="e" horiz-adv-x="1116" 
d="M1072 509q0 -57 -10 -97h-658q12 -70 68.5 -107t139.5 -37q125 0 231 111l189 -208q-68 -85 -187.5 -138.5t-271.5 -53.5q-149 0 -269 65.5t-188.5 185.5t-68.5 272q0 150 66.5 269t185.5 186t268 67q107 0 201 -38.5t160.5 -105.5t105 -163.5t38.5 -207.5zM565 745
q-61 0 -104.5 -35.5t-55.5 -98.5h312q-7 31 -20.5 56t-32.5 42.5t-44.5 26.5t-54.5 9z" />
    <glyph glyph-name="f" unicode="f" horiz-adv-x="715" 
d="M125 0v713h-91v290h91v143q0 189 93 286t251 97q94 0 171.5 -28.5t107.5 -53.5l-63 -248q-22 12 -54 19.5t-52 7.5q-41 0 -64 -18.5t-23 -66.5v-138h164v-290h-164v-713h-367z" />
    <glyph glyph-name="g" unicode="g" horiz-adv-x="1204" 
d="M752 1003h366v-857q0 -105 -17 -189.5t-57 -157t-103 -121.5t-158.5 -76.5t-219.5 -27.5q-129 0 -225 21t-191 71l81 288q54 -34 136.5 -57.5t152.5 -23.5q116 0 180 46t64 116v91h-3q-96 -105 -265 -105q-130 0 -233 64.5t-159.5 176t-56.5 249.5q0 110 33.5 206
t90.5 163t136.5 105.5t169.5 38.5q169 0 275 -119h3v98zM591 343q76 0 126.5 49.5t50.5 128.5q0 78 -51 128.5t-126 50.5t-126.5 -50.5t-51.5 -128.5q0 -79 51 -128.5t127 -49.5z" />
    <glyph glyph-name="h" unicode="h" horiz-adv-x="1190" 
d="M753 1024q53 0 97.5 -8.5t85.5 -27.5t72 -51t54 -77.5t35 -109t12 -143.5v-607h-366v519q0 71 -14.5 110.5t-44.5 55t-82 15.5q-68 0 -107 -48.5t-39 -147.5v-504h-366v1508h366v-616h3q38 44 85 73.5t99.5 44t109.5 14.5z" />
    <glyph glyph-name="i" unicode="i" horiz-adv-x="564" 
d="M282 1117q-92 0 -151 56.5t-59 141.5q0 54 26.5 98.5t75 70.5t108.5 26q92 0 151 -55.5t59 -139.5q0 -86 -59 -142t-151 -56zM99 0v1003h365v-1003h-365z" />
    <glyph glyph-name="j" unicode="j" horiz-adv-x="547" 
d="M276 1117q-92 0 -151 56.5t-59 141.5q0 54 26.5 98.5t75 70.5t108.5 26q92 0 151 -55.5t59 -139.5q0 -86 -59 -142t-151 -56zM123 -425q-62 0 -117 7.5t-75 13t-54 16.5l60 282q43 -15 84 -15q45 0 57.5 27.5t12.5 92.5v1004h365v-1044q0 -129 -37 -214.5t-110.5 -127.5
t-185.5 -42z" />
    <glyph glyph-name="k" unicode="k" horiz-adv-x="1106" 
d="M536 341h-4l-76 -87v-254h-366v1508h366v-776h3l232 271h420l-336 -384l347 -619h-403z" />
    <glyph glyph-name="l" unicode="l" horiz-adv-x="564" 
d="M99 0v1508h365v-1508h-365z" />
    <glyph glyph-name="m" unicode="m" horiz-adv-x="1783" 
d="M1343 1024q358 0 358 -437v-587h-365v504q0 24 -1.5 45t-5.5 41t-10 36.5t-15.5 30.5t-22 23t-29.5 14.5t-37 5.5q-59 0 -96 -49.5t-37 -146.5v-504h-366v504q0 43 -5.5 76.5t-18.5 61.5t-37.5 43t-59.5 15q-63 0 -101 -49t-38 -147v-504h-366v1003h366v-114h2
q52 67 121.5 101t147.5 34q200 0 288 -142h3q118 142 325 142z" />
    <glyph glyph-name="n" unicode="n" horiz-adv-x="1180" 
d="M743 1024q53 0 97.5 -8.5t85.5 -27.5t72 -51t54 -77.5t35 -109t12 -143.5v-607h-366v519q0 70 -14.5 110t-42 55.5t-74.5 15.5q-68 0 -107 -48.5t-39 -147.5v-504h-366v1003h366v-110h2q55 64 129 97.5t156 33.5z" />
    <glyph glyph-name="o" unicode="o" horiz-adv-x="1194" 
d="M597 -21q-160 0 -285.5 65.5t-195 184.5t-69.5 272t69.5 272t195 185t285.5 66t285 -66t195 -185t70 -272t-70 -272t-195 -184.5t-285 -65.5zM597 302q78 0 130 56.5t52 142.5q0 88 -51 143.5t-131 55.5q-39 0 -73 -15t-58 -41t-37.5 -63t-13.5 -80q0 -34 9 -65t25.5 -55
t39 -42t50 -27.5t58.5 -9.5z" />
    <glyph glyph-name="p" unicode="p" horiz-adv-x="1220" 
d="M729 1024q62 0 120 -17.5t107 -49.5t89 -78.5t68.5 -104t44 -127t15.5 -145.5q0 -153 -59 -272.5t-165 -185t-242 -65.5q-154 0 -249 108h-3v-492h-365v1408h367v-101h3q105 122 269 122zM626 299q78 0 128 55.5t50 146.5q0 89 -50 145t-128 56q-81 0 -133 -56t-52 -145
q0 -91 52 -146.5t133 -55.5z" />
    <glyph glyph-name="q" unicode="q" horiz-adv-x="1225" 
d="M763 1003h367v-1408h-365v492h-3q-95 -108 -249 -108q-136 0 -242 65.5t-165 185t-59 272.5q0 113 34 211t93.5 166t141.5 106.5t175 38.5q164 0 269 -122h3v101zM594 299q81 0 133 55.5t52 146.5q0 59 -24 105t-66 71t-95 25q-78 0 -128 -56t-50 -145q0 -91 50 -146.5
t128 -55.5z" />
    <glyph glyph-name="r" unicode="r" horiz-adv-x="763" 
d="M739 1024h2v-391q-30 2 -77 2q-102 0 -155 -53.5t-53 -143.5v-438h-366v1003h366v-137h3q53 77 125.5 117.5t154.5 40.5z" />
    <glyph glyph-name="s" unicode="s" horiz-adv-x="891" 
d="M426 -21q-241 0 -410 150l166 226q131 -114 251 -114q74 0 74 41q0 14 -8 23.5t-38.5 23.5t-90.5 31q-54 16 -98.5 34.5t-86.5 46.5t-70.5 62t-45.5 81t-17 103q0 80 30.5 145t83.5 106.5t122.5 63.5t148.5 22q80 0 148.5 -15t125 -41.5t118.5 -70.5l-169 -243
q-48 48 -105 75.5t-106 27.5q-26 0 -44.5 -10.5t-18.5 -30.5q0 -16 26 -31.5t98 -38.5q74 -24 123.5 -44.5t93.5 -48.5t69 -61t39 -78t14 -103q0 -74 -26.5 -134.5t-78 -105t-133 -68.5t-185.5 -24z" />
    <glyph glyph-name="t" unicode="t" horiz-adv-x="774" 
d="M431 -21q-65 0 -119.5 20.5t-95 61t-63.5 105.5t-23 149v398h-109v290h109v315l365 38v-353h218v-290h-218v-319q0 -21 2 -36.5t8 -31.5t20.5 -25t35.5 -9q39 0 74 16l89 -255q-65 -37 -129 -55.5t-164 -18.5z" />
    <glyph glyph-name="u" unicode="u" horiz-adv-x="1160" 
d="M708 1003h367v-1003h-367v107h-4q-51 -63 -121.5 -95.5t-151.5 -32.5q-355 0 -355 437v587h365v-499q0 -107 30.5 -154.5t100.5 -47.5q61 0 98.5 49.5t37.5 147.5v504z" />
    <glyph glyph-name="v" unicode="v" horiz-adv-x="1112" 
d="M722 1003h382l-383 -1003h-329l-384 1003h379l168 -569h4z" />
    <glyph glyph-name="w" unicode="w" horiz-adv-x="1562" 
d="M1192 1003h360l-337 -1003h-284l-149 565h-2l-143 -565h-290l-337 1003h361l141 -481h2l127 481h278l129 -481h2z" />
    <glyph glyph-name="x" unicode="x" horiz-adv-x="1073" 
d="M678 0l-139 216h-5l-142 -216h-387l329 519l-323 484h406l117 -213h4l118 213h405l-325 -485l332 -518h-390z" />
    <glyph glyph-name="y" unicode="y" horiz-adv-x="1100" 
d="M719 1003h373l-515 -1408h-355l170 479l-384 929h377l170 -475h4z" />
    <glyph glyph-name="z" unicode="z" horiz-adv-x="967" 
d="M926 766l-409 -478v-3h388v-285h-856v239l398 477v4h-358v283h837v-237z" />
    <glyph glyph-name="braceleft" unicode="{" horiz-adv-x="721" 
d="M526 836q0 -95 -26 -150t-79 -82v-2q25 -12 37.5 -20t28.5 -24.5t22.5 -39t11.5 -60t5 -91.5v-313q0 -26 1.5 -43t8 -35t17.5 -28.5t31 -17.5t48 -7h40v-228h-184q-71 0 -129 35t-93 101.5t-35 150.5v328q0 24 -0.5 37.5t-4 33.5t-10 31t-19.5 24t-31.5 20t-46.5 12
t-65 5v258q36 0 64.5 6t47 14t31.5 22t19.5 26t10 31t4 30.5t0.5 31.5v329q0 122 72 205t185 83h184v-228h-40q-23 0 -41.5 -7t-29.5 -19t-18.5 -25t-11 -28.5t-4.5 -26.5t-1 -22v-317z" />
    <glyph glyph-name="bar" unicode="|" horiz-adv-x="644" 
d="M182 -235v1744h280v-1744h-280z" />
    <glyph glyph-name="braceright" unicode="}" horiz-adv-x="721" 
d="M516 892q0 -15 0.5 -24t2 -24t4.5 -24.5t9 -22.5t15 -21.5t22.5 -17.5t30.5 -14.5t40.5 -9t52.5 -3.5v-258q-37 0 -65 -5t-46.5 -12t-31.5 -20t-19.5 -24t-10 -31t-4 -33.5t-0.5 -37.5v-328q0 -127 -74.5 -207t-182.5 -80h-184v228h40q35 0 57 9t32.5 29t13.5 40t3 53
v313q0 54 5 91.5t11.5 60t22.5 39t28.5 24.5t37.5 20v2q-53 27 -79 82t-26 150v317q0 11 -1 22t-4.5 26.5t-11 28.5t-18.5 25t-29.5 19t-41.5 7h-40v228h184q113 0 185 -83t72 -205v-329z" />
    <glyph glyph-name="asciitilde" unicode="~" horiz-adv-x="1152" 
d="M313 370l-237 96q42 131 124 213.5t193 82.5q17 0 33 -1t31 -3t26.5 -4t25 -6t21.5 -6.5t21.5 -7.5t17.5 -7l18 -8q14 -6 17 -7q51 -25 108 -25q73 0 130 83l234 -80q-19 -65 -48.5 -120t-68 -99t-88.5 -69t-106 -25q-42 0 -83 7.5t-64 15.5t-58 22q-31 12 -43 17
t-35 10.5t-43 5.5q-73 0 -126 -85z" />
    <glyph glyph-name="exclamdown" unicode="&#xa1;" horiz-adv-x="612" 
d="M307 1023q82 0 140.5 -57.5t58.5 -139.5q0 -80 -58.5 -137.5t-140.5 -57.5t-141 57.5t-59 137.5q0 82 58.5 139.5t141.5 57.5zM176 478h257l61 -984h-379z" />
    <glyph glyph-name="cent" unicode="&#xa2;" horiz-adv-x="1070" 
d="M1045 279q-52 -62 -131.5 -108.5t-182.5 -67.5v-179h-278v177q-180 38 -291 176t-111 334q0 194 109.5 330t292.5 178v163h278v-161q93 -21 173 -69.5t136 -122.5l-243 -208q-77 90 -186 90q-57 0 -100.5 -24.5t-67 -69t-23.5 -102.5q0 -88 54.5 -144.5t140.5 -56.5
q108 0 180 83z" />
    <glyph glyph-name="sterling" unicode="&#xa3;" horiz-adv-x="1146" 
d="M73 0v343h111v251h-98v258h98v60q0 93 16.5 170t47.5 132.5t72 97t92.5 66.5t106.5 37t117 12q120 0 237.5 -52.5t195.5 -146.5l-187 -233q-44 45 -96.5 71.5t-94.5 26.5q-23 0 -41.5 -7t-37 -25.5t-29 -58.5t-10.5 -98v-52h273v-258h-269v-251h526v-343h-1030z" />
    <glyph glyph-name="currency" unicode="&#xa4;" horiz-adv-x="1040" 
d="M896 796q0 -93 -42 -172l168 -169l-160 -162l-169 171q-81 -42 -173 -42q-91 0 -172 42l-169 -169l-161 160l170 171q-41 77 -41 170q0 90 41 170l-170 172l161 160l170 -168q79 42 171 42q93 0 174 -42l168 170l160 -162l-168 -170q42 -79 42 -172zM521 669
q21 1 40.5 7.5t35.5 19t28.5 28.5t19 36t7.5 41q-1 54 -39.5 92t-91.5 39q-54 -1 -92.5 -39.5t-39.5 -91.5q1 -54 39.5 -92t92.5 -40z" />
    <glyph glyph-name="yen" unicode="&#xa5;" horiz-adv-x="1269" 
d="M1278 1406l-291 -542h105v-131h-175l-57 -106h232v-131h-259v-496h-399v496h-279v131h252l-56 106h-196v131h126l-290 542h452l190 -447h4l185 447h456z" />
    <glyph glyph-name="brokenbar" unicode="&#xa6;" horiz-adv-x="644" 
d="M182 787v722h280v-722h-280zM182 -234v719h280v-719h-280z" />
    <glyph glyph-name="section" unicode="&#xa7;" horiz-adv-x="1098" 
d="M897 306q48 -44 72 -102t24 -140q0 -118 -56.5 -204.5t-155.5 -130.5t-229 -44q-278 0 -482 205l201 242q71 -68 144.5 -101t133.5 -33q32 0 50.5 17t18.5 42q0 20 -7 32t-35.5 29.5t-86.5 39.5t-98 39t-87 40t-78.5 44.5t-62.5 49.5t-49.5 57.5t-29.5 66.5t-11 79
q0 182 135 272q-94 89 -94 232q0 80 29.5 148.5t84 118.5t135.5 78.5t179 28.5q116 0 240.5 -49t214.5 -127l-195 -242q-142 97 -241 97q-75 0 -75 -47q0 -15 6.5 -24.5t32 -25t77.5 -37.5q202 -88 256 -117q113 -63 151 -143q27 -57 27 -139q0 -75 -36 -140t-103 -112z
M416 601q0 -17 4.5 -29.5t20.5 -29t52 -35.5t94 -42q8 -3 24 -9.5t24 -9.5q20 6 33.5 18t17.5 23.5t4 23.5q0 11 -1 17.5t-6.5 17t-17 20t-31.5 22.5t-52.5 27.5t-77.5 32.5q-5 2 -10.5 4t-11.5 5t-10 4q-32 -7 -44 -25t-12 -35z" />
    <glyph glyph-name="dieresis" unicode="&#xa8;" horiz-adv-x="1108" 
d="M312 1061q-92 0 -151 56.5t-59 141.5q0 83 59.5 139t150.5 56q92 0 151 -55.5t59 -139.5q0 -56 -26.5 -101.5t-74.5 -71t-109 -25.5zM795 1061q-92 0 -151 56.5t-59 141.5q0 83 59.5 139t150.5 56q92 0 151 -55.5t59 -139.5q0 -56 -26.5 -101.5t-74.5 -71t-109 -25.5z
" />
    <glyph glyph-name="copyright" unicode="&#xa9;" horiz-adv-x="1474" 
d="M734 -19q-137 0 -261 53.5t-212 144t-139.5 214t-51.5 258.5t52 258t140.5 213.5t213 144.5t262.5 54t261.5 -53.5t212 -144t140 -214t51.5 -258.5q0 -134 -52 -257t-140.5 -214t-213.5 -145t-263 -54zM734 195q126 0 230 61.5t163 166t59 228.5t-58.5 228.5t-162 165.5
t-228.5 61q-76 0 -146 -23t-125 -65.5t-96 -99t-63 -126t-22 -144.5q0 -124 58.5 -228t161.5 -164.5t229 -60.5zM755 314q-70 0 -131 21.5t-109 62t-75.5 105t-27.5 144.5q0 69 22.5 130t65 106.5t108.5 72t147 26.5q47 0 92.5 -12.5t92 -41.5t82.5 -73l-137 -118
q-23 25 -57.5 44.5t-72.5 19.5q-59 0 -101 -40.5t-42 -113.5q0 -63 38.5 -108t104.5 -45q23 0 47.5 8t46 22.5t36.5 32.5l137 -120q-46 -55 -114.5 -89t-152.5 -34z" />
    <glyph glyph-name="ordfeminine" unicode="&#xaa;" horiz-adv-x="767" 
d="M469 1406h246v-605h-246v51h-3q-54 -66 -160 -66q-124 0 -199 88.5t-75 230.5q0 141 73 227.5t185 86.5q111 0 176 -86h3v73zM287 1104q0 -41 25.5 -64.5t63.5 -23.5q37 0 62 24.5t25 63.5q0 40 -25.5 63.5t-61.5 23.5q-38 0 -63.5 -24.5t-25.5 -62.5z" />
    <glyph glyph-name="guillemotleft" unicode="&#xab;" horiz-adv-x="1114" 
d="M637 108h-337l-226 399l230 407h335l-235 -407zM1134 108h-337l-226 399l230 407h335l-235 -407z" />
    <glyph glyph-name="logicalnot" unicode="&#xac;" horiz-adv-x="1097" 
d="M719 270v339h-643v297h945v-636h-302z" />
    <glyph glyph-name="registered" unicode="&#xae;" horiz-adv-x="1487" 
d="M745 1332q139 0 264 -54.5t214 -146t141 -216t52 -260.5q0 -135 -52.5 -259.5t-142 -216t-215 -146t-265.5 -54.5q-139 0 -263.5 54t-213.5 145t-141.5 216t-52.5 261q0 135 52.5 259.5t142 216.5t215 146.5t265.5 54.5zM741 193q128 0 233.5 62.5t164.5 168t59 231.5
q0 95 -35 180t-95 146.5t-144.5 98t-179.5 36.5q-129 0 -234.5 -62.5t-164.5 -169t-59 -232.5t59 -231.5t164 -166.5t232 -61zM1010 751q0 -143 -111 -198l144 -225h-215l-117 195h-32v-195h-184v663h270q122 0 183.5 -65.5t61.5 -174.5zM679 824v-137h44q40 0 65 17t25 51
q0 29 -24 49t-68 20h-42z" />
    <glyph glyph-name="macron" unicode="&#xaf;" horiz-adv-x="893" 
d="M119 1128v270h656v-270h-656z" />
    <glyph glyph-name="degree" unicode="&#xb0;" horiz-adv-x="746" 
d="M372 895q-121 0 -208 85t-87 205q0 78 41 145.5t109.5 106.5t144.5 39q58 0 112.5 -23.5t95 -62.5t65 -94t24.5 -114q0 -118 -87.5 -202.5t-209.5 -84.5zM372 1087q42 0 68.5 28t26.5 70q0 41 -27.5 70t-67.5 29t-67.5 -29.5t-27.5 -71.5q0 -40 27 -68t68 -28z" />
    <glyph glyph-name="plusminus" unicode="&#xb1;" horiz-adv-x="1186" 
d="M440 395v340h-339v298h339v342h302v-342h341v-298h-341v-340h-302zM103 0v298h982v-298h-982z" />
    <glyph glyph-name="uni00B2" unicode="&#xb2;" horiz-adv-x="661" 
d="M392 1125h241v-234h-608l-3 171l241 250q57 59 78 90t21 60q0 16 -7.5 26.5t-20 15.5t-28.5 5q-57 0 -104 -52l-191 134q45 69 127 114.5t191 45.5q59 0 112.5 -18t94.5 -50.5t65.5 -81.5t24.5 -108q0 -41 -4.5 -69.5t-18.5 -63t-43.5 -70.5t-77.5 -79l-90 -82v-4z" />
    <glyph glyph-name="uni00B3" unicode="&#xb3;" horiz-adv-x="678" 
d="M525 1325q127 -61 127 -199q0 -116 -87.5 -184t-228.5 -68q-122 0 -213 61t-124 154l234 91q9 -39 30.5 -60t53.5 -21q19 0 34.5 8.5t23.5 22t8 30.5q0 31 -22.5 47.5t-63.5 16.5h-49v187h64q29 0 47.5 15t18.5 39q0 25 -16.5 42t-42.5 17q-51 0 -69 -64l-214 114
q26 76 105.5 126.5t179.5 50.5q85 0 152.5 -27t108 -81t40.5 -128q0 -120 -97 -188v-2z" />
    <glyph glyph-name="acute" unicode="&#xb4;" horiz-adv-x="999" 
d="M250 1085l224 311l357 2l-253 -313h-328z" />
    <glyph glyph-name="uni00B5" unicode="&#xb5;" horiz-adv-x="1176" 
d="M723 1003h366v-1003h-338l-21 103h-3q-91 -124 -225 -124q-45 0 -77 12l-9 -6q40 -130 40 -254v-136h-366v1408h366v-499q0 -107 30.5 -154.5t100.5 -47.5q61 0 98.5 49.5t37.5 147.5v504z" />
    <glyph glyph-name="paragraph" unicode="&#xb6;" horiz-adv-x="1076" 
d="M608 0v519q-142 12 -247.5 65.5t-166 149.5t-60.5 226q0 201 141 323.5t388 122.5h305v-1406h-360z" />
    <glyph glyph-name="periodcentered" unicode="&#xb7;" horiz-adv-x="569" 
d="M304 296q-54 0 -100 26.5t-73 71.5t-27 99q0 80 59 137.5t141 57.5t140.5 -57.5t58.5 -137.5q0 -82 -58.5 -139.5t-140.5 -57.5z" />
    <glyph glyph-name="cedilla" unicode="&#xb8;" horiz-adv-x="723" 
d="M375 -61q87 -3 137.5 -46t50.5 -121q0 -79 -65.5 -124t-201.5 -45q-74 0 -136 12v139q46 -14 111 -14q81 0 81 51q0 58 -157 58v79l47 84h175l-43 -71z" />
    <glyph glyph-name="uni00B9" unicode="&#xb9;" horiz-adv-x="574" 
d="M232 891v525l-105 -75l-127 198l292 196h198v-844h-258z" />
    <glyph glyph-name="ordmasculine" unicode="&#xba;" horiz-adv-x="766" 
d="M372 787q-150 0 -245 87t-95 229t95 229t245 87q152 0 247 -88t95 -228t-95 -228t-247 -88zM372 1014q38 0 63.5 25.5t25.5 63.5q0 40 -24.5 65t-64.5 25q-38 0 -62.5 -24.5t-24.5 -65.5q0 -40 25 -64.5t62 -24.5z" />
    <glyph glyph-name="guillemotright" unicode="&#xbb;" horiz-adv-x="1114" 
d="M6 108l233 399l-235 407h335l230 -407l-226 -399h-337zM503 108l233 399l-235 407h335l230 -407l-226 -399h-337z" />
    <glyph glyph-name="onequarter" unicode="&#xbc;" horiz-adv-x="1647" 
d="M632 -58l-249 108l650 1440l249 -108zM232 611v525l-105 -75l-127 198l292 196h198v-844h-258zM1270 0v121h-312v152l368 570h203v-504h103v-218h-103v-121h-259zM1166 322h127v200z" />
    <glyph glyph-name="onehalf" unicode="&#xbd;" horiz-adv-x="1713" 
d="M1033 1490l249 -108l-650 -1440l-249 108zM490 611h-258v525l-105 -75l-127 198l292 196h198v-844zM1444 234h241v-234h-608l-3 171l241 250q57 59 78 90t21 60q0 23 -15.5 35t-40.5 12q-15 0 -31.5 -4.5t-36.5 -17t-36 -30.5l-191 134q45 69 127 114.5t191 45.5
q47 0 91 -11t81.5 -33.5t65 -53t43.5 -72t16 -88.5q0 -41 -4.5 -69.5t-18.5 -63t-43.5 -70.5t-77.5 -79l-90 -82v-4z" />
    <glyph glyph-name="threequarters" unicode="&#xbe;" horiz-adv-x="1695" 
d="M1081 1490l249 -108l-650 -1440l-249 108zM652 846q0 -116 -87.5 -184t-228.5 -68q-122 0 -213 61t-124 154l234 91q9 -39 30.5 -60t53.5 -21q29 0 47.5 18t18.5 43q0 31 -22.5 47.5t-63.5 16.5h-49v187h64q29 0 47.5 15t18.5 39q0 25 -16.5 42t-42.5 17q-51 0 -69 -64
l-214 114q13 37 40.5 70t64.5 56.5t84 37t96 13.5q85 0 152.5 -27t108 -81t40.5 -128q0 -120 -97 -188v-2q127 -61 127 -199zM1577 339h103v-218h-103v-121h-259v121h-312v152l368 570h203v-504zM1341 322v200l-127 -200h127z" />
    <glyph glyph-name="questiondown" unicode="&#xbf;" horiz-adv-x="929" 
d="M565 1022q83 0 141.5 -57.5t58.5 -139.5q0 -80 -59 -137.5t-141 -57.5t-140.5 57.5t-58.5 137.5q0 82 58.5 139.5t140.5 57.5zM735 489l2 -98q1 -27 -3.5 -52t-16 -50t-20 -42t-29.5 -42t-30 -35.5t-35.5 -37.5t-32.5 -34l-8 -8q-28 -29 -43 -45.5t-35.5 -43.5t-29.5 -51
t-9 -47q0 -32 11.5 -54.5t36 -35t60.5 -12.5q95 0 178 83l246 -224q-71 -83 -196 -135.5t-256 -52.5q-77 0 -145 15t-126 48t-100 80.5t-65.5 116t-23.5 151.5q0 56 15 106.5t44 93.5t57 74.5t68 68.5q5 4 14 12q35 31 52 47.5t39.5 40.5t33 44t12.5 41l10 78h325z" />
    <glyph glyph-name="Agrave" unicode="&#xc0;" horiz-adv-x="1420" 
d="M880 1592h-327l-252 313l357 -2zM1017 0l-73 235h-467l-73 -235h-408l528 1455h372l528 -1455h-407zM578 562h264l-130 418h-4z" />
    <glyph glyph-name="Aacute" unicode="&#xc1;" horiz-adv-x="1420" 
d="M1136 1905l-253 -313h-328l224 311zM1017 0l-73 235h-467l-73 -235h-408l528 1455h372l528 -1455h-407zM578 562h264l-130 418h-4z" />
    <glyph glyph-name="Acircumflex" unicode="&#xc2;" horiz-adv-x="1420" 
d="M707 1732l-74 -145h-304l217 318h316l232 -318h-307l-76 145h-4zM1017 0l-73 235h-467l-73 -235h-408l528 1455h372l528 -1455h-407zM578 562h264l-130 418h-4z" />
    <glyph glyph-name="Atilde" unicode="&#xc3;" horiz-adv-x="1420" 
d="M609 1661q-65 0 -108 -93l-210 84q37 121 109 197t169 76q43 0 82 -10t54 -17.5t48 -25.5q54 -33 94 -33q67 0 112 90l206 -68q-35 -128 -105.5 -208.5t-166.5 -80.5q-89 0 -179 51q-2 1 -13 7t-13.5 7t-12.5 6t-13.5 6.5t-12 4.5t-14 4t-12.5 2t-14 1zM1017 0l-73 235
h-467l-73 -235h-408l528 1455h372l528 -1455h-407zM578 562h264l-130 418h-4z" />
    <glyph glyph-name="Adieresis" unicode="&#xc4;" horiz-adv-x="1420" 
d="M466 1568q-45 0 -84.5 15.5t-67 41.5t-43 62.5t-15.5 78.5q0 83 59.5 139t150.5 56q60 0 108.5 -25.5t75 -70t26.5 -99.5q0 -56 -26.5 -101.5t-74.5 -71t-109 -25.5zM949 1568q-92 0 -151 56.5t-59 141.5q0 54 26.5 98.5t75 70.5t108.5 26q92 0 151 -55.5t59 -139.5
q0 -86 -59 -142t-151 -56zM1017 0l-73 235h-467l-73 -235h-408l528 1455h372l528 -1455h-407zM578 562h264l-130 418h-4z" />
    <glyph glyph-name="Aring" unicode="&#xc5;" horiz-adv-x="1420" 
d="M711 1552q-62 0 -113.5 27t-82 77.5t-30.5 113.5q0 92 63 154.5t163 62.5q96 0 161.5 -61t65.5 -156q0 -92 -63 -155t-164 -63zM711 1844q-14 0 -27 -6t-22.5 -16t-15 -23t-5.5 -27q0 -29 20.5 -49.5t49.5 -20.5q20 0 36 9.5t25 26t9 36.5q0 29 -20 49.5t-50 20.5z
M1017 0l-73 235h-467l-73 -235h-408l528 1455h372l528 -1455h-407zM578 562h264l-130 418h-4z" />
    <glyph glyph-name="AE" unicode="&#xc6;" horiz-adv-x="1942" 
d="M1248 346h634v-346h-1011v236h-362l-105 -236h-408l678 1455h1166v-347h-592v-220h472v-332h-472v-210zM655 562h216v478h-3z" />
    <glyph glyph-name="Ccedilla" unicode="&#xc7;" horiz-adv-x="1446" 
d="M821 354q85 0 169.5 41t138.5 107l285 -245q-63 -77 -145 -136t-191 -98t-227 -43l-23 -39l1 -2q87 -3 137.5 -46t50.5 -121q0 -79 -65.5 -124t-201.5 -45q-74 0 -136 12v139q46 -14 111 -14q81 0 81 51q0 58 -157 58v79l32 57v5q-130 20 -241.5 77.5t-196.5 148
t-133 221.5t-48 287q0 104 23 200t66 179.5t109 152t148.5 117.5t188 76t224.5 27q159 0 317.5 -70t275.5 -211l-285 -244q-34 38 -76.5 69.5t-105 56t-126.5 24.5q-54 0 -105 -15t-95.5 -46.5t-77.5 -75.5t-52 -106t-19 -134q0 -74 24 -141t68 -118t110.5 -81t146.5 -30z
" />
    <glyph glyph-name="Egrave" unicode="&#xc8;" horiz-adv-x="1176" 
d="M490 1588l-252 313l357 -2l222 -311h-327zM106 0v1455h967v-347h-590v-219h462v-338h-462v-205h633v-346h-1010z" />
    <glyph glyph-name="Eacute" unicode="&#xc9;" horiz-adv-x="1176" 
d="M342 1588l224 311l357 2l-253 -313h-328zM106 0v1455h967v-347h-590v-219h462v-338h-462v-205h633v-346h-1010z" />
    <glyph glyph-name="Ecircumflex" unicode="&#xca;" horiz-adv-x="1176" 
d="M587 1728l-74 -145h-304l217 318h316l232 -318h-307l-76 145h-4zM483 346h633v-346h-1010v1455h967v-347h-590v-219h462v-338h-462v-205z" />
    <glyph glyph-name="Edieresis" unicode="&#xcb;" horiz-adv-x="1176" 
d="M346 1564q-92 0 -151 56.5t-59 141.5q0 83 59.5 139t150.5 56q60 0 108.5 -25.5t75 -70t26.5 -99.5q0 -86 -59 -142t-151 -56zM829 1564q-92 0 -151 56.5t-59 141.5q0 83 59.5 139t150.5 56q92 0 151 -55.5t59 -139.5q0 -86 -59 -142t-151 -56zM106 0v1455h967v-347h-590
v-219h462v-338h-462v-205h633v-346h-1010z" />
    <glyph glyph-name="Igrave" unicode="&#xcc;" horiz-adv-x="629" 
d="M175 1589l-252 313l357 -2l222 -311h-327zM117 0v1455h395v-1455h-395z" />
    <glyph glyph-name="Iacute" unicode="&#xcd;" horiz-adv-x="629" 
d="M149 1589l224 311l357 2l-253 -313h-328zM117 0v1455h395v-1455h-395z" />
    <glyph glyph-name="Icircumflex" unicode="&#xce;" horiz-adv-x="629" 
d="M311 1728l-74 -145h-304l217 318h316l232 -318h-307l-76 145h-4zM117 0v1455h395v-1455h-395z" />
    <glyph glyph-name="Idieresis" unicode="&#xcf;" horiz-adv-x="629" 
d="M70 1564q-92 0 -151 56.5t-59 141.5q0 83 59.5 139t150.5 56q92 0 151 -55.5t59 -139.5q0 -86 -59 -142t-151 -56zM553 1564q-92 0 -151 56.5t-59 141.5q0 83 59.5 139t150.5 56q60 0 108.5 -25.5t75 -70t26.5 -99.5q0 -86 -59 -142t-151 -56zM117 0v1455h395v-1455h-395
z" />
    <glyph glyph-name="Eth" unicode="&#xd0;" horiz-adv-x="1448" 
d="M632 1455q170 0 311.5 -54t239 -149.5t151 -231t53.5 -295.5t-51 -293.5t-146 -229.5t-236.5 -149t-315.5 -53h-530v547h-88v325h88v583h524zM613 346q108 0 192 51t129 137t45 191q0 107 -44.5 195t-122.5 138t-172 50h-154v-236h166v-325h-166v-201h127z" />
    <glyph glyph-name="Ntilde" unicode="&#xd1;" horiz-adv-x="1489" 
d="M652 1660q-65 0 -108 -93l-210 84q37 121 109 197t169 76q33 0 60 -4t53 -14.5t35.5 -15.5t35.5 -19q54 -33 94 -33q67 0 112 90l206 -68q-35 -128 -105.5 -208.5t-166.5 -80.5q-89 0 -179 51q-2 1 -13 7t-13.5 7t-12.5 6t-13.5 6.5t-12 4.5t-14 4t-12.5 2t-14 1z
M991 1455h390v-1455h-404l-477 796h-5v-796h-387v1455h392l486 -820h5v820z" />
    <glyph glyph-name="Ograve" unicode="&#xd2;" horiz-adv-x="1633" 
d="M701 1591l-252 313l357 -2l222 -311h-327zM818 -21q-166 0 -307 55t-240 153t-154.5 237t-55.5 303t55.5 303.5t154.5 237.5t240 153t307 55q164 0 304 -54.5t239 -152t155 -237.5t56 -305t-56 -304.5t-155 -237t-239 -152t-304 -54.5zM817 342q101 0 181.5 51.5t124 139
t43.5 194.5t-43.5 194.5t-124 139t-181.5 51.5t-181 -51t-124.5 -139t-44.5 -195t44.5 -194.5t125 -139t180.5 -51.5z" />
    <glyph glyph-name="Oacute" unicode="&#xd3;" horiz-adv-x="1633" 
d="M662 1591l224 311l357 2l-253 -313h-328zM818 -21q-166 0 -307 55t-240 153t-154.5 237t-55.5 303t55.5 303.5t154.5 237.5t240 153t307 55q164 0 304 -54.5t239 -152t155 -237.5t56 -305t-56 -304.5t-155 -237t-239 -152t-304 -54.5zM817 342q101 0 181.5 51.5t124 139
t43.5 194.5t-43.5 194.5t-124 139t-181.5 51.5t-181 -51t-124.5 -139t-44.5 -195t44.5 -194.5t125 -139t180.5 -51.5z" />
    <glyph glyph-name="Ocircumflex" unicode="&#xd4;" horiz-adv-x="1633" 
d="M816 1731l-74 -145h-304l217 318h316l232 -318h-307l-76 145h-4zM818 1476q164 0 304 -54.5t239 -152t155 -237.5t56 -305t-56 -304.5t-155 -237t-239 -152t-304 -54.5q-166 0 -307 55t-240 153t-154.5 237t-55.5 303t55.5 303.5t154.5 237.5t240 153t307 55zM817 342
q101 0 181.5 51.5t124 139t43.5 194.5t-43.5 194.5t-124 139t-181.5 51.5t-181 -51t-124.5 -139t-44.5 -195q0 -163 99 -274t251 -111z" />
    <glyph glyph-name="Otilde" unicode="&#xd5;" horiz-adv-x="1633" 
d="M610 1567l-210 84q37 121 109 197t169 76q43 0 82 -10t54 -17.5t48 -25.5q54 -33 94 -33q67 0 112 90l206 -68q-35 -128 -105.5 -208.5t-166.5 -80.5q-89 0 -179 51q-3 1 -12 6t-12 6l-11 6q-8 4 -12 5.5t-11 4.5t-11.5 4.5t-11 3t-12.5 2t-12 0.5q-65 0 -108 -93z
M818 -21q-166 0 -307 55t-240 153t-154.5 237t-55.5 303t55.5 303.5t154.5 237.5t240 153t307 55q164 0 304 -54.5t239 -152t155 -237.5t56 -305t-56 -304.5t-155 -237t-239 -152t-304 -54.5zM817 342q101 0 181.5 51.5t124 139t43.5 194.5t-43.5 194.5t-124 139
t-181.5 51.5t-181 -51t-124.5 -139t-44.5 -195t44.5 -194.5t125 -139t180.5 -51.5z" />
    <glyph glyph-name="Odieresis" unicode="&#xd6;" horiz-adv-x="1633" 
d="M575 1567q-92 0 -151 56.5t-59 141.5q0 83 59.5 139t150.5 56q92 0 151 -55.5t59 -139.5q0 -86 -59 -142t-151 -56zM1058 1567q-92 0 -151 56.5t-59 141.5q0 83 59.5 139t150.5 56q92 0 151 -55.5t59 -139.5q0 -86 -59 -142t-151 -56zM818 -21q-166 0 -307 55t-240 153
t-154.5 237t-55.5 303t55.5 303.5t154.5 237.5t240 153t307 55q164 0 304 -54.5t239 -152t155 -237.5t56 -305t-56 -304.5t-155 -237t-239 -152t-304 -54.5zM817 342q101 0 181.5 51.5t124 139t43.5 194.5t-43.5 194.5t-124 139t-181.5 51.5t-181 -51t-124.5 -139
t-44.5 -195t44.5 -194.5t125 -139t180.5 -51.5z" />
    <glyph glyph-name="multiply" unicode="&#xd7;" horiz-adv-x="1076" 
d="M798 96l-260 260l-259 -259l-213 214l259 259l-259 259l212 210l258 -258l260 260l214 -213l-261 -261l260 -260z" />
    <glyph glyph-name="Oslash" unicode="&#xd8;" horiz-adv-x="1634" 
d="M1406 1220q166 -202 166 -493q0 -165 -56 -304.5t-155 -237t-239 -152t-304 -54.5q-247 0 -432 118l-159 -175l-142 132l153 168q-85 98 -131 227t-46 278q0 164 55.5 303.5t154.5 237.5t240 153t307 55q256 0 446 -128l152 167l141 -129zM467 727q0 -111 48 -201
l486 533q-81 53 -184 53q-101 0 -181 -51t-124.5 -139t-44.5 -195zM817 342q76 0 141.5 30t111 82t71 122.5t25.5 150.5q0 100 -40 185l-478 -526q77 -44 169 -44z" />
    <glyph glyph-name="Ugrave" unicode="&#xd9;" horiz-adv-x="1416" 
d="M574 1591l-252 313l357 -2l222 -311h-327zM705 -21q-138 0 -250 41.5t-192.5 120.5t-124.5 199t-44 271v844h394v-822q0 -80 22.5 -144.5t73 -106t121.5 -41.5q64 0 114.5 33.5t80 100.5t29.5 158v822h392v-844q0 -191 -70 -332.5t-210 -220.5t-336 -79z" />
    <glyph glyph-name="Uacute" unicode="&#xda;" horiz-adv-x="1416" 
d="M526 1591l224 311l357 2l-253 -313h-328zM705 -21q-138 0 -250 41.5t-192.5 120.5t-124.5 199t-44 271v844h394v-822q0 -80 22.5 -144.5t73 -106t121.5 -41.5q64 0 114.5 33.5t80 100.5t29.5 158v822h392v-844q0 -191 -70 -332.5t-210 -220.5t-336 -79z" />
    <glyph glyph-name="Ucircumflex" unicode="&#xdb;" horiz-adv-x="1416" 
d="M703 1731l-74 -145h-304l217 318h316l232 -318h-307l-76 145h-4zM929 1455h392v-844q0 -191 -70 -332.5t-210 -220.5t-336 -79q-138 0 -250 41.5t-192.5 120.5t-124.5 199t-44 271v844h394v-822q0 -59 13.5 -111t39 -93t68 -64.5t96.5 -23.5q64 0 114.5 33.5t80 100.5
t29.5 158v822z" />
    <glyph glyph-name="Udieresis" unicode="&#xdc;" horiz-adv-x="1416" 
d="M462 1567q-92 0 -151 56.5t-59 141.5q0 83 59.5 139t150.5 56q92 0 151 -55.5t59 -139.5q0 -86 -59 -142t-151 -56zM945 1567q-92 0 -151 56.5t-59 141.5q0 83 59.5 139t150.5 56q92 0 151 -55.5t59 -139.5q0 -86 -59 -142t-151 -56zM705 -21q-138 0 -250 41.5
t-192.5 120.5t-124.5 199t-44 271v844h394v-822q0 -80 22.5 -144.5t73 -106t121.5 -41.5q64 0 114.5 33.5t80 100.5t29.5 158v822h392v-844q0 -191 -70 -332.5t-210 -220.5t-336 -79z" />
    <glyph glyph-name="Yacute" unicode="&#xdd;" horiz-adv-x="1312" 
d="M1054 1904l-253 -313h-328l224 311zM874 1455h451l-472 -827v-628h-397v628l-469 827h447l222 -445h2z" />
    <glyph glyph-name="Thorn" unicode="&#xde;" horiz-adv-x="1291" 
d="M108 0v1455h378v-230h233q134 0 236.5 -38.5t165.5 -108.5t95 -163t32 -207q0 -158 -69 -268.5t-192 -164.5t-292 -54h-209v-221h-378zM486 559h144q97 0 155 42.5t58 116.5q0 70 -55 117.5t-157 47.5h-145v-324z" />
    <glyph glyph-name="germandbls" unicode="&#xdf;" horiz-adv-x="1272" 
d="M1010 850q106 -54 165.5 -158t59.5 -235q0 -221 -125.5 -349.5t-345.5 -128.5h-162v321h74q91 0 142 50.5t51 130.5q0 85 -56 133.5t-155 48.5h-43v292h26q70 1 112.5 39.5t42.5 96.5q0 59 -43.5 94t-118.5 35q-35 0 -65.5 -10.5t-56.5 -33t-41 -63.5t-15 -97v-1016h-366
v988q0 177 66.5 299.5t186 182t285.5 59.5q88 0 164.5 -15.5t133 -43t100 -65t70.5 -82.5t41 -93.5t14 -99.5q0 -80 -33 -152.5t-108 -124.5v-3z" />
    <glyph glyph-name="agrave" unicode="&#xe0;" horiz-adv-x="1204" 
d="M806 1140h-327l-252 313l357 -2zM751 1003h367v-1003h-347v94h-3q-90 -115 -258 -115q-102 0 -188.5 38.5t-147.5 106.5t-95.5 165.5t-34.5 212.5q0 113 34 211t93.5 166t141.5 106.5t175 38.5q156 0 260 -120h3v99zM591 299q75 0 125.5 56t50.5 146q0 88 -50.5 144.5
t-125.5 56.5q-78 0 -128 -56t-50 -145q0 -91 50 -146.5t128 -55.5z" />
    <glyph glyph-name="aacute" unicode="&#xe1;" horiz-adv-x="1204" 
d="M967 1453l-253 -313h-328l224 311zM751 1003h367v-1003h-347v94h-3q-90 -115 -258 -115q-102 0 -188.5 38.5t-147.5 106.5t-95.5 165.5t-34.5 212.5q0 113 34 211t93.5 166t141.5 106.5t175 38.5q156 0 260 -120h3v99zM591 299q75 0 125.5 56t50.5 146q0 88 -50.5 144.5
t-125.5 56.5q-78 0 -128 -56t-50 -145q0 -91 50 -146.5t128 -55.5z" />
    <glyph glyph-name="acircumflex" unicode="&#xe2;" horiz-adv-x="1204" 
d="M591 1281l-74 -145h-304l217 318h316l232 -318h-307l-76 145h-4zM751 1003h367v-1003h-347v94h-3q-90 -115 -258 -115q-102 0 -188.5 38.5t-147.5 106.5t-95.5 165.5t-34.5 212.5q0 113 34 211t93.5 166t141.5 106.5t175 38.5q156 0 260 -120h3v99zM591 299
q75 0 125.5 56t50.5 146q0 88 -50.5 144.5t-125.5 56.5q-78 0 -128 -56t-50 -145q0 -91 50 -146.5t128 -55.5z" />
    <glyph glyph-name="atilde" unicode="&#xe3;" horiz-adv-x="1204" 
d="M493 1210q-65 0 -108 -93l-210 84q37 121 109 197t169 76q43 0 82 -10t54 -17.5t48 -25.5q54 -33 94 -33q67 0 112 90l206 -68q-17 -61 -42.5 -112.5t-59.5 -91.5t-77.5 -62.5t-92.5 -22.5q-89 0 -179 51q-2 1 -13 7t-13.5 7t-12.5 6t-13.5 6.5t-12 4.5t-14 4t-12.5 2
t-14 1zM751 1003h367v-1003h-347v94h-3q-90 -115 -258 -115q-102 0 -188.5 38.5t-147.5 106.5t-95.5 165.5t-34.5 212.5q0 113 34 211t93.5 166t141.5 106.5t175 38.5q156 0 260 -120h3v99zM591 299q75 0 125.5 56t50.5 146q0 88 -50.5 144.5t-125.5 56.5q-78 0 -128 -56
t-50 -145q0 -91 50 -146.5t128 -55.5z" />
    <glyph glyph-name="adieresis" unicode="&#xe4;" horiz-adv-x="1204" 
d="M350 1117q-92 0 -151 56.5t-59 141.5q0 54 26.5 98.5t75 70.5t108.5 26q92 0 151 -55.5t59 -139.5q0 -86 -59 -142t-151 -56zM833 1117q-92 0 -151 56.5t-59 141.5q0 54 26.5 98.5t75 70.5t108.5 26q92 0 151 -55.5t59 -139.5q0 -86 -59 -142t-151 -56zM751 1003h367
v-1003h-347v94h-3q-90 -115 -258 -115q-102 0 -188.5 38.5t-147.5 106.5t-95.5 165.5t-34.5 212.5q0 113 34 211t93.5 166t141.5 106.5t175 38.5q156 0 260 -120h3v99zM591 299q75 0 125.5 56t50.5 146q0 88 -50.5 144.5t-125.5 56.5q-78 0 -128 -56t-50 -145
q0 -91 50 -146.5t128 -55.5z" />
    <glyph glyph-name="aring" unicode="&#xe5;" horiz-adv-x="1204" 
d="M595 1101q-95 0 -160.5 61.5t-65.5 156.5q0 92 63 154.5t163 62.5q96 0 161.5 -61t65.5 -156q0 -92 -63 -155t-164 -63zM595 1393q-28 0 -49 -21.5t-21 -50.5t20.5 -49.5t49.5 -20.5q30 0 50 21t20 51q0 14 -5.5 27t-14.5 22.5t-22 15t-28 5.5zM751 1003h367v-1003h-347
v94h-3q-90 -115 -258 -115q-102 0 -188.5 38.5t-147.5 106.5t-95.5 165.5t-34.5 212.5q0 113 34 211t93.5 166t141.5 106.5t175 38.5q156 0 260 -120h3v99zM591 299q75 0 125.5 56t50.5 146q0 88 -50.5 144.5t-125.5 56.5q-78 0 -128 -56t-50 -145q0 -91 50 -146.5
t128 -55.5z" />
    <glyph glyph-name="ae" unicode="&#xe6;" horiz-adv-x="1618" 
d="M1574 504q0 -37 -10 -91h-630q21 -67 72 -102.5t126 -35.5q72 0 127.5 32t89.5 72l185 -210q-68 -84 -184 -137t-255 -53q-63 0 -122.5 15.5t-107.5 42.5t-86 63h-5q-62 -56 -160.5 -88.5t-198.5 -32.5q-96 0 -169 23.5t-118.5 66t-68.5 98t-23 123.5q0 315 417 315
l129 2v4q0 76 -29.5 106t-93.5 30q-106 0 -203 -61l-158 241q48 27 160.5 62t219.5 35q105 0 178.5 -24t122.5 -82h5q122 106 295 106q104 0 195.5 -39.5t157.5 -108t104 -165.5t38 -207zM1077 736q-52 0 -91 -32t-55 -99h287q-20 131 -141 131zM463 227q24 0 44.5 8
t33.5 20.5t22.5 27t14 26.5t4.5 21v89l-87 -2q-56 -2 -87.5 -26t-31.5 -72q0 -44 23 -68t64 -24z" />
    <glyph glyph-name="ccedilla" unicode="&#xe7;" horiz-adv-x="1059" 
d="M606 -20l-23 -39l1 -2q87 -3 137.5 -46t50.5 -121q0 -79 -65.5 -124t-201.5 -45q-74 0 -136 12v139q46 -14 111 -14q81 0 81 51q0 58 -157 58v79l35 63v3q-176 41 -284 177.5t-108 329.5q0 153 69.5 272t195 185t285.5 66q129 0 246.5 -53.5t191.5 -153.5l-243 -207
q-76 90 -186 90q-42 0 -78 -14.5t-60.5 -40.5t-38.5 -62.5t-14 -78.5q0 -88 54.5 -144t140.5 -56q110 0 181 82l249 -217q-43 -52 -103.5 -92t-146.5 -66.5t-184 -30.5z" />
    <glyph glyph-name="egrave" unicode="&#xe8;" horiz-adv-x="1116" 
d="M785 1140h-327l-252 313l357 -2zM1072 509q0 -57 -10 -97h-658q12 -70 68.5 -107t139.5 -37q125 0 231 111l189 -208q-68 -85 -187.5 -138.5t-271.5 -53.5q-149 0 -269 65.5t-188.5 185.5t-68.5 272q0 150 66.5 269t185.5 186t268 67q107 0 201 -38.5t160.5 -105.5
t105 -163.5t38.5 -207.5zM565 745q-61 0 -104.5 -35.5t-55.5 -98.5h312q-7 31 -20.5 56t-32.5 42.5t-44.5 26.5t-54.5 9z" />
    <glyph glyph-name="eacute" unicode="&#xe9;" horiz-adv-x="1116" 
d="M1012 1453l-253 -313h-328l224 311zM1072 509q0 -57 -10 -97h-658q12 -70 68.5 -107t139.5 -37q125 0 231 111l189 -208q-68 -85 -187.5 -138.5t-271.5 -53.5q-149 0 -269 65.5t-188.5 185.5t-68.5 272q0 150 66.5 269t185.5 186t268 67q107 0 201 -38.5t160.5 -105.5
t105 -163.5t38.5 -207.5zM565 745q-61 0 -104.5 -35.5t-55.5 -98.5h312q-7 31 -20.5 56t-32.5 42.5t-44.5 26.5t-54.5 9z" />
    <glyph glyph-name="ecircumflex" unicode="&#xea;" horiz-adv-x="1116" 
d="M578 1281l-74 -145h-304l217 318h316l232 -318h-307l-76 145h-4zM1072 509q0 -57 -10 -97h-658q12 -70 68.5 -107t139.5 -37q125 0 231 111l189 -208q-68 -85 -187.5 -138.5t-271.5 -53.5q-149 0 -269 65.5t-188.5 185.5t-68.5 272q0 150 66.5 269t185.5 186t268 67
q107 0 201 -38.5t160.5 -105.5t105 -163.5t38.5 -207.5zM565 745q-61 0 -104.5 -35.5t-55.5 -98.5h312q-7 31 -20.5 56t-32.5 42.5t-44.5 26.5t-54.5 9z" />
    <glyph glyph-name="edieresis" unicode="&#xeb;" horiz-adv-x="1116" 
d="M337 1117q-92 0 -151 56.5t-59 141.5q0 54 26.5 98.5t75 70.5t108.5 26q92 0 151 -55.5t59 -139.5q0 -56 -26.5 -101.5t-74.5 -71t-109 -25.5zM820 1117q-92 0 -151 56.5t-59 141.5q0 54 26.5 98.5t75 70.5t108.5 26q92 0 151 -55.5t59 -139.5q0 -86 -59 -142t-151 -56z
M1072 509q0 -57 -10 -97h-658q12 -70 68.5 -107t139.5 -37q125 0 231 111l189 -208q-68 -85 -187.5 -138.5t-271.5 -53.5q-149 0 -269 65.5t-188.5 185.5t-68.5 272q0 150 66.5 269t185.5 186t268 67q107 0 201 -38.5t160.5 -105.5t105 -163.5t38.5 -207.5zM565 745
q-61 0 -104.5 -35.5t-55.5 -98.5h312q-14 63 -53.5 98.5t-98.5 35.5z" />
    <glyph glyph-name="igrave" unicode="&#xec;" horiz-adv-x="564" 
d="M128 1141l-162 313l357 -2l132 -311h-327zM99 0v1003h365v-1003h-365z" />
    <glyph glyph-name="iacute" unicode="&#xed;" horiz-adv-x="564" 
d="M121 1140l224 311l357 2l-253 -313h-328zM99 0v1003h365v-1003h-365z" />
    <glyph glyph-name="icircumflex" unicode="&#xee;" horiz-adv-x="564" 
d="M278 1281l-74 -145h-304l217 318h316l232 -318h-307l-76 145h-4zM99 0v1003h365v-1003h-365z" />
    <glyph glyph-name="idieresis" unicode="&#xef;" horiz-adv-x="564" 
d="M37 1117q-45 0 -84.5 15.5t-67 41.5t-43 62.5t-15.5 78.5q0 83 59.5 139t150.5 56q92 0 151 -55.5t59 -139.5q0 -86 -59 -142t-151 -56zM520 1117q-92 0 -151 56.5t-59 141.5q0 54 26.5 98.5t75 70.5t108.5 26q92 0 151 -55.5t59 -139.5q0 -86 -59 -142t-151 -56zM99 0
v1003h365v-1003h-365z" />
    <glyph glyph-name="eth" unicode="&#xf0;" horiz-adv-x="1173" 
d="M1123 531v-2q0 -166 -70 -291.5t-194.5 -192t-285.5 -66.5q-111 0 -208.5 37t-167 101t-110 152.5t-40.5 188.5q0 140 63.5 245t167.5 157.5t232 52.5q60 0 151 -21l2 5q-63 108 -149 194l-127 -97l-149 173l86 67v1q-60 34 -131 61l133 225q119 -40 235 -100l141 110
l150 -182l-82 -63l-1 -3q171 -141 262.5 -330.5t91.5 -421.5zM584 302q46 0 85 22.5t62.5 64.5t23.5 95q0 44 -21 81t-62 59t-94 22q-66 0 -114.5 -48t-48.5 -114q0 -50 20.5 -91t59.5 -66t89 -25z" />
    <glyph glyph-name="ntilde" unicode="&#xf1;" horiz-adv-x="1180" 
d="M517 1210q-65 0 -108 -93l-210 84q37 121 109 197t169 76q43 0 82 -10t54 -17.5t48 -25.5q54 -33 94 -33q67 0 112 90l206 -68q-23 -83 -60 -146.5t-92 -103t-120 -39.5q-89 0 -179 51q-2 1 -13 7t-13.5 7t-12.5 6t-13.5 6.5t-12 4.5t-14 4t-12.5 2t-14 1zM743 1024
q53 0 97.5 -8.5t85.5 -27.5t72 -51t54 -77.5t35 -109t12 -143.5v-607h-366v519q0 103 -30 142t-101 39q-68 0 -107 -48.5t-39 -147.5v-504h-366v1003h366v-110h2q56 64 129.5 97.5t155.5 33.5z" />
    <glyph glyph-name="ograve" unicode="&#xf2;" horiz-adv-x="1194" 
d="M479 1140l-252 313l357 -2l222 -311h-327zM597 -21q-160 0 -285.5 65.5t-195 184.5t-69.5 272t69.5 272t195 185t285.5 66t285 -66t195 -185t70 -272t-70 -272t-195 -184.5t-285 -65.5zM597 302q78 0 130 56.5t52 142.5q0 88 -51 143.5t-131 55.5q-52 0 -93.5 -25
t-65 -70.5t-23.5 -103.5q0 -86 52 -142.5t130 -56.5z" />
    <glyph glyph-name="oacute" unicode="&#xf3;" horiz-adv-x="1194" 
d="M438 1140l224 311l357 2l-253 -313h-328zM597 -21q-160 0 -285.5 65.5t-195 184.5t-69.5 272t69.5 272t195 185t285.5 66t285 -66t195 -185t70 -272t-70 -272t-195 -184.5t-285 -65.5zM597 302q78 0 130 56.5t52 142.5q0 88 -51 143.5t-131 55.5q-39 0 -73 -14.5t-58 -41
t-37.5 -63.5t-13.5 -80q0 -34 9 -65t25.5 -55t39 -42t50 -27.5t58.5 -9.5z" />
    <glyph glyph-name="ocircumflex" unicode="&#xf4;" horiz-adv-x="1194" 
d="M595 1281l-74 -145h-304l217 318h316l232 -318h-307l-76 145h-4zM597 1024q160 0 285 -66t195 -185t70 -272t-70 -272t-195 -184.5t-285 -65.5t-285.5 65.5t-195 184.5t-69.5 272t69.5 272t195 185t285.5 66zM597 302q78 0 130 56.5t52 142.5q0 88 -51 143.5t-131 55.5
q-52 0 -93.5 -25t-65 -70.5t-23.5 -103.5q0 -86 52 -142.5t130 -56.5z" />
    <glyph glyph-name="otilde" unicode="&#xf5;" horiz-adv-x="1194" 
d="M389 1117l-210 84q37 121 109 197t169 76q43 0 82 -10t54 -17.5t48 -25.5q54 -33 94 -33q67 0 112 90l206 -68q-35 -128 -105.5 -208.5t-166.5 -80.5q-89 0 -179 51q-2 1 -13 7t-13.5 7t-12.5 6t-13.5 6.5t-12 4.5t-14 4t-12.5 2t-14 1q-65 0 -108 -93zM597 -21
q-160 0 -285.5 65.5t-195 184.5t-69.5 272t69.5 272t195 185t285.5 66t285 -66t195 -185t70 -272t-70 -272t-195 -184.5t-285 -65.5zM597 302q78 0 130 56.5t52 142.5q0 88 -51 143.5t-131 55.5q-52 0 -93.5 -25t-65 -70.5t-23.5 -103.5q0 -86 52 -142.5t130 -56.5z" />
    <glyph glyph-name="odieresis" unicode="&#xf6;" horiz-adv-x="1194" 
d="M354 1117q-92 0 -151 56.5t-59 141.5q0 54 26.5 98.5t75 70.5t108.5 26q92 0 151 -55.5t59 -139.5q0 -86 -59 -142t-151 -56zM837 1117q-92 0 -151 56.5t-59 141.5q0 54 26.5 98.5t75 70.5t108.5 26q92 0 151 -55.5t59 -139.5q0 -86 -59 -142t-151 -56zM597 -21
q-160 0 -285.5 65.5t-195 184.5t-69.5 272t69.5 272t195 185t285.5 66t285 -66t195 -185t70 -272t-70 -272t-195 -184.5t-285 -65.5zM597 302q78 0 130 56.5t52 142.5q0 88 -51 143.5t-131 55.5q-52 0 -93.5 -25t-65 -70.5t-23.5 -103.5q0 -86 52 -142.5t130 -56.5z" />
    <glyph glyph-name="divide" unicode="&#xf7;" horiz-adv-x="1133" 
d="M560 801q-83 0 -136.5 51.5t-53.5 127.5q0 75 54 126t136 51q83 0 136.5 -50.5t53.5 -126.5q0 -78 -53.5 -128.5t-136.5 -50.5zM76 419v298h982v-298h-982zM560 -22q-55 0 -98.5 23.5t-67.5 64.5t-24 91q0 75 54 126t136 51q55 0 98.5 -23t67.5 -63.5t24 -90.5
q0 -51 -24 -92t-67.5 -64t-98.5 -23z" />
    <glyph glyph-name="oslash" unicode="&#xf8;" horiz-adv-x="1194" 
d="M1017 854q130 -141 130 -353q0 -153 -70 -272t-195 -184.5t-285 -65.5q-175 0 -310 80l-105 -114l-117 108l100 109q-118 138 -118 339q0 153 69.5 272t195 185t285.5 66q168 0 295 -72l94 103l117 -108zM415 501q0 -28 7 -59l230 250q-27 8 -55 8q-52 0 -93.5 -25
t-65 -70.5t-23.5 -103.5zM597 302q51 0 92.5 25.5t65.5 71t24 102.5q0 40 -13 79l-242 -263q33 -15 73 -15z" />
    <glyph glyph-name="ugrave" unicode="&#xf9;" horiz-adv-x="1160" 
d="M784 1141h-327l-252 313l357 -2zM708 1003h367v-1003h-367v107h-4q-34 -42 -77.5 -71t-92.5 -43t-103 -14q-355 0 -355 437v587h365v-499q0 -107 30.5 -154.5t100.5 -47.5q61 0 98.5 49.5t37.5 147.5v504z" />
    <glyph glyph-name="uacute" unicode="&#xfa;" horiz-adv-x="1160" 
d="M982 1453l-253 -313h-328l224 311zM708 1003h367v-1003h-367v107h-4q-51 -63 -121.5 -95.5t-151.5 -32.5q-355 0 -355 437v587h365v-499q0 -107 30.5 -154.5t100.5 -47.5q61 0 98.5 49.5t37.5 147.5v504z" />
    <glyph glyph-name="ucircumflex" unicode="&#xfb;" horiz-adv-x="1160" 
d="M579 1281l-74 -145h-304l217 318h316l232 -318h-307l-76 145h-4zM708 1003h367v-1003h-367v107h-4q-51 -63 -121.5 -95.5t-151.5 -32.5q-355 0 -355 437v587h365v-499q0 -107 30.5 -154.5t100.5 -47.5q61 0 98.5 49.5t37.5 147.5v504z" />
    <glyph glyph-name="udieresis" unicode="&#xfc;" horiz-adv-x="1160" 
d="M338 1117q-60 0 -108.5 26t-75 71t-26.5 101q0 83 59.5 139t150.5 56q92 0 151 -55.5t59 -139.5q0 -86 -59 -142t-151 -56zM821 1117q-92 0 -151 56.5t-59 141.5q0 83 59.5 139t150.5 56q92 0 151 -55.5t59 -139.5q0 -86 -59 -142t-151 -56zM708 1003h367v-1003h-367v107
h-4q-34 -42 -77.5 -71t-92.5 -43t-103 -14q-355 0 -355 437v587h365v-499q0 -107 30.5 -154.5t100.5 -47.5q61 0 98.5 49.5t37.5 147.5v504z" />
    <glyph glyph-name="yacute" unicode="&#xfd;" horiz-adv-x="1100" 
d="M955 1453l-253 -313h-328l224 311zM719 1003h373l-515 -1408h-355l170 479l-384 929h377l170 -475h4z" />
    <glyph glyph-name="thorn" unicode="&#xfe;" horiz-adv-x="1220" 
d="M729 1024q75 0 142.5 -24.5t122 -71t95 -109.5t62.5 -144.5t22 -172.5q0 -153 -59 -272.5t-165 -185t-242 -65.5q-154 0 -249 108h-3v-492h-365v1913h367v-606h3q105 122 269 122zM626 299q78 0 128 55.5t50 146.5q0 89 -50 145t-128 56q-81 0 -133 -56t-52 -145
q0 -91 52 -146.5t133 -55.5z" />
    <glyph glyph-name="ydieresis" unicode="&#xff;" horiz-adv-x="1100" 
d="M310 1117q-92 0 -151 56.5t-59 141.5q0 54 26.5 98.5t75 70.5t108.5 26q92 0 151 -55.5t59 -139.5q0 -86 -59 -142t-151 -56zM793 1117q-92 0 -151 56.5t-59 141.5q0 54 26.5 98.5t75 70.5t108.5 26q92 0 151 -55.5t59 -139.5q0 -86 -59 -142t-151 -56zM719 1003h373
l-515 -1408h-355l170 479l-384 929h377l170 -475h4z" />
    <glyph glyph-name="Amacron" unicode="&#x100;" horiz-adv-x="1420" 
d="M1039 1905v-270h-656v270h656zM1017 0l-73 235h-467l-73 -235h-408l528 1455h372l528 -1455h-407zM578 562h264l-130 418h-4z" />
    <glyph glyph-name="amacron" unicode="&#x101;" horiz-adv-x="1204" 
d="M923 1454v-270h-656v270h656zM751 1003h367v-1003h-347v94h-3q-90 -115 -258 -115q-102 0 -188.5 38.5t-147.5 106.5t-95.5 165.5t-34.5 212.5q0 113 34 211t93.5 166t141.5 106.5t175 38.5q156 0 260 -120h3v99zM591 299q75 0 125.5 56t50.5 146q0 88 -50.5 144.5
t-125.5 56.5q-78 0 -128 -56t-50 -145q0 -91 50 -146.5t128 -55.5z" />
    <glyph glyph-name="Abreve" unicode="&#x102;" horiz-adv-x="1420" 
d="M711 1576q-96 0 -176 37t-133 113t-61 179h260q2 -21 10 -39.5t21.5 -33t34 -22.5t44.5 -8q45 0 75.5 27t33.5 76h261q-6 -68 -33.5 -127.5t-73.5 -104.5t-114 -71t-149 -26zM1017 0l-73 235h-467l-73 -235h-408l528 1455h372l528 -1455h-407zM578 562h264l-130 418h-4z
" />
    <glyph glyph-name="abreve" unicode="&#x103;" horiz-adv-x="1204" 
d="M595 1125q-96 0 -176 37t-133 113t-61 179h260q4 -44 33 -73.5t77 -29.5q45 0 75.5 27t33.5 76h261q-6 -68 -33.5 -127.5t-73.5 -104.5t-114 -71t-149 -26zM751 1003h367v-1003h-347v94h-3q-90 -115 -258 -115q-102 0 -188.5 38.5t-147.5 106.5t-95.5 165.5t-34.5 212.5
q0 113 34 211t93.5 166t141.5 106.5t175 38.5q156 0 260 -120h3v99zM591 299q75 0 125.5 56t50.5 146q0 88 -50.5 144.5t-125.5 56.5q-78 0 -128 -56t-50 -145q0 -45 13.5 -83t37 -64t56.5 -40.5t71 -14.5z" />
    <glyph glyph-name="Aogonek" unicode="&#x104;" horiz-adv-x="1420" 
d="M1358 0q-90 0 -146 -41.5t-56 -93.5q0 -38 20 -58.5t54 -20.5q18 0 31 1.5t24.5 4.5t15.5 4l14 -168q-55 -23 -157 -23q-118 0 -188 56.5t-70 143.5q0 53 28.5 107.5t86.5 92.5l-71 230h-467l-73 -235h-408l528 1455h372l528 -1455h-66zM578 562h264l-130 418h-4z" />
    <glyph glyph-name="aogonek" unicode="&#x105;" horiz-adv-x="1204" 
d="M751 1003h367v-1003h-21q-90 0 -146 -41.5t-56 -93.5q0 -38 20 -58.5t54 -20.5q18 0 31 1.5t24.5 4.5t15.5 4l14 -168q-55 -23 -157 -23q-118 0 -188 56.5t-70 143.5q0 57 32.5 114.5t99.5 95.5v79h-3q-90 -115 -258 -115q-102 0 -188.5 38.5t-147.5 106.5t-95.5 165.5
t-34.5 212.5q0 113 34 211t93.5 166t141.5 106.5t175 38.5q156 0 260 -120h3v99zM591 299q75 0 125.5 56t50.5 146q0 88 -50.5 144.5t-125.5 56.5q-78 0 -128 -56t-50 -145q0 -36 8.5 -68t24.5 -56.5t38 -42t49 -26.5t58 -9z" />
    <glyph glyph-name="Cacute" unicode="&#x106;" horiz-adv-x="1446" 
d="M636 1591l224 311l357 2l-253 -313h-328zM821 -21q-122 0 -234.5 30.5t-208 92.5t-166 149.5t-110.5 209t-40 263.5q0 104 23 200t66 179.5t109 152t148.5 117.5t188 76t224.5 27q159 0 317.5 -70t275.5 -211l-285 -244q-25 28 -55.5 52.5t-69.5 47.5t-86.5 36.5
t-96.5 13.5q-54 0 -105 -15t-95.5 -46.5t-77.5 -76t-52 -106t-19 -133.5q0 -74 24 -141t68 -118t110.5 -81t146.5 -30q85 0 169.5 41t138.5 107l285 -245q-101 -124 -255 -201t-338 -77z" />
    <glyph glyph-name="cacute" unicode="&#x107;" horiz-adv-x="1059" 
d="M421 1140l224 311l357 2l-253 -313h-328zM573 -21q-149 0 -269 65.5t-188.5 185t-68.5 271.5q0 153 69.5 272t195 185t285.5 66q129 0 246.5 -53.5t191.5 -153.5l-243 -207q-76 90 -186 90q-42 0 -78 -14.5t-60.5 -40.5t-38.5 -62.5t-14 -78.5q0 -88 54.5 -144t140.5 -56
q110 0 181 82l249 -217q-69 -85 -189.5 -137.5t-277.5 -52.5z" />
    <glyph glyph-name="Ccircumflex" unicode="&#x108;" horiz-adv-x="1446" 
d="M817 1731l-74 -145h-304l217 318h316l232 -318h-307l-76 145h-4zM821 354q57 0 115 19t108 52.5t85 76.5l285 -245q-101 -124 -255 -201t-338 -77q-122 0 -234.5 30.5t-208 92.5t-166 149.5t-110.5 209t-40 263.5q0 104 23 200t66 179.5t109 152t148.5 117.5t188 76
t224.5 27q159 0 317.5 -70t275.5 -211l-285 -244q-20 22 -42.5 42t-53 40t-63 35t-71.5 24t-78 9q-54 0 -105 -15t-95.5 -46.5t-77.5 -76t-52 -106t-19 -133.5q0 -74 24 -141t68 -118t110.5 -81t146.5 -30z" />
    <glyph glyph-name="ccircumflex" unicode="&#x109;" horiz-adv-x="1059" 
d="M582 1281l-74 -145h-304l217 318h316l232 -318h-307l-76 145h-4zM791 386l249 -217q-69 -85 -189.5 -137.5t-277.5 -52.5q-149 0 -269 65.5t-188.5 185t-68.5 271.5q0 153 69.5 272t195 185t285.5 66q129 0 246.5 -53.5t191.5 -153.5l-243 -207q-76 90 -186 90
q-86 0 -138.5 -55t-52.5 -141q0 -88 54.5 -144t140.5 -56q110 0 181 82z" />
    <glyph glyph-name="Cdotaccent" unicode="&#x10a;" horiz-adv-x="1446" 
d="M821 1567q-92 0 -151 56.5t-59 141.5q0 83 59.5 139t150.5 56q92 0 151 -55.5t59 -139.5q0 -86 -59 -142t-151 -56zM821 -21q-102 0 -197 22t-179.5 63.5t-155 105.5t-121 145t-78.5 185.5t-28 223.5q0 104 23 200t66 179.5t109 152t148.5 117.5t188 76t224.5 27
q159 0 317.5 -70t275.5 -211l-285 -244q-25 28 -55.5 52.5t-69.5 47.5t-86.5 36.5t-96.5 13.5q-54 0 -105 -15.5t-95.5 -46.5t-77.5 -75.5t-52 -106t-19 -133.5q0 -74 24 -141t68 -118t110.5 -81t146.5 -30q85 0 169.5 41t138.5 107l285 -245q-101 -124 -255 -201t-338 -77z
" />
    <glyph glyph-name="cdotaccent" unicode="&#x10b;" horiz-adv-x="1059" 
d="M586 1117q-92 0 -151 56.5t-59 141.5q0 54 26.5 98.5t75 70.5t108.5 26q92 0 151 -55.5t59 -139.5q0 -86 -59 -142t-151 -56zM573 -21q-149 0 -269 65.5t-188.5 185t-68.5 271.5q0 153 69.5 272t195 185t285.5 66q129 0 246.5 -53.5t191.5 -153.5l-243 -207
q-76 90 -186 90q-42 0 -78 -14.5t-60.5 -40.5t-38.5 -62.5t-14 -78.5q0 -88 54.5 -144t140.5 -56q110 0 181 82l249 -217q-69 -85 -189.5 -137.5t-277.5 -52.5z" />
    <glyph glyph-name="Ccaron" unicode="&#x10c;" horiz-adv-x="1446" 
d="M986 1586h-315l-232 318h307l75 -146h4l76 146h303zM821 354q85 0 169.5 41t138.5 107l285 -245q-101 -124 -255 -201t-338 -77q-122 0 -234.5 30.5t-208 92.5t-166 149.5t-110.5 209t-40 263.5q0 104 23 200t66 179.5t109 152t148.5 117.5t188 76t224.5 27
q159 0 317.5 -70t275.5 -211l-285 -244q-25 28 -55.5 52.5t-69.5 47.5t-86.5 36.5t-96.5 13.5q-54 0 -105 -15t-95.5 -46.5t-77.5 -76t-52 -106t-19 -133.5q0 -74 24 -141t68 -118t110.5 -81t146.5 -30z" />
    <glyph glyph-name="ccaron" unicode="&#x10d;" horiz-adv-x="1059" 
d="M751 1136h-315l-232 318h307l75 -146h4l76 146h303zM791 386l249 -217q-69 -85 -189.5 -137.5t-277.5 -52.5q-149 0 -269 65.5t-188.5 185t-68.5 271.5q0 153 69.5 272t195 185t285.5 66q129 0 246.5 -53.5t191.5 -153.5l-243 -207q-76 90 -186 90q-86 0 -138.5 -55
t-52.5 -141q0 -88 54.5 -144t140.5 -56q110 0 181 82z" />
    <glyph glyph-name="Dcaron" unicode="&#x10e;" horiz-adv-x="1448" 
d="M839 1583h-315l-232 318h307l75 -146h4l76 146h303zM632 1455q170 0 311.5 -54t239 -149.5t151 -231t53.5 -295.5t-51 -293.5t-146 -229.5t-236.5 -149t-315.5 -53h-530v1455h524zM613 346q108 0 192 51t129 137t45 191q0 80 -26.5 151t-71.5 122t-108 80.5t-133 29.5
h-154v-762h127z" />
    <glyph glyph-name="dcaron" unicode="&#x10f;" horiz-adv-x="1340" 
d="M1290 1637h342l-158 -464h-254zM761 903v605h367v-1508h-347v94h-4q-93 -115 -266 -115q-102 0 -188.5 38.5t-147.5 106.5t-95.5 165.5t-34.5 212.5q0 113 34 211t93.5 166t141.5 106.5t175 38.5q162 0 269 -121h3zM592 299q81 0 133 55.5t52 146.5q0 89 -52 145t-133 56
q-78 0 -128 -56t-50 -145q0 -91 50 -146.5t128 -55.5z" />
    <glyph glyph-name="Dcroat" unicode="&#x110;" horiz-adv-x="1448" 
d="M632 1455q170 0 311.5 -54t239 -149.5t151 -231t53.5 -295.5t-51 -293.5t-146 -229.5t-236.5 -149t-315.5 -53h-530v547h-88v325h88v583h524zM613 346q108 0 192 51t129 137t45 191q0 107 -44.5 195t-122.5 138t-172 50h-154v-236h166v-325h-166v-201h127z" />
    <glyph glyph-name="dcroat" unicode="&#x111;" horiz-adv-x="1222" 
d="M1234 1305v-207h-106v-1098h-347v94h-4q-93 -115 -266 -115q-102 0 -188.5 38.5t-147.5 106.5t-95.5 165.5t-34.5 212.5q0 113 34 211t93.5 166t141.5 106.5t175 38.5q162 0 269 -121h3v195h-155v207h155v203h367v-203h106zM592 299q81 0 133 55.5t52 146.5q0 89 -52 145
t-133 56q-78 0 -128 -56t-50 -145q0 -45 13.5 -83t37 -64t56.5 -40.5t71 -14.5z" />
    <glyph glyph-name="Emacron" unicode="&#x112;" horiz-adv-x="1176" 
d="M263 1631v270h656v-270h-656zM106 0v1455h967v-347h-590v-219h462v-338h-462v-205h633v-346h-1010z" />
    <glyph glyph-name="emacron" unicode="&#x113;" horiz-adv-x="1116" 
d="M911 1454v-270h-656v270h656zM1072 509q0 -57 -10 -97h-658q12 -70 68.5 -107t139.5 -37q125 0 231 111l189 -208q-68 -85 -187.5 -138.5t-271.5 -53.5q-149 0 -269 65.5t-188.5 185.5t-68.5 272q0 150 66.5 269t185.5 186t268 67q107 0 201 -38.5t160.5 -105.5
t105 -163.5t38.5 -207.5zM565 745q-61 0 -104.5 -35.5t-55.5 -98.5h312q-7 31 -20.5 56t-32.5 42.5t-44.5 26.5t-54.5 9z" />
    <glyph glyph-name="Ebreve" unicode="&#x114;" horiz-adv-x="1176" 
d="M591 1572q-96 0 -176 37t-133 113t-61 179h260q3 -29 16 -52t37.5 -37t56.5 -14q22 0 40.5 6.5t33.5 19t24.5 32.5t10.5 45h261q-6 -68 -33.5 -127.5t-73.5 -104.5t-114 -71t-149 -26zM106 0v1455h967v-347h-590v-219h462v-338h-462v-205h633v-346h-1010z" />
    <glyph glyph-name="ebreve" unicode="&#x115;" horiz-adv-x="1116" 
d="M582 1125q-96 0 -176 37t-133 113t-61 179h260q4 -44 33 -73.5t77 -29.5q45 0 75.5 27t33.5 76h261q-5 -54 -23 -103t-50 -90.5t-74.5 -71.5t-100 -47t-122.5 -17zM1072 509q0 -57 -10 -97h-658q12 -70 68.5 -107t139.5 -37q125 0 231 111l189 -208q-69 -85 -188 -138.5
t-271 -53.5q-149 0 -269 65.5t-188.5 185.5t-68.5 272q0 150 66.5 269t185.5 186t268 67q107 0 201 -38.5t160.5 -105.5t105 -163.5t38.5 -207.5zM565 745q-61 0 -104.5 -35.5t-55.5 -98.5h312q-14 63 -53.5 98.5t-98.5 35.5z" />
    <glyph glyph-name="Edotaccent" unicode="&#x116;" horiz-adv-x="1176" 
d="M591 1564q-92 0 -151 56.5t-59 141.5q0 40 15.5 76t43 62.5t67 41.5t84.5 15q60 0 108.5 -25.5t75 -70t26.5 -99.5q0 -86 -59 -142t-151 -56zM106 0v1455h967v-347h-590v-219h462v-338h-462v-205h633v-346h-1010z" />
    <glyph glyph-name="edotaccent" unicode="&#x117;" horiz-adv-x="1116" 
d="M582 1117q-92 0 -151 56.5t-59 141.5q0 83 59.5 139t150.5 56q92 0 151 -55.5t59 -139.5q0 -86 -59 -142t-151 -56zM1072 509q0 -57 -10 -97h-658q12 -70 68.5 -107t139.5 -37q125 0 231 111l189 -208q-68 -85 -187.5 -138.5t-271.5 -53.5q-149 0 -269 65.5t-188.5 185.5
t-68.5 272q0 150 66.5 269t185.5 186t268 67q107 0 201 -38.5t160.5 -105.5t105 -163.5t38.5 -207.5zM565 745q-61 0 -104.5 -35.5t-55.5 -98.5h312q-7 31 -20.5 56t-32.5 42.5t-44.5 26.5t-54.5 9z" />
    <glyph glyph-name="Eogonek" unicode="&#x118;" horiz-adv-x="1176" 
d="M1116 0q-90 0 -146 -41.5t-56 -93.5q0 -38 20 -58.5t54 -20.5q18 0 31 1.5t24.5 4.5t15.5 4l14 -168q-55 -23 -157 -23q-118 0 -188 56.5t-70 143.5q0 32 10 64.5t34 67t60 60.5v3h-656v1455h967v-347h-590v-219h462v-338h-462v-205h633v-346z" />
    <glyph glyph-name="eogonek" unicode="&#x119;" horiz-adv-x="1116" 
d="M1072 509q0 -57 -10 -97h-658q12 -70 68.5 -107t139.5 -37q125 0 231 111l189 -208q-96 -118 -263 -165q-71 -24 -115 -60.5t-44 -80.5q0 -25 9.5 -43t26.5 -27t39 -9t35 1.5t22.5 4.5t14.5 4l13 -168q-56 -23 -158 -23q-118 0 -188 56.5t-70 143.5q0 48 23 97t71 87v3
q-180 39 -290.5 177t-110.5 333q0 150 66.5 269t185.5 186t268 67q107 0 201 -38.5t160.5 -105.5t105 -163.5t38.5 -207.5zM565 745q-61 0 -104.5 -35.5t-55.5 -98.5h312q-14 63 -53.5 98.5t-98.5 35.5z" />
    <glyph glyph-name="Ecaron" unicode="&#x11a;" horiz-adv-x="1176" 
d="M756 1583h-315l-232 318h307l75 -146h4l76 146h303zM483 346h633v-346h-1010v1455h967v-347h-590v-219h462v-338h-462v-205z" />
    <glyph glyph-name="ecaron" unicode="&#x11b;" horiz-adv-x="1116" 
d="M747 1136h-315l-232 318h307l75 -146h4l76 146h303zM1072 509q0 -57 -10 -97h-658q12 -70 68.5 -107t139.5 -37q125 0 231 111l189 -208q-68 -85 -187.5 -138.5t-271.5 -53.5q-149 0 -269 65.5t-188.5 185.5t-68.5 272q0 150 66.5 269t185.5 186t268 67q107 0 201 -38.5
t160.5 -105.5t105 -163.5t38.5 -207.5zM565 745q-61 0 -104.5 -35.5t-55.5 -98.5h312q-7 31 -20.5 56t-32.5 42.5t-44.5 26.5t-54.5 9z" />
    <glyph glyph-name="Gcircumflex" unicode="&#x11c;" horiz-adv-x="1486" 
d="M772 1728l-74 -145h-304l217 318h316l232 -318h-307l-76 145h-4zM791 520v314h613v-677q-101 -76 -260 -125.5t-323 -49.5q-127 0 -240.5 31t-208.5 93t-164 149.5t-107.5 207.5t-38.5 261q0 126 31.5 239.5t94 207t151 161.5t208 106t258.5 38q166 0 329.5 -70.5
t270.5 -198.5l-276 -233q-142 136 -325 136q-38 0 -74.5 -8t-69.5 -25t-62.5 -40.5t-53 -56t-40.5 -71t-26.5 -86t-9.5 -99.5q0 -78 24 -147.5t67.5 -123t111.5 -84.5t150 -31q114 0 218 48v134h-248z" />
    <glyph glyph-name="gcircumflex" unicode="&#x11d;" horiz-adv-x="1204" 
d="M605 1281l-74 -145h-304l217 318h316l232 -318h-307l-76 145h-4zM752 1003h366v-857q0 -105 -17 -189.5t-57 -157t-103 -121.5t-158.5 -76.5t-219.5 -27.5q-129 0 -225 21t-191 71l81 288q54 -34 136.5 -57.5t152.5 -23.5q116 0 180 46t64 116v91h-3q-96 -105 -265 -105
q-130 0 -233 64.5t-159.5 176t-56.5 249.5q0 110 33.5 206t90.5 163t136.5 105.5t169.5 38.5q169 0 275 -119h3v98zM591 343q76 0 126.5 49.5t50.5 128.5q0 52 -23.5 93t-64 63.5t-89.5 22.5q-75 0 -126.5 -50.5t-51.5 -128.5q0 -79 51 -128.5t127 -49.5z" />
    <glyph glyph-name="Gbreve" unicode="&#x11e;" horiz-adv-x="1486" 
d="M776 1572q-96 0 -176 37t-133 113t-61 179h260q4 -44 33 -73.5t77 -29.5q29 0 52.5 11.5t39 35t17.5 56.5h261q-6 -68 -33.5 -127.5t-73.5 -104.5t-114 -71t-149 -26zM821 -18q-127 0 -240.5 31t-208.5 93t-164 149.5t-107.5 207.5t-38.5 261q0 126 31.5 239.5t94 207
t151 161.5t208 106t258.5 38q166 0 329.5 -70.5t270.5 -198.5l-276 -233q-142 136 -325 136q-53 0 -102.5 -16t-92 -48.5t-74 -78t-49.5 -108t-18 -135.5q0 -78 24 -147.5t67.5 -123t111.5 -84.5t150 -31q114 0 218 48v134h-248v314h613v-677q-101 -76 -260 -125.5
t-323 -49.5z" />
    <glyph glyph-name="gbreve" unicode="&#x11f;" horiz-adv-x="1204" 
d="M609 1125q-72 0 -136 22t-114 62.5t-82 103.5t-38 141h260q3 -29 16 -52t37.5 -37t56.5 -14q22 0 40.5 6.5t33.5 19t24.5 32.5t10.5 45h261q-6 -68 -33.5 -127.5t-73.5 -104.5t-114 -71t-149 -26zM752 1003h366v-857q0 -105 -17 -189.5t-57 -157t-103 -121.5
t-158.5 -76.5t-219.5 -27.5q-129 0 -225 21t-191 71l81 288q54 -34 136.5 -57.5t152.5 -23.5q116 0 180 46t64 116v91h-3q-96 -105 -265 -105q-130 0 -233 64.5t-159.5 176t-56.5 249.5q0 110 33.5 206t90.5 163t136.5 105.5t169.5 38.5q169 0 275 -119h3v98zM591 343
q76 0 126.5 49.5t50.5 128.5q0 78 -51 128.5t-126 50.5t-126.5 -50.5t-51.5 -128.5q0 -79 51 -128.5t127 -49.5z" />
    <glyph glyph-name="Gdotaccent" unicode="&#x120;" horiz-adv-x="1486" 
d="M776 1564q-92 0 -151 56.5t-59 141.5q0 83 59.5 139t150.5 56q60 0 108.5 -25.5t75 -70t26.5 -99.5q0 -86 -59 -142t-151 -56zM821 -18q-127 0 -240.5 31t-208.5 93t-164 149.5t-107.5 207.5t-38.5 261q0 126 31.5 239.5t94 207t151 161.5t208 106t258.5 38
q166 0 329.5 -70.5t270.5 -198.5l-276 -233q-142 136 -325 136q-53 0 -102.5 -16t-92 -48.5t-74 -78t-49.5 -108t-18 -135.5q0 -78 24 -147.5t67.5 -123t111.5 -84.5t150 -31q114 0 218 48v134h-248v314h613v-677q-101 -76 -260 -125.5t-323 -49.5z" />
    <glyph glyph-name="gdotaccent" unicode="&#x121;" horiz-adv-x="1204" 
d="M609 1117q-92 0 -151 56.5t-59 141.5q0 54 26.5 98.5t75 70.5t108.5 26q92 0 151 -55.5t59 -139.5q0 -86 -59 -142t-151 -56zM752 1003h366v-857q0 -105 -17 -189.5t-57 -157t-103 -121.5t-158.5 -76.5t-219.5 -27.5q-129 0 -225 21t-191 71l81 288q54 -34 136.5 -57.5
t152.5 -23.5q116 0 180 46t64 116v91h-3q-96 -105 -265 -105q-130 0 -233 64.5t-159.5 176t-56.5 249.5q0 110 33.5 206t90.5 163t136.5 105.5t169.5 38.5q169 0 275 -119h3v98zM591 343q76 0 126.5 49.5t50.5 128.5q0 52 -23.5 93t-64 63.5t-89.5 22.5q-75 0 -126.5 -50.5
t-51.5 -128.5q0 -79 51 -128.5t127 -49.5z" />
    <glyph glyph-name="Gcommaaccent" unicode="&#x122;" horiz-adv-x="1486" 
d="M821 -18q-127 0 -240.5 31t-208.5 93t-164 149.5t-107.5 207.5t-38.5 261q0 126 31.5 239.5t94 207t151 161.5t208 106t258.5 38q108 0 217 -30t210 -91.5t173 -147.5l-276 -233q-142 136 -325 136q-53 0 -102.5 -16t-92 -48.5t-74 -78t-49.5 -108t-18 -135.5
q0 -78 24 -147.5t67.5 -123t111.5 -84.5t150 -31q114 0 218 48v134h-248v314h613v-677q-101 -76 -260 -125.5t-323 -49.5zM582 -455l-61 194q59 8 85 26.5t26 54.5q0 29 -15 71h287q13 -38 13 -79q0 -267 -335 -267z" />
    <glyph glyph-name="gcommaaccent" unicode="&#x123;" horiz-adv-x="1204" 
d="M756 1168h-287q-13 38 -13 79q0 267 335 267l61 -194q-59 -8 -85 -26.5t-26 -54.5q0 -29 15 -71zM752 1003h366v-857q0 -105 -17 -189.5t-57 -157t-103 -121.5t-158.5 -76.5t-219.5 -27.5q-129 0 -225 21t-191 71l81 288q54 -34 136.5 -57.5t152.5 -23.5q116 0 180 46
t64 116v91h-3q-96 -105 -265 -105q-130 0 -233 64.5t-159.5 176t-56.5 249.5q0 110 33.5 206t90.5 163t136.5 105.5t169.5 38.5q169 0 275 -119h3v98zM591 343q76 0 126.5 49.5t50.5 128.5q0 52 -23.5 93t-64 63.5t-89.5 22.5q-75 0 -126.5 -50.5t-51.5 -128.5
q0 -79 51 -128.5t127 -49.5z" />
    <glyph glyph-name="Hcircumflex" unicode="&#x124;" horiz-adv-x="1444" 
d="M725 1731l-74 -145h-304l217 318h316l232 -318h-307l-76 145h-4zM941 1455h394v-1455h-394v530h-439v-530h-394v1455h394v-580h439v580z" />
    <glyph glyph-name="hcircumflex" unicode="&#x125;" horiz-adv-x="1190" 
d="M547 1758l-74 -145h-304l217 318h316l232 -318h-307l-76 145h-4zM753 1024q53 0 97.5 -8.5t85.5 -27.5t72 -51t54 -77.5t35 -109t12 -143.5v-607h-366v519q0 71 -14.5 110.5t-44.5 55t-82 15.5q-68 0 -107 -48.5t-39 -147.5v-504h-366v1508h366v-616h3q38 44 85 73.5
t99.5 44t109.5 14.5z" />
    <glyph glyph-name="Hbar" unicode="&#x126;" horiz-adv-x="1459" 
d="M1421 1259v-206h-79v-1053h-394v530h-439v-530h-394v1053h-76v206h76v196h394v-196h439v196h394v-196h79zM948 875v178h-439v-178h439z" />
    <glyph glyph-name="hbar" unicode="&#x127;" horiz-adv-x="1190" 
d="M753 1024q53 0 97.5 -8.5t85.5 -27.5t72 -51t54 -77.5t35 -109t12 -143.5v-607h-366v519q0 104 -31.5 142.5t-109.5 38.5q-68 0 -107 -48.5t-39 -147.5v-504h-366v1098h-94v207h94v203h366v-203h168v-207h-168v-206h3q38 44 85 73.5t99.5 44t109.5 14.5z" />
    <glyph glyph-name="Itilde" unicode="&#x128;" horiz-adv-x="629" 
d="M105 1564l-210 84q37 121 109 197t169 76q43 0 82 -10t54 -17.5t48 -25.5q54 -33 94 -33q67 0 112 90l206 -68q-23 -83 -60 -146.5t-92 -103t-120 -39.5q-89 0 -179 51q-3 1 -12 6t-12 7l-11 5q-8 4 -12 5.5t-11 4.5t-11.5 4.5t-11 3t-12.5 2t-12 0.5q-65 0 -108 -93z
M117 0v1455h395v-1455h-395z" />
    <glyph glyph-name="itilde" unicode="&#x129;" horiz-adv-x="564" 
d="M118 1117l-208 84q37 122 104 197.5t157 75.5q29 0 55.5 -6t37 -10.5t36 -19.5t28.5 -17q54 -33 83 -33q61 0 106 90l204 -68q-22 -81 -64 -146t-99.5 -104t-119.5 -39q-14 0 -27 1t-25 4.5t-20.5 6t-21 8.5t-17.5 9t-19 11t-19 11q-9 5 -22.5 13.5t-21 13t-17.5 8
t-20 3.5q-47 0 -90 -93zM99 0v1003h365v-1003h-365z" />
    <glyph glyph-name="Imacron" unicode="&#x12a;" horiz-adv-x="629" 
d="M-13 1631v270h656v-270h-656zM117 0v1455h395v-1455h-395z" />
    <glyph glyph-name="imacron" unicode="&#x12b;" horiz-adv-x="564" 
d="M-46 1184v270h656v-270h-656zM99 0v1003h365v-1003h-365z" />
    <glyph glyph-name="Ibreve" unicode="&#x12c;" horiz-adv-x="629" 
d="M315 1572q-96 0 -176 37t-133 113t-61 179h260q4 -44 33 -73.5t77 -29.5q45 0 75.5 27t33.5 76h261q-6 -68 -33.5 -127.5t-73.5 -104.5t-114 -71t-149 -26zM117 0v1455h395v-1455h-395z" />
    <glyph glyph-name="ibreve" unicode="&#x12d;" horiz-adv-x="564" 
d="M282 1125q-86 0 -154.5 37t-113 112.5t-52.5 179.5h250q9 -103 70 -103q14 0 26 6.5t21 19.5t15 32.5t7 44.5h251q-6 -69 -28.5 -127.5t-61 -104t-97.5 -71.5t-133 -26zM99 0v1003h365v-1003h-365z" />
    <glyph glyph-name="Iogonek" unicode="&#x12e;" horiz-adv-x="629" 
d="M117 1455h395v-1455h-46q-90 0 -146 -41.5t-56 -93.5q0 -38 20 -58.5t54 -20.5q18 0 31 1.5t24.5 4.5t15.5 4l14 -168q-55 -23 -157 -23q-118 0 -188 56.5t-70 143.5q0 51 27 104t82 92v1454z" />
    <glyph glyph-name="iogonek" unicode="&#x12f;" horiz-adv-x="564" 
d="M282 1117q-92 0 -151 56.5t-59 141.5q0 54 26.5 98.5t75 70.5t108.5 26q92 0 151 -55.5t59 -139.5q0 -86 -59 -142t-151 -56zM99 1v1002h365v-1003h-17q-90 0 -146 -41.5t-56 -93.5q0 -38 20 -58.5t54 -20.5q18 0 31 1.5t24.5 4.5t15.5 4l14 -168q-55 -23 -157 -23
q-118 0 -188 56.5t-70 143.5q0 52 27 105t83 91z" />
    <glyph glyph-name="Idotaccent" unicode="&#x130;" horiz-adv-x="629" 
d="M315 1564q-92 0 -151 56.5t-59 141.5q0 83 59.5 139t150.5 56q92 0 151 -55.5t59 -139.5q0 -86 -59 -142t-151 -56zM117 0v1455h395v-1455h-395z" />
    <glyph glyph-name="dotlessi" unicode="&#x131;" horiz-adv-x="564" 
d="M99 0v1003h365v-1003h-365z" />
    <glyph glyph-name="IJ" unicode="&#x132;" horiz-adv-x="1642" 
d="M117 0v1455h395v-1455h-395zM1063 -21q-123 0 -237 52t-190 151l228 259q73 -99 163 -99q53 0 90 42.5t37 132.5v938h388v-910q0 -566 -479 -566z" />
    <glyph glyph-name="ij" unicode="&#x133;" horiz-adv-x="1111" 
d="M282 1117q-92 0 -151 56.5t-59 141.5q0 54 26.5 98.5t75 70.5t108.5 26q92 0 151 -55.5t59 -139.5q0 -86 -59 -142t-151 -56zM840 1117q-92 0 -151 56.5t-59 141.5q0 54 26.5 98.5t75 70.5t108.5 26q92 0 151 -55.5t59 -139.5q0 -86 -59 -142t-151 -56zM99 0v1003h365
v-1003h-365zM687 -425q-47 0 -87 3.5t-73.5 10.5t-46.5 11l-39 12l60 282q43 -15 84 -15q19 0 32 5.5t20.5 14.5t11.5 25.5t5 32.5t1 42v1004h365v-1044q0 -129 -37 -214.5t-110.5 -127.5t-185.5 -42z" />
    <glyph glyph-name="Jcircumflex" unicode="&#x134;" horiz-adv-x="1013" 
d="M722 1731l-74 -145h-304l217 318h316l232 -318h-307l-76 145h-4zM525 517v938h388v-910q0 -566 -479 -566q-123 0 -237 52t-190 151l228 259q73 -99 163 -99q53 0 90 42.5t37 132.5z" />
    <glyph glyph-name="jcircumflex" unicode="&#x135;" horiz-adv-x="547" 
d="M272 1281l-74 -145h-304l217 318h316l232 -318h-307l-76 145h-4zM91 -1v1004h365v-1044q0 -129 -37 -214.5t-110.5 -127.5t-185.5 -42q-62 0 -117 7.5t-75 13t-54 16.5l60 282q43 -15 84 -15q45 0 57.5 27.5t12.5 92.5z" />
    <glyph glyph-name="Kcommaaccent" unicode="&#x136;" horiz-adv-x="1354" 
d="M833 833l533 -833h-478l-309 523h-1l-83 -101v-422h-387v1455h387v-490h4l354 490h492zM542 -109h287q13 -38 13 -79q0 -267 -335 -267l-61 194q59 8 85 26.5t26 54.5q0 29 -15 71z" />
    <glyph glyph-name="kcommaaccent" unicode="&#x137;" horiz-adv-x="1106" 
d="M775 619l347 -619h-403l-183 341h-4l-76 -87v-254h-366v1508h366v-776h3l232 271h420zM407 -109h287q13 -38 13 -79q0 -267 -335 -267l-61 194q59 8 85 26.5t26 54.5q0 29 -15 71z" />
    <glyph glyph-name="kgreenlandic" unicode="&#x138;" horiz-adv-x="1106" 
d="M536 341h-4l-76 -87v-254h-366v1003h366v-271h3l232 271h420l-336 -384l347 -619h-403z" />
    <glyph glyph-name="Lacute" unicode="&#x139;" horiz-adv-x="1112" 
d="M330 1591l224 311l357 2l-253 -313h-328zM108 0v1455h392v-1109h578v-346h-970z" />
    <glyph glyph-name="lacute" unicode="&#x13a;" horiz-adv-x="564" 
d="M109 1618l224 311l357 2l-253 -313h-328zM99 0v1508h365v-1508h-365z" />
    <glyph glyph-name="Lcommaaccent" unicode="&#x13b;" horiz-adv-x="1112" 
d="M108 0v1455h392v-1109h578v-346h-970zM424 -455l-61 194q59 8 85 26.5t26 54.5q0 29 -15 71h287q13 -37 13 -79q0 -267 -335 -267z" />
    <glyph glyph-name="lcommaaccent" unicode="&#x13c;" horiz-adv-x="564" 
d="M99 0v1508h365v-1508h-365zM100 -455l-61 194q59 8 85 26.5t26 54.5q0 29 -15 71h287q13 -38 13 -79q0 -267 -335 -267z" />
    <glyph glyph-name="Lcaron" unicode="&#x13d;" horiz-adv-x="1150" 
d="M704 1173l70 464h342l-159 -464h-253zM108 0v1455h392v-1109h578v-346h-970z" />
    <glyph glyph-name="lcaron" unicode="&#x13e;" horiz-adv-x="671" 
d="M552 1173l70 464h341l-158 -464h-253zM99 0v1508h365v-1508h-365z" />
    <glyph glyph-name="Ldot" unicode="&#x13f;" horiz-adv-x="1112" 
d="M108 0v1455h392v-1109h578v-346h-970zM871 505q-83 0 -141.5 57.5t-58.5 139.5q0 52 27 97t73 71.5t100 26.5q82 0 140.5 -57.5t58.5 -137.5q0 -82 -58.5 -139.5t-140.5 -57.5z" />
    <glyph glyph-name="ldot" unicode="&#x140;" horiz-adv-x="1019" 
d="M99 0v1508h365v-1508h-365zM805 370q-83 0 -141.5 57.5t-58.5 139.5q0 80 59 137.5t141 57.5t140.5 -57.5t58.5 -137.5q0 -82 -58.5 -139.5t-140.5 -57.5z" />
    <glyph glyph-name="Lslash" unicode="&#x141;" horiz-adv-x="1138" 
d="M526 346h578v-346h-970v510l-124 -58v312l124 59v632h392v-447l143 67v-313l-143 -67v-349z" />
    <glyph glyph-name="lslash" unicode="&#x142;" horiz-adv-x="637" 
d="M609 962v-313l-108 -51v-598h-365v424l-104 -50v313l104 50v771h365v-597z" />
    <glyph glyph-name="Nacute" unicode="&#x143;" horiz-adv-x="1489" 
d="M1086 1904l-253 -313h-328l224 311zM991 1455h390v-1455h-404l-477 796h-5v-796h-387v1455h392l486 -820h5v820z" />
    <glyph glyph-name="nacute" unicode="&#x144;" horiz-adv-x="1180" 
d="M984 1453l-253 -313h-328l224 311zM743 1024q53 0 97.5 -8.5t85.5 -27.5t72 -51t54 -77.5t35 -109t12 -143.5v-607h-366v519q0 70 -14.5 110t-42 55.5t-74.5 15.5q-68 0 -107 -48.5t-39 -147.5v-504h-366v1003h366v-110h2q55 64 129 97.5t156 33.5z" />
    <glyph glyph-name="Ncommaaccent" unicode="&#x145;" horiz-adv-x="1489" 
d="M991 1455h390v-1455h-404l-477 796h-5v-796h-387v1455h392l486 -820h5v820zM598 -109h287q13 -38 13 -79q0 -267 -335 -267l-61 194q59 8 85 26.5t26 54.5q0 29 -15 71z" />
    <glyph glyph-name="ncommaaccent" unicode="&#x146;" horiz-adv-x="1180" 
d="M743 1024q53 0 97.5 -8.5t85.5 -27.5t72 -51t54 -77.5t35 -109t12 -143.5v-607h-366v519q0 70 -14.5 110t-42 55.5t-74.5 15.5q-68 0 -107 -48.5t-39 -147.5v-504h-366v1003h366v-110h2q55 64 129 97.5t156 33.5zM445 -109h287q13 -38 13 -79q0 -267 -335 -267l-61 194
q40 6 63.5 15.5t35.5 25.5t12 40q0 29 -15 71z" />
    <glyph glyph-name="Ncaron" unicode="&#x147;" horiz-adv-x="1489" 
d="M919 1586h-315l-232 318h307l75 -146h4l76 146h303zM991 1455h390v-1455h-404l-477 796h-5v-796h-387v1455h392l486 -820h5v820z" />
    <glyph glyph-name="ncaron" unicode="&#x148;" horiz-adv-x="1180" 
d="M784 1136h-315l-232 318h307l75 -146h4l76 146h303zM743 1024q53 0 97.5 -8.5t85.5 -27.5t72 -51t54 -77.5t35 -109t12 -143.5v-607h-366v519q0 70 -14.5 110t-42 55.5t-74.5 15.5q-68 0 -107 -48.5t-39 -147.5v-504h-366v1003h366v-110h2q55 64 129 97.5t156 33.5z" />
    <glyph glyph-name="napostrophe" unicode="&#x149;" horiz-adv-x="1490" 
d="M-73 971l70 484h341l-158 -484h-253zM1053 1024q64 0 115.5 -12t97.5 -41.5t77 -76t48.5 -119.5t17.5 -168v-607h-366v519q0 103 -30 142t-101 39q-68 0 -107 -48.5t-39 -147.5v-504h-366v1003h366v-110h2q56 64 129.5 97.5t155.5 33.5z" />
    <glyph glyph-name="Eng" unicode="&#x14a;" horiz-adv-x="1488" 
d="M991 1455h389v-1476q0 -404 -353 -404q-62 0 -117 7.5t-75 13t-54 16.5l60 272q43 -15 84 -15q40 0 54 25.5t16 73.5l-498 831h-4v-799h-385v1455h391l488 -822h4v822z" />
    <glyph glyph-name="eng" unicode="&#x14b;" horiz-adv-x="1156" 
d="M743 1024q56 0 104 -14t90.5 -46.5t72.5 -82t47.5 -124.5t17.5 -170v-608q0 -130 -36.5 -220t-111 -137t-185.5 -47q-62 0 -117 7.5t-75 13t-54 16.5l60 272q43 -15 84 -15q19 0 32 6.5t20.5 16.5t11.5 27t5 32t1 38l-1 530q0 96 -24.5 138.5t-84.5 42.5q-41 0 -72.5 -20
t-51.5 -65t-20 -111v-504h-366v1003h366v-116h3q54 67 127.5 102t156.5 35z" />
    <glyph glyph-name="Omacron" unicode="&#x14c;" horiz-adv-x="1633" 
d="M492 1634v270h656v-270h-656zM818 -21q-166 0 -307 55t-240 153t-154.5 237t-55.5 303t55.5 303.5t154.5 237.5t240 153t307 55q164 0 304 -54.5t239 -152t155 -237.5t56 -305t-56 -304.5t-155 -237t-239 -152t-304 -54.5zM817 342q101 0 181.5 51.5t124 139t43.5 194.5
t-43.5 194.5t-124 139t-181.5 51.5t-181 -51t-124.5 -139t-44.5 -195t44.5 -194.5t125 -139t180.5 -51.5z" />
    <glyph glyph-name="omacron" unicode="&#x14d;" horiz-adv-x="1194" 
d="M271 1184v270h656v-270h-656zM597 -21q-160 0 -285.5 65.5t-195 184.5t-69.5 272t69.5 272t195 185t285.5 66t285 -66t195 -185t70 -272t-70 -272t-195 -184.5t-285 -65.5zM597 302q78 0 130 56.5t52 142.5q0 88 -51 143.5t-131 55.5q-39 0 -73 -15t-58 -41t-37.5 -63
t-13.5 -80q0 -34 9 -65t25.5 -55t39 -42t50 -27.5t58.5 -9.5z" />
    <glyph glyph-name="Obreve" unicode="&#x14e;" horiz-adv-x="1633" 
d="M820 1575q-96 0 -176 37t-133 113t-61 179h260q3 -29 16 -51.5t37.5 -37t56.5 -14.5q45 0 75.5 27t33.5 76h261q-6 -68 -33.5 -127.5t-73.5 -104.5t-114 -71t-149 -26zM818 -21q-166 0 -307 55t-240 153t-154.5 237t-55.5 303t55.5 303.5t154.5 237.5t240 153t307 55
q164 0 304 -54.5t239 -152t155 -237.5t56 -305t-56 -304.5t-155 -237t-239 -152t-304 -54.5zM817 342q101 0 181.5 51.5t124 139t43.5 194.5t-43.5 194.5t-124 139t-181.5 51.5t-181 -51t-124.5 -139t-44.5 -195t44.5 -194.5t125 -139t180.5 -51.5z" />
    <glyph glyph-name="obreve" unicode="&#x14f;" horiz-adv-x="1194" 
d="M599 1125q-96 0 -176 37t-133 113t-61 179h260q1 -14 5 -27t10.5 -24.5t16 -21t21 -16.5t26.5 -10.5t31 -3.5q45 0 75.5 27t33.5 76h261q-6 -68 -33.5 -127.5t-73.5 -104.5t-114 -71t-149 -26zM597 -21q-160 0 -285.5 65.5t-195 184.5t-69.5 272t69.5 272t195 185
t285.5 66t285 -66t195 -185t70 -272t-70 -272t-195 -184.5t-285 -65.5zM597 302q78 0 130 56.5t52 142.5q0 58 -23 103.5t-64.5 70.5t-94.5 25q-80 0 -131 -55.5t-51 -143.5q0 -34 9 -65t25.5 -55t39 -42t50 -27.5t58.5 -9.5z" />
    <glyph glyph-name="Ohungarumlaut" unicode="&#x150;" horiz-adv-x="1633" 
d="M404 1591l222 311l357 2l-252 -313h-327zM892 1591l221 311l358 2l-252 -313h-327zM818 -21q-166 0 -307 55t-240 153t-154.5 237t-55.5 303t55.5 303.5t154.5 237.5t240 153t307 55q164 0 304 -54.5t239 -152t155 -237.5t56 -305t-56 -304.5t-155 -237t-239 -152
t-304 -54.5zM817 342q101 0 181.5 51.5t124 139t43.5 194.5t-43.5 194.5t-124 139t-181.5 51.5t-181 -51t-124.5 -139t-44.5 -195t44.5 -194.5t125 -139t180.5 -51.5z" />
    <glyph glyph-name="ohungarumlaut" unicode="&#x151;" horiz-adv-x="1194" 
d="M154 1140l222 311l357 2l-252 -313h-327zM642 1140l221 311l358 2l-252 -313h-327zM597 -21q-160 0 -285.5 65.5t-195 184.5t-69.5 272t69.5 272t195 185t285.5 66t285 -66t195 -185t70 -272t-70 -272t-195 -184.5t-285 -65.5zM597 302q78 0 130 56.5t52 142.5
q0 58 -23 103.5t-64.5 70.5t-94.5 25q-80 0 -131 -55.5t-51 -143.5q0 -34 9 -65t25.5 -55t39 -42t50 -27.5t58.5 -9.5z" />
    <glyph glyph-name="OE" unicode="&#x152;" horiz-adv-x="1928" 
d="M1245 346h623v-346h-1058q-82 0 -159.5 14t-145 40.5t-127.5 64.5t-109 86t-88 106.5t-65.5 124t-40.5 139t-14 151.5q0 157 55 292t152.5 231t237.5 151t304 55h1017v-346h-582v-223h460v-323h-460v-217zM810 362l60 1v729h-60q-97 0 -176 -50t-122.5 -133.5
t-43.5 -182.5q0 -98 43.5 -181.5t122.5 -133.5t176 -49z" />
    <glyph glyph-name="oe" unicode="&#x153;" horiz-adv-x="1657" 
d="M1624 504q0 -55 -10 -98h-600q22 -65 69 -99.5t113 -34.5q50 0 86.5 13t72.5 49l229 -165q-154 -190 -415 -190q-198 0 -334 119h-3q-127 -119 -306 -119q-104 0 -192.5 37t-152 104t-99 165t-35.5 216q0 117 37.5 215.5t102.5 166t155 104.5t194 37q169 0 293 -115h5
q131 115 329 115q131 0 236.5 -67t165 -186t59.5 -267zM1163 737q-36 0 -65 -12.5t-52.5 -43t-35.5 -76.5h276q-12 66 -46 99t-77 33zM536 302q54 0 90 56.5t36 142.5q0 88 -35 143.5t-91 55.5q-49 0 -85 -54t-36 -145t34.5 -145t86.5 -54z" />
    <glyph glyph-name="Racute" unicode="&#x154;" horiz-adv-x="1318" 
d="M960 1904l-253 -313h-328l224 311zM1303 0h-453l-274 444h-90v-444h-378v1455h583q134 0 236.5 -38.5t166 -108.5t95.5 -163t32 -207q0 -79 -16.5 -146.5t-48.5 -121.5t-77 -95t-104 -69l-1 -3zM486 1113v-332h118q96 0 154.5 43t58.5 123q0 71 -55.5 118.5t-157.5 47.5
h-118z" />
    <glyph glyph-name="racute" unicode="&#x155;" horiz-adv-x="763" 
d="M682 1453l-253 -313h-328l224 311zM739 1024h2v-391q-30 2 -77 2q-102 0 -155 -53.5t-53 -143.5v-438h-366v1003h366v-137h3q53 77 125.5 117.5t154.5 40.5z" />
    <glyph glyph-name="Rcommaaccent" unicode="&#x156;" horiz-adv-x="1318" 
d="M974 503l329 -503h-453l-274 444h-90v-444h-378v1455h583q134 0 236.5 -38.5t166 -108.5t95.5 -163t32 -207q0 -79 -16.5 -146.5t-48.5 -121.5t-77 -95t-104 -69zM486 1113v-332h118q96 0 154.5 43t58.5 123q0 71 -55.5 118.5t-157.5 47.5h-118zM526 -109h287
q13 -38 13 -79q0 -267 -335 -267l-61 194q59 8 85 26.5t26 54.5q0 29 -15 71z" />
    <glyph glyph-name="rcommaaccent" unicode="&#x157;" horiz-adv-x="763" 
d="M739 1024h2v-391q-30 2 -77 2q-102 0 -155 -53.5t-53 -143.5v-438h-366v1003h366v-137h3q53 77 125.5 117.5t154.5 40.5zM130 -109h287q13 -38 13 -79q0 -267 -335 -267l-61 194q30 4 50 10.5t34 16t20.5 23t6.5 31.5q0 29 -15 71z" />
    <glyph glyph-name="Rcaron" unicode="&#x158;" horiz-adv-x="1318" 
d="M793 1586h-315l-232 318h307l75 -146h4l76 146h303zM1303 0h-453l-274 444h-90v-444h-378v1455h583q134 0 236.5 -38.5t166 -108.5t95.5 -163t32 -207q0 -79 -16.5 -146.5t-48.5 -121.5t-77 -95t-104 -69l-1 -3zM486 1113v-332h118q96 0 154.5 43t58.5 123
q0 71 -55.5 118.5t-157.5 47.5h-118z" />
    <glyph glyph-name="rcaron" unicode="&#x159;" horiz-adv-x="763" 
d="M623 1136h-315l-232 318h307l75 -146h4l76 146h303zM459 866q53 77 125.5 117.5t154.5 40.5h2v-391q-30 2 -77 2q-102 0 -155 -53.5t-53 -143.5v-438h-366v1003h366v-137h3z" />
    <glyph glyph-name="Sacute" unicode="&#x15a;" horiz-adv-x="1144" 
d="M380 1591l224 311l357 2l-253 -313h-328zM555 -21q-146 0 -285 58.5t-253 174.5l220 271q81 -82 169.5 -121.5t162.5 -39.5q63 0 94 27.5t31 66.5q0 45 -35.5 73.5t-148.5 66.5q-53 18 -94.5 34.5t-89 41t-83.5 50.5t-70.5 63t-56 78.5t-35 95.5t-13.5 116
q0 122 62.5 221.5t173.5 157.5t249 61q145 3 276.5 -48.5t238.5 -145.5l-216 -278q-92 71 -156.5 101t-120.5 30q-50 0 -76 -23t-26 -63t37 -72.5t142 -72.5q184 -71 244 -103q132 -71 177 -176q30 -69 30 -163q0 -76 -17.5 -141t-48 -113.5t-73.5 -87.5t-91 -65t-103 -43
t-108 -24.5t-107 -7.5z" />
    <glyph glyph-name="sacute" unicode="&#x15b;" horiz-adv-x="891" 
d="M239 1141l224 311l357 2l-253 -313h-328zM426 -21q-241 0 -410 150l166 226q131 -114 251 -114q74 0 74 41q0 14 -8 23.5t-38.5 23.5t-90.5 31q-54 16 -98.5 34.5t-86.5 46.5t-70.5 62t-45.5 81t-17 103q0 80 30.5 145t83.5 106.5t122.5 63.5t148.5 22q80 0 148.5 -15
t125 -41.5t118.5 -70.5l-169 -243q-32 32 -69.5 55.5t-73.5 35.5t-68 12q-26 0 -44.5 -10.5t-18.5 -30.5q0 -16 26 -31.5t98 -38.5q74 -24 123.5 -44.5t93.5 -48.5t69 -61t39 -78t14 -103q0 -74 -26.5 -134.5t-78 -105t-133 -68.5t-185.5 -24z" />
    <glyph glyph-name="Scircumflex" unicode="&#x15c;" horiz-adv-x="1144" 
d="M572 1731l-74 -145h-304l217 318h316l232 -318h-307l-76 145h-4zM652 903q184 -71 244 -103q132 -71 177 -176q30 -69 30 -163q0 -76 -17.5 -141t-48 -113.5t-73.5 -87.5t-91 -65t-103 -43t-108 -24.5t-107 -7.5q-145 0 -284.5 58.5t-253.5 174.5l220 271
q81 -82 169.5 -121.5t162.5 -39.5q63 0 94 27.5t31 66.5q0 15 -3 27t-10.5 23.5t-20 21.5t-33.5 21t-49.5 22.5t-67.5 24.5q-53 18 -94.5 34.5t-89 41t-83.5 50.5t-70.5 63t-56 78.5t-35 95.5t-13.5 116q0 122 62.5 221.5t173.5 157.5t249 61q145 3 276.5 -48.5
t238.5 -145.5l-216 -278q-62 48 -112 77.5t-89 41.5t-76 12q-50 0 -76 -23t-26 -63t37 -72.5t142 -72.5z" />
    <glyph glyph-name="scircumflex" unicode="&#x15d;" horiz-adv-x="891" 
d="M446 1281l-74 -145h-304l217 318h316l232 -318h-307l-76 145h-4zM510 646q74 -24 123.5 -44.5t93.5 -48.5t69 -61t39 -78t14 -103q0 -74 -26.5 -134.5t-78 -105t-133 -68.5t-185.5 -24q-241 0 -410 150l166 226q131 -114 251 -114q74 0 74 41q0 14 -8 23.5t-38.5 23.5
t-90.5 31q-54 16 -98.5 34.5t-86.5 46.5t-70.5 62t-45.5 81t-17 103q0 80 30.5 145t83.5 106.5t122.5 63.5t148.5 22q80 0 148.5 -15t125 -41.5t118.5 -70.5l-169 -243q-32 32 -69.5 55.5t-73.5 35.5t-68 12q-26 0 -44.5 -10.5t-18.5 -30.5q0 -16 26 -31.5t98 -38.5z" />
    <glyph glyph-name="Scedilla" unicode="&#x15e;" horiz-adv-x="1144" 
d="M591 -20l-23 -39l1 -2q87 -3 137.5 -46t50.5 -121q0 -79 -65.5 -124t-201.5 -45q-74 0 -136 12v139q46 -14 111 -14q81 0 81 51q0 58 -157 58v79l35 63q-232 43 -407 221l220 271q81 -82 169.5 -121.5t162.5 -39.5q63 0 94 27.5t31 66.5q0 31 -13.5 51.5t-53 41.5
t-117.5 47q-53 18 -94.5 34.5t-89 41t-83.5 51t-70.5 63t-56 78t-35 95.5t-13.5 116q0 122 62.5 221.5t173.5 157.5t249 61q145 3 276.5 -48.5t238.5 -145.5l-216 -278q-62 48 -112 77.5t-89 41.5t-76 12q-50 0 -76 -23t-26 -63t37 -72.5t142 -72.5q184 -71 244 -103
q132 -71 177 -176q30 -69 30 -163q0 -100 -31 -181.5t-81 -134.5t-118 -90t-137.5 -54.5t-144.5 -20.5z" />
    <glyph glyph-name="scedilla" unicode="&#x15f;" horiz-adv-x="891" 
d="M485 -19l-24 -40l1 -2q87 -3 137.5 -46t50.5 -121q0 -79 -65.5 -124t-201.5 -45q-74 0 -136 12v139q46 -14 111 -14q81 0 81 51q0 58 -157 58v79l33 60q-169 26 -299 141l166 226q131 -114 251 -114q74 0 74 41q0 14 -8 23.5t-38.5 23.5t-90.5 31q-54 16 -98.5 34.5
t-86.5 46.5t-70.5 62t-45.5 81t-17 103q0 80 30.5 145t83.5 106.5t122.5 63.5t148.5 22q80 0 148.5 -15t125 -41.5t118.5 -70.5l-169 -243q-32 32 -69.5 55.5t-73.5 35.5t-68 12q-26 0 -44.5 -10.5t-18.5 -30.5q0 -16 26 -31.5t98 -38.5q74 -24 123.5 -44.5t93.5 -48.5
t69 -61t39 -78t14 -103q0 -69 -23 -126t-67.5 -100.5t-114 -70t-159.5 -33.5z" />
    <glyph glyph-name="Scaron" unicode="&#x160;" horiz-adv-x="1144" 
d="M741 1586h-315l-232 318h307l75 -146h4l76 146h303zM652 903q184 -71 244 -103q132 -71 177 -176q30 -69 30 -163q0 -76 -17.5 -141t-48 -113.5t-73.5 -87.5t-91 -65t-103 -43t-108 -24.5t-107 -7.5q-146 0 -285 58.5t-253 174.5l220 271q81 -82 169.5 -121.5
t162.5 -39.5q63 0 94 27.5t31 66.5q0 31 -13.5 51.5t-53 41.5t-117.5 47q-53 18 -94.5 34.5t-89 41t-83.5 50.5t-70.5 63t-56 78.5t-35 95.5t-13.5 116q0 122 62.5 221.5t173.5 157.5t249 61q145 3 276.5 -48.5t238.5 -145.5l-216 -278q-92 71 -156.5 101t-120.5 30
q-50 0 -76 -23t-26 -63t37 -72.5t142 -72.5z" />
    <glyph glyph-name="scaron" unicode="&#x161;" horiz-adv-x="891" 
d="M615 1136h-315l-232 318h307l75 -146h4l76 146h303zM510 646q61 -20 104.5 -37t84 -38.5t66.5 -46t46 -56t29 -70t9 -87.5q0 -74 -26.5 -134.5t-78 -105t-133 -68.5t-185.5 -24q-241 0 -410 150l166 226q130 -114 251 -114q74 0 74 41q0 14 -8 23.5t-38.5 23.5t-90.5 31
q-54 16 -98.5 34.5t-86.5 46.5t-70.5 62t-45.5 81t-17 103q0 80 30.5 145t83.5 106.5t122.5 63.5t148.5 22q118 0 208 -30.5t184 -96.5l-169 -243q-32 32 -69.5 55.5t-73.5 35.5t-68 12q-26 0 -44.5 -10.5t-18.5 -30.5q0 -16 26 -31.5t98 -38.5z" />
    <glyph glyph-name="uni0162" unicode="&#x162;" horiz-adv-x="1197" 
d="M36 1455h1125v-347h-368v-1108h-157l-36 -59l1 -2q87 -3 137.5 -46t50.5 -121q0 -79 -65.5 -124t-201.5 -45q-74 0 -136 12v139q46 -14 111 -14q81 0 81 51q0 58 -157 58v79l40 72h-55v1108h-370v347z" />
    <glyph glyph-name="uni0163" unicode="&#x163;" horiz-adv-x="774" 
d="M429 -61q87 -3 137.5 -46t50.5 -121q0 -79 -65.5 -124t-201.5 -45q-74 0 -136 12v139q45 -14 111 -14q81 0 81 51q0 58 -157 58v79l44 79q-76 35 -119.5 112.5t-43.5 195.5v398h-109v290h109v315l365 38v-353h218v-290h-218v-319q0 -21 2 -36.5t8 -32t20.5 -25t35.5 -8.5
q39 0 74 16l89 -255q-63 -35 -122.5 -53.5t-150.5 -20.5l-23 -38z" />
    <glyph glyph-name="Tcaron" unicode="&#x164;" horiz-adv-x="1197" 
d="M762 1586h-315l-232 318h307l75 -146h4l76 146h303zM36 1455h1125v-347h-368v-1108h-387v1108h-370v347z" />
    <glyph glyph-name="tcaron" unicode="&#x165;" horiz-adv-x="774" 
d="M565 1173l70 464h341l-158 -464h-253zM431 -21q-65 0 -119.5 20.5t-95 61t-63.5 105.5t-23 149v398h-109v290h109v315l365 38v-353h218v-290h-218v-319q0 -21 2 -36.5t8 -31.5t20.5 -25t35.5 -9q39 0 74 16l89 -255q-65 -37 -129 -55.5t-164 -18.5z" />
    <glyph glyph-name="Tbar" unicode="&#x166;" horiz-adv-x="1197" 
d="M1161 1108h-368v-239h241v-270h-241v-599h-387v599h-222v270h222v239h-370v347h1125v-347z" />
    <glyph glyph-name="tbar" unicode="&#x167;" horiz-adv-x="774" 
d="M635 308l89 -255q-65 -37 -129 -55.5t-164 -18.5q-65 0 -119.5 20.5t-95 61t-63.5 105.5t-23 149v106h-84v206h84v86h-109v290h109v315l365 38v-353h218v-290h-218v-86h179v-206h-179v-27q0 -21 2 -36.5t8 -32t20.5 -25t35.5 -8.5q39 0 74 16z" />
    <glyph glyph-name="Utilde" unicode="&#x168;" horiz-adv-x="1416" 
d="M497 1567l-210 84q37 121 109 197t169 76q33 0 60 -4t53 -14.5t35.5 -15.5t35.5 -19q54 -33 94 -33q67 0 112 90l206 -68q-35 -128 -105.5 -208.5t-166.5 -80.5q-89 0 -179 51q-2 1 -13 7t-13.5 7t-12.5 6t-13.5 6.5t-12 4.5t-14 4t-12.5 2t-14 1q-65 0 -108 -93z
M705 -21q-137 0 -249.5 41.5t-193 120.5t-124.5 199t-44 271v844h394v-822q0 -80 22.5 -144.5t73 -106t121.5 -41.5q64 0 114.5 33.5t80 100.5t29.5 158v822h392v-844q0 -191 -70 -332.5t-210 -220.5t-336 -79z" />
    <glyph glyph-name="utilde" unicode="&#x169;" horiz-adv-x="1160" 
d="M481 1210q-65 0 -108 -93l-210 84q37 121 109 197t169 76q43 0 82 -10t54 -17.5t48 -25.5q54 -33 94 -33q67 0 112 90l206 -68q-23 -83 -60 -146.5t-92 -103t-120 -39.5q-89 0 -179 51q-2 1 -13 7t-13.5 7t-12.5 6t-13.5 6.5t-12 4.5t-14 4t-12.5 2t-14 1zM708 1003h367
v-1003h-367v107h-4q-51 -63 -121.5 -95.5t-151.5 -32.5q-355 0 -355 437v587h365v-499q0 -107 30.5 -154.5t100.5 -47.5q61 0 98.5 49.5t37.5 147.5v504z" />
    <glyph glyph-name="Umacron" unicode="&#x16a;" horiz-adv-x="1416" 
d="M379 1634v270h656v-270h-656zM705 -21q-138 0 -250 41.5t-192.5 120.5t-124.5 199t-44 271v844h394v-822q0 -80 22.5 -144.5t73 -106t121.5 -41.5q64 0 114.5 33.5t80 100.5t29.5 158v822h392v-844q0 -191 -70 -332.5t-210 -220.5t-336 -79z" />
    <glyph glyph-name="umacron" unicode="&#x16b;" horiz-adv-x="1160" 
d="M911 1454v-270h-656v270h656zM708 1003h367v-1003h-367v107h-4q-51 -63 -121.5 -95.5t-151.5 -32.5q-355 0 -355 437v587h365v-499q0 -107 30.5 -154.5t100.5 -47.5q61 0 98.5 49.5t37.5 147.5v504z" />
    <glyph glyph-name="Ubreve" unicode="&#x16c;" horiz-adv-x="1416" 
d="M707 1575q-96 0 -176 37t-133 113t-61 179h260q4 -44 33 -73.5t77 -29.5q45 0 75.5 27t33.5 76h261q-6 -68 -33.5 -127.5t-73.5 -104.5t-114 -71t-149 -26zM705 -21q-138 0 -250 41.5t-192.5 120.5t-124.5 199t-44 271v844h394v-822q0 -59 13 -111t39 -93t68.5 -64.5
t96.5 -23.5q64 0 114.5 33.5t80 100.5t29.5 158v822h392v-844q0 -191 -70 -332.5t-210 -220.5t-336 -79z" />
    <glyph glyph-name="ubreve" unicode="&#x16d;" horiz-adv-x="1160" 
d="M583 1125q-96 0 -176 37t-133 113t-61 179h260q4 -44 33 -73.5t77 -29.5q29 0 52.5 11.5t39 35t17.5 56.5h261q-6 -68 -33.5 -127.5t-73.5 -104.5t-114 -71t-149 -26zM708 1003h367v-1003h-367v107h-4q-34 -42 -77.5 -71t-92.5 -43t-103 -14q-355 0 -355 437v587h365
v-499q0 -107 30.5 -154.5t100.5 -47.5q61 0 98.5 49.5t37.5 147.5v504z" />
    <glyph glyph-name="Uring" unicode="&#x16e;" horiz-adv-x="1416" 
d="M707 1551q-95 0 -160.5 61.5t-65.5 156.5q0 92 63 154.5t163 62.5q96 0 161.5 -61t65.5 -156q0 -92 -63 -155t-164 -63zM707 1701q30 0 50 21t20 51q0 19 -9 35t-25 25.5t-36 9.5q-19 0 -35 -10t-25.5 -26.5t-9.5 -35.5t9.5 -35t25.5 -25.5t35 -9.5zM705 -21
q-137 0 -249.5 41.5t-193 120.5t-124.5 199t-44 271v844h394v-822q0 -80 22.5 -144.5t73 -106t121.5 -41.5q64 0 114.5 33.5t80 100.5t29.5 158v822h392v-844q0 -191 -70 -332.5t-210 -220.5t-336 -79z" />
    <glyph glyph-name="uring" unicode="&#x16f;" horiz-adv-x="1160" 
d="M583 1101q-95 0 -160.5 61.5t-65.5 156.5q0 92 63 154.5t163 62.5q96 0 161.5 -61t65.5 -156q0 -92 -63 -155t-164 -63zM583 1393q-28 0 -49 -21.5t-21 -50.5t20.5 -49.5t49.5 -20.5q30 0 50 21t20 51q0 14 -5.5 27t-14.5 22.5t-22 15t-28 5.5zM708 1003h367v-1003h-367
v107h-4q-34 -42 -77.5 -71t-92.5 -43t-103 -14q-355 0 -355 437v587h365v-499q0 -107 30.5 -154.5t100.5 -47.5q61 0 98.5 49.5t37.5 147.5v504z" />
    <glyph glyph-name="Uhungarumlaut" unicode="&#x170;" horiz-adv-x="1416" 
d="M241 1591l222 311l357 2l-252 -313h-327zM729 1591l221 311l358 2l-252 -313h-327zM705 -21q-138 0 -250 41.5t-192.5 120.5t-124.5 199t-44 271v844h394v-822q0 -80 22.5 -144.5t73 -106t121.5 -41.5q64 0 114.5 33.5t80 100.5t29.5 158v822h392v-844q0 -191 -70 -332.5
t-210 -220.5t-336 -79z" />
    <glyph glyph-name="uhungarumlaut" unicode="&#x171;" horiz-adv-x="1162" 
d="M739 1453l-252 -313h-327l222 311zM975 1140h-327l221 311l358 2zM708 499v504h367v-1003h-367v107h-4q-51 -63 -121.5 -95.5t-151.5 -32.5q-355 0 -355 437v587h365v-499q0 -107 30.5 -154.5t100.5 -47.5q61 0 98.5 49.5t37.5 147.5z" />
    <glyph glyph-name="Uogonek" unicode="&#x172;" horiz-adv-x="1416" 
d="M929 1455h392v-844q0 -227 -100 -383.5t-287 -215.5q-184 -67 -184 -158q0 -33 20 -50.5t54 -17.5q13 0 25.5 1.5t28 5t17.5 3.5l14 -168q-55 -23 -157 -23q-118 0 -188 56.5t-70 143.5q0 46 21.5 94t65.5 85v4q-227 35 -357 196t-130 427v844h394v-822
q0 -80 22.5 -144.5t73 -106t121.5 -41.5q64 0 114.5 33.5t80 100.5t29.5 158v822z" />
    <glyph glyph-name="uogonek" unicode="&#x173;" horiz-adv-x="1160" 
d="M708 1003h367v-1003h-19q-90 0 -146 -41.5t-56 -93.5q0 -38 20 -58.5t54 -20.5q18 0 31 1.5t24.5 4.5t15.5 4l14 -168q-55 -23 -157 -23q-118 0 -188 56.5t-70 143.5q0 52 27 105t83 91v106h-4q-51 -63 -121.5 -95.5t-151.5 -32.5q-355 0 -355 437v587h365v-499
q0 -107 30.5 -154.5t100.5 -47.5q61 0 98.5 49.5t37.5 147.5v504z" />
    <glyph glyph-name="Wcircumflex" unicode="&#x174;" horiz-adv-x="2089" 
d="M1042 1731l-74 -145h-304l217 318h316l232 -318h-307l-76 145h-4zM1658 1455h416l-452 -1455h-354l-216 885h-4l-227 -885h-354l-452 1455h415l212 -811h5l194 811h410l191 -811h5z" />
    <glyph glyph-name="wcircumflex" unicode="&#x175;" horiz-adv-x="1562" 
d="M777 1281l-74 -145h-304l217 318h316l232 -318h-307l-76 145h-4zM1192 1003h360l-337 -1003h-284l-149 565h-2l-143 -565h-290l-337 1003h361l141 -481h2l127 481h278l129 -481h2z" />
    <glyph glyph-name="Ycircumflex" unicode="&#x176;" horiz-adv-x="1312" 
d="M653 1731l-74 -145h-304l217 318h316l232 -318h-307l-76 145h-4zM874 1455h451l-472 -827v-628h-397v628l-469 827h447l222 -445h2z" />
    <glyph glyph-name="ycircumflex" unicode="&#x177;" horiz-adv-x="1100" 
d="M551 1281l-74 -145h-304l217 318h316l232 -318h-307l-76 145h-4zM719 1003h373l-515 -1408h-355l170 479l-384 929h377l170 -475h4z" />
    <glyph glyph-name="Ydieresis" unicode="&#x178;" horiz-adv-x="1312" 
d="M412 1567q-92 0 -151 56.5t-59 141.5q0 83 59.5 139t150.5 56q92 0 151 -55.5t59 -139.5q0 -86 -59 -142t-151 -56zM895 1567q-92 0 -151 56.5t-59 141.5q0 83 59.5 139t150.5 56q60 0 108.5 -25.5t75 -70t26.5 -99.5q0 -86 -59 -142t-151 -56zM874 1455h451l-472 -827
v-628h-397v628l-469 827h447l222 -445h2z" />
    <glyph glyph-name="Zacute" unicode="&#x179;" horiz-adv-x="1243" 
d="M947 1904l-253 -313h-328l224 311zM1176 1161l-610 -811v-4h609v-346h-1107v303l589 801v4h-572v347h1091v-294z" />
    <glyph glyph-name="zacute" unicode="&#x17a;" horiz-adv-x="967" 
d="M865 1453l-253 -313h-328l224 311zM926 766l-409 -478v-3h388v-285h-856v239l398 477v4h-358v283h837v-237z" />
    <glyph glyph-name="Zdotaccent" unicode="&#x17b;" horiz-adv-x="1243" 
d="M615 1567q-92 0 -151 56.5t-59 141.5q0 83 59.5 139t150.5 56q92 0 151 -55.5t59 -139.5q0 -86 -59 -142t-151 -56zM1176 1161l-610 -811v-4h609v-346h-1107v303l589 801v4h-572v347h1091v-294z" />
    <glyph glyph-name="zdotaccent" unicode="&#x17c;" horiz-adv-x="967" 
d="M488 1117q-92 0 -151 56.5t-59 141.5q0 54 26.5 98.5t75 70.5t108.5 26t108.5 -25.5t75 -70t26.5 -99.5q0 -86 -59 -142t-151 -56zM926 766l-409 -478v-3h388v-285h-856v239l398 477v4h-358v283h837v-237z" />
    <glyph glyph-name="Zcaron" unicode="&#x17d;" horiz-adv-x="1243" 
d="M780 1586h-315l-232 318h307l75 -146h4l76 146h303zM1176 1161l-610 -811v-4h609v-346h-1107v303l589 801v4h-572v347h1091v-294z" />
    <glyph glyph-name="zcaron" unicode="&#x17e;" horiz-adv-x="967" 
d="M653 1136h-315l-232 318h307l75 -146h4l76 146h303zM926 766l-409 -478v-3h388v-285h-856v239l398 477v4h-358v283h837v-237z" />
    <glyph glyph-name="longs" unicode="&#x17f;" horiz-adv-x="715" 
d="M125 0v713h-91v290h91v143q0 189 93 286t251 97q94 0 171.5 -28.5t107.5 -53.5l-63 -248q-22 12 -54 19.5t-52 7.5q-41 0 -64 -19t-23 -66v-1141h-367z" />
    <glyph glyph-name="uni018F" unicode="&#x18f;" horiz-adv-x="1474" 
d="M666 1476q167 0 306 -54t236 -152t151 -239t54 -310q0 -162 -51 -300.5t-140 -235t-214 -151.5t-269 -55q-155 0 -284 54.5t-215.5 151t-134 229.5t-47.5 290q0 47 8 122h945q-25 136 -107.5 213t-205.5 77q-159 0 -307 -74l-193 313q46 24 88.5 41.5t103 37.5t131.5 31
t145 11zM722 337q86 0 152.5 43t103.5 123h-508q34 -79 97.5 -122.5t154.5 -43.5z" />
    <glyph glyph-name="florin" unicode="&#x192;" horiz-adv-x="1105" 
d="M196 -371q-57 0 -108.5 7t-87 17t-64.5 23t-45 23.5t-25 19.5l122 236q94 -17 135 -17q56 0 86.5 35t42.5 121l73 576h-150l41 295h150l26 189q23 182 127.5 278.5t290.5 96.5q69 0 130 -10.5t101 -26.5t64 -29.5t35 -24.5l-122 -236q-108 17 -136 17q-57 0 -87.5 -35.5
t-40.5 -122.5l-11 -96h240l-41 -295h-241l-86 -666q-26 -185 -128 -280t-291 -95z" />
    <glyph glyph-name="uni019D" unicode="&#x19d;" horiz-adv-x="1489" 
d="M991 1455h390v-1455h-404l-477 796h-5v-817q0 -404 -355 -404q-62 0 -117 7.5t-75 13t-54 16.5l60 272q43 -15 84 -15q19 0 32 6.5t20.5 16.5t11.5 27t5 32t1 38v1466h392l486 -820h5v820z" />
    <glyph glyph-name="Ohorn" unicode="&#x1a0;" horiz-adv-x="1693" 
d="M1449 1587h293v-160q0 -281 -244 -346l-1 -3q75 -159 75 -351q0 -165 -56 -304.5t-155 -237t-239 -152t-304 -54.5q-166 0 -307 55t-240 153t-154.5 237t-55.5 303t55.5 303.5t154.5 237.5t240 153t307 55q119 0 226.5 -29t195.5 -83.5t155 -131.5q32 23 43 64t11 112
v179zM817 342q101 0 181.5 51.5t124 139t43.5 194.5t-43.5 194.5t-124 139t-181.5 51.5t-181 -51t-124.5 -139t-44.5 -195t44.5 -194.5t125 -139t180.5 -51.5z" />
    <glyph glyph-name="ohorn" unicode="&#x1a1;" horiz-adv-x="1435" 
d="M1095 1159h293v-160q0 -290 -257 -349l-2 -5q18 -68 18 -144q0 -153 -70 -272t-195 -184.5t-285 -65.5t-285.5 65.5t-195 184.5t-69.5 272t69.5 272t195 185t285.5 66q146 0 263.5 -55.5t190.5 -156.5q25 23 34.5 63t9.5 105v179zM597 302q78 0 130 56.5t52 142.5
q0 88 -51 143.5t-131 55.5t-131 -55.5t-51 -143.5q0 -34 9 -65t25.5 -55t39 -42t50 -27.5t58.5 -9.5z" />
    <glyph glyph-name="Uhorn" unicode="&#x1af;" horiz-adv-x="1696" 
d="M1450 1587h293v-160q0 -100 -30.5 -172.5t-88 -114.5t-132.5 -61t-171 -17v-451q0 -191 -70 -332.5t-210 -220.5t-336 -79q-138 0 -250 41.5t-192.5 120.5t-124.5 199t-44 271v844h394v-822q0 -80 22.5 -144.5t73 -106t121.5 -41.5q64 0 114.5 33.5t80 100.5t29.5 158
v822h392v-249q28 4 48.5 12t34.5 21t23 28.5t14 38t7 46t2 56.5v179z" />
    <glyph glyph-name="uhorn" unicode="&#x1b0;" horiz-adv-x="1490" 
d="M1180 1159h293v-160q0 -78 -19 -139t-53.5 -103t-84.5 -69.5t-109.5 -40t-131.5 -13.5v-634h-367v107h-4q-51 -63 -121.5 -95.5t-151.5 -32.5q-355 0 -355 437v587h365v-499q0 -107 30.5 -154.5t100.5 -47.5q61 0 98.5 49.5t37.5 147.5v504h367v-220q64 16 84.5 60.5
t20.5 136.5v179z" />
    <glyph glyph-name="Gcaron" unicode="&#x1e6;" horiz-adv-x="1486" 
d="M941 1583h-315l-232 318h307l75 -146h4l76 146h303zM791 520v314h613v-677q-101 -76 -260 -125.5t-323 -49.5q-127 0 -240.5 31t-208.5 93t-164 149.5t-107.5 207.5t-38.5 261q0 126 31.5 239.5t94 207t151 161.5t208 106t258.5 38q166 0 329.5 -70.5t270.5 -198.5
l-276 -233q-142 136 -325 136q-38 0 -74.5 -8t-69.5 -25t-62.5 -40.5t-53 -56t-40.5 -71t-26.5 -86t-9.5 -99.5q0 -78 24 -147.5t67.5 -123t111.5 -84.5t150 -31q114 0 218 48v134h-248z" />
    <glyph glyph-name="gcaron" unicode="&#x1e7;" horiz-adv-x="1204" 
d="M774 1136h-315l-232 318h307l75 -146h4l76 146h303zM752 1003h366v-857q0 -105 -17 -189.5t-57 -157t-103 -121.5t-158.5 -76.5t-219.5 -27.5q-129 0 -225 21t-191 71l81 288q54 -34 136.5 -57.5t152.5 -23.5q116 0 180 46t64 116v91h-3q-96 -105 -265 -105
q-130 0 -233 64.5t-159.5 176t-56.5 249.5q0 110 33.5 206t90.5 163t136.5 105.5t169.5 38.5q169 0 275 -119h3v98zM591 343q76 0 126.5 49.5t50.5 128.5q0 52 -23.5 93t-64 63.5t-89.5 22.5q-75 0 -126.5 -50.5t-51.5 -128.5q0 -79 51 -128.5t127 -49.5z" />
    <glyph glyph-name="uni01EA" unicode="&#x1ea;" horiz-adv-x="1633" 
d="M1572 727q0 -279 -152 -474t-407 -253h1h-2q-39 -9 -94 -16q-49 -18 -77.5 -51t-28.5 -68q0 -38 20 -58.5t54 -20.5q18 0 31 1.5t24.5 4.5t15.5 4l14 -168q-55 -23 -157 -23q-118 0 -188 56.5t-70 143.5q0 49 23 98.5t72 86.5v4q-177 33 -310.5 133t-206.5 255t-73 345
q0 164 55.5 303.5t154.5 237.5t240 153t307 55q164 0 304 -54.5t239 -152t155 -237.5t56 -305zM817 342q101 0 181.5 51.5t124 139t43.5 194.5t-43.5 194.5t-124 139t-181.5 51.5t-181 -51t-124.5 -139t-44.5 -195t44.5 -194.5t125 -139t180.5 -51.5z" />
    <glyph glyph-name="uni01EB" unicode="&#x1eb;" horiz-adv-x="1194" 
d="M662 -18q-47 -18 -73.5 -50t-26.5 -67q0 -38 20 -58.5t54 -20.5q18 0 31 1.5t24.5 4.5t15.5 4l14 -168q-55 -23 -157 -23q-79 0 -138 26.5t-89.5 71.5t-30.5 102q0 33 10.5 66t35.5 68t62 61v4q-169 49 -268 181.5t-99 315.5q0 153 69.5 272t195 185t285.5 66t285 -66
t195 -185t70 -272q0 -215 -134 -357t-351 -162zM597 700q-80 0 -131 -55.5t-51 -143.5q0 -86 52 -142.5t130 -56.5t130 56.5t52 142.5q0 58 -23 103.5t-64.5 70.5t-94.5 25z" />
    <glyph glyph-name="Aringacute" unicode="&#x1fa;" horiz-adv-x="1420" 
d="M711 1552q-95 0 -160.5 61.5t-65.5 156.5q0 92 63 154.5t163 62.5q81 0 139 -43l128 105l359 2l-406 -338q-18 -71 -77 -116t-143 -45zM711 1844q-14 0 -27 -6t-22.5 -16t-15 -23t-5.5 -27q0 -29 20.5 -49.5t49.5 -20.5q20 0 36 9.5t25 26t9 36.5q0 29 -20 49.5t-50 20.5
zM1017 0l-73 235h-467l-73 -235h-408l528 1455h372l528 -1455h-407zM578 562h264l-130 418h-4z" />
    <glyph glyph-name="aringacute" unicode="&#x1fb;" horiz-adv-x="1204" 
d="M595 1101q-95 0 -160.5 61.5t-65.5 156.5q0 92 63 154.5t163 62.5q86 0 150 -51l142 114l357 1l-436 -359q-22 -63 -78.5 -101.5t-134.5 -38.5zM595 1393q-28 0 -49 -21.5t-21 -50.5t20.5 -49.5t49.5 -20.5q30 0 50 21t20 51q0 14 -5.5 27t-14.5 22.5t-22 15t-28 5.5z
M751 904v99h367v-1003h-347v94h-3q-90 -115 -258 -115q-102 0 -188.5 38.5t-147.5 106.5t-95.5 165.5t-34.5 212.5q0 113 34 211t93.5 166t141.5 106.5t175 38.5q156 0 260 -120h3zM591 299q75 0 125.5 56t50.5 146q0 88 -50.5 144.5t-125.5 56.5q-78 0 -128 -56t-50 -145
q0 -91 50 -146.5t128 -55.5z" />
    <glyph glyph-name="AEacute" unicode="&#x1fc;" horiz-adv-x="1942" 
d="M1329 1904l-253 -313h-328l224 311zM1248 346h634v-346h-1011v236h-362l-105 -236h-408l678 1455h1166v-347h-592v-220h472v-332h-472v-210zM655 562h216v478h-3z" />
    <glyph glyph-name="aeacute" unicode="&#x1fd;" horiz-adv-x="1618" 
d="M1194 1454l-253 -313h-328l224 311zM1574 504q0 -37 -10 -91h-630q21 -67 72 -102.5t126 -35.5q72 0 127.5 32t89.5 72l185 -210q-68 -83 -184 -136.5t-255 -53.5q-63 0 -122.5 15.5t-107.5 42.5t-86 63h-5q-62 -56 -160.5 -88.5t-198.5 -32.5q-96 0 -169 23.5t-118.5 66
t-68.5 98t-23 123.5q0 315 417 315l129 2v4q0 76 -29.5 106t-93.5 30q-106 0 -203 -61l-158 241q48 27 160.5 62t219.5 35q105 0 178.5 -24t122.5 -82h5q122 106 295 106q83 0 159 -25t136.5 -72t105.5 -110.5t69.5 -144t24.5 -168.5zM1077 736q-52 0 -91 -32t-55 -99h287
q-20 131 -141 131zM463 227q24 0 44.5 8t33.5 20.5t22.5 27t14 26.5t4.5 21v89l-87 -2q-56 -2 -87.5 -26t-31.5 -72q0 -44 23 -68t64 -24z" />
    <glyph glyph-name="Oslashacute" unicode="&#x1fe;" horiz-adv-x="1634" 
d="M1234 1900l-253 -313h-328l224 311zM1406 1220q166 -202 166 -493q0 -165 -56 -304.5t-155 -237t-239 -152t-304 -54.5q-247 0 -432 118l-159 -175l-142 132l153 168q-42 49 -75 105.5t-55.5 119.5t-34.5 134t-12 146q0 164 55.5 303.5t154.5 237.5t240 153t307 55
q256 0 446 -128l152 167l141 -129zM467 727q0 -111 48 -201l486 533q-81 53 -184 53q-101 0 -181 -51t-124.5 -139t-44.5 -195zM817 342q76 0 141.5 30t111 82t71 122.5t25.5 150.5q0 100 -40 185l-478 -526q77 -44 169 -44z" />
    <glyph glyph-name="oslashacute" unicode="&#x1ff;" horiz-adv-x="1194" 
d="M995 1455l-253 -313h-328l224 311zM1017 854q130 -141 130 -353q0 -153 -70 -272t-195 -184.5t-285 -65.5q-175 0 -310 80l-105 -114l-117 108l100 109q-118 138 -118 339q0 153 69.5 272t195 185t285.5 66q168 0 295 -72l94 103l117 -108zM415 501q0 -28 7 -59l230 250
q-27 8 -55 8q-52 0 -93.5 -25t-65 -70.5t-23.5 -103.5zM597 302q51 0 92.5 25.5t65.5 71t24 102.5q0 40 -13 79l-242 -263q33 -15 73 -15z" />
    <glyph glyph-name="Scommaaccent" unicode="&#x218;" horiz-adv-x="1144" 
d="M555 -21q-146 0 -285 58.5t-253 174.5l220 271q81 -82 169.5 -121.5t162.5 -39.5q63 0 94 27.5t31 66.5q0 45 -35.5 73.5t-148.5 66.5q-53 18 -94.5 34.5t-89 41t-83.5 50.5t-70.5 63t-56 78.5t-35 95.5t-13.5 116q0 122 62.5 221.5t173.5 157.5t249 61
q145 3 276.5 -48.5t238.5 -145.5l-216 -278q-92 71 -156.5 101t-120.5 30q-50 0 -76 -23t-26 -63t37 -72.5t142 -72.5q184 -71 244 -103q132 -71 177 -176q30 -69 30 -163q0 -76 -17.5 -141t-48 -113.5t-73.5 -87.5t-91 -65t-103 -43t-108 -24.5t-107 -7.5zM380 -455
l-61 194q40 6 63.5 15.5t35.5 25.5t12 40q0 29 -15 71h287q13 -38 13 -79q0 -267 -335 -267z" />
    <glyph glyph-name="scommaaccent" unicode="&#x219;" horiz-adv-x="891" 
d="M426 -21q-241 0 -410 150l166 226q131 -114 251 -114q74 0 74 41q0 14 -8 23.5t-38.5 23.5t-90.5 31q-54 16 -98.5 34.5t-86.5 46.5t-70.5 62t-45.5 81t-17 103q0 80 30.5 145t83.5 106.5t122.5 63.5t148.5 22q80 0 148.5 -15t125 -41.5t118.5 -70.5l-169 -243
q-48 48 -105 75.5t-106 27.5q-26 0 -44.5 -10.5t-18.5 -30.5q0 -16 26 -31.5t98 -38.5q74 -24 123.5 -44.5t93.5 -48.5t69 -61t39 -78t14 -103q0 -74 -26.5 -134.5t-78 -105t-133 -68.5t-185.5 -24zM273 -455l-61 194q59 8 85 26.5t26 54.5q0 29 -15 71h287q13 -38 13 -79
q0 -267 -335 -267z" />
    <glyph glyph-name="uni021A" unicode="&#x21a;" horiz-adv-x="1197" 
d="M406 0v1108h-370v347h1125v-347h-368v-1108h-387zM412 -455l-61 194q59 8 85 26.5t26 54.5q0 29 -15 71h287q13 -38 13 -79q0 -267 -335 -267z" />
    <glyph glyph-name="uni021B" unicode="&#x21b;" horiz-adv-x="774" 
d="M431 -21q-65 0 -119.5 20.5t-95 61t-63.5 105.5t-23 149v398h-109v290h109v315l365 38v-353h218v-290h-218v-319q0 -21 2 -36.5t8 -31.5t20.5 -25t35.5 -9q39 0 74 16l89 -255q-65 -37 -129 -55.5t-164 -18.5zM240 -455l-61 194q40 6 63.5 15.5t35.5 25.5t12 40
q0 29 -15 71h287q13 -38 13 -79q0 -267 -335 -267z" />
    <glyph glyph-name="uni0232" unicode="&#x232;" horiz-adv-x="1312" 
d="M985 1904v-270h-656v270h656zM874 1455h451l-472 -827v-628h-397v628l-469 827h447l222 -445h2z" />
    <glyph glyph-name="uni0233" unicode="&#x233;" horiz-adv-x="1100" 
d="M883 1454v-270h-656v270h656zM719 1003h373l-515 -1408h-355l170 479l-384 929h377l170 -475h4z" />
    <glyph glyph-name="uni0237" unicode="&#x237;" horiz-adv-x="547" 
d="M123 -425q-62 0 -117 7.5t-75 13t-54 16.5l60 282q43 -15 84 -15q45 0 57.5 27.5t12.5 92.5v1004h365v-1044q0 -129 -37 -214.5t-110.5 -127.5t-185.5 -42z" />
    <glyph glyph-name="uni0259" unicode="&#x259;" horiz-adv-x="1116" 
d="M533 1024q158 0 280 -66t189 -186t67 -275q0 -111 -39 -207t-107.5 -164.5t-165 -107.5t-208.5 -39q-107 0 -201 39.5t-160.5 107.5t-105 164.5t-38.5 206.5q0 57 10 97h663q-9 46 -38 78t-71 47.5t-94 15.5q-102 0 -239 -70l-132 262q171 97 390 97zM557 258
q64 0 106.5 35t53.5 102h-318q14 -65 56.5 -101t101.5 -36z" />
    <glyph glyph-name="uni0272" unicode="&#x272;" horiz-adv-x="1180" 
d="M743 1024q64 0 115.5 -12t97.5 -41.5t77 -76t48.5 -119.5t17.5 -168v-607h-366v519q0 103 -30 142t-101 39q-68 0 -107 -48.5t-39 -147.5v-525q0 -196 -84 -300t-250 -104q-62 0 -117 7.5t-75 13t-54 16.5l60 272q43 -15 84 -15q19 0 32 6.5t20.5 16.5t11.5 27t5 32t1 38
v1014h366v-110h2q55 64 129 97.5t156 33.5z" />
    <glyph glyph-name="circumflex" unicode="&#x2c6;" horiz-adv-x="937" 
d="M544 1080l-76 145h-4l-74 -145h-304l217 318h316l232 -318h-307z" />
    <glyph glyph-name="caron" unicode="&#x2c7;" horiz-adv-x="937" 
d="M548 1398h303l-218 -318h-315l-232 318h307l75 -146h4z" />
    <glyph glyph-name="breve" unicode="&#x2d8;" horiz-adv-x="944" 
d="M472 1069q-96 0 -176 37t-133 113t-61 179h260q4 -44 33 -73.5t77 -29.5q45 0 75.5 27t33.5 76h261q-6 -68 -33.5 -127.5t-73.5 -104.5t-114 -71t-149 -26z" />
    <glyph glyph-name="dotaccent" unicode="&#x2d9;" horiz-adv-x="1031" 
d="M516 1061q-92 0 -151 56.5t-59 141.5q0 83 59.5 139t150.5 56q92 0 151 -55.5t59 -139.5q0 -56 -26.5 -101.5t-74.5 -71t-109 -25.5z" />
    <glyph glyph-name="ring" unicode="&#x2da;" horiz-adv-x="902" 
d="M450 1048q-95 0 -160.5 61.5t-65.5 156.5q0 92 63 154.5t163 62.5q96 0 161.5 -61t65.5 -156q0 -60 -27.5 -109.5t-80 -79t-119.5 -29.5zM450 1198q30 0 50 21t20 51q0 29 -20 49.5t-50 20.5q-28 0 -49 -21.5t-21 -50.5t20.5 -49.5t49.5 -20.5z" />
    <glyph glyph-name="ogonek" unicode="&#x2db;" horiz-adv-x="988" 
d="M561 -395q-118 0 -188 56.5t-70 143.5q0 63 38.5 125t119.5 98l300 -28q-90 0 -146 -41.5t-56 -93.5q0 -38 20 -58.5t54 -20.5q12 0 21.5 0.5t16.5 2t12 2.5t11 3l10 2l14 -168q-55 -23 -157 -23z" />
    <glyph glyph-name="tilde" unicode="&#x2dc;" horiz-adv-x="1024" 
d="M285 1061l-210 84q37 121 109 197t169 76q43 0 82 -10t54 -17.5t48 -25.5q54 -33 94 -33q67 0 112 90l206 -68q-23 -83 -60 -146.5t-92 -103t-120 -39.5q-89 0 -179 51q-2 1 -13 7t-13.5 7t-12.5 6t-13.5 6.5t-12 4.5t-14 4t-12.5 2t-14 1q-65 0 -108 -93z" />
    <glyph glyph-name="hungarumlaut" unicode="&#x2dd;" horiz-adv-x="1160" 
d="M57 1085l222 311l357 2l-252 -313h-327zM545 1085l221 311l358 2l-252 -313h-327z" />
    <glyph glyph-name="gravecomb" unicode="&#x300;" horiz-adv-x="0" 
d="M-102 1085l-252 313l357 -2l222 -311h-327z" />
    <glyph glyph-name="acutecomb" unicode="&#x301;" horiz-adv-x="0" 
d="M-249 1085l224 311l357 2l-253 -313h-328z" />
    <glyph glyph-name="uni0302" unicode="&#x302;" horiz-adv-x="0" 
d="M77 1080l-76 145h-4l-74 -145h-304l217 318h316l232 -318h-307z" />
    <glyph glyph-name="tildecomb" unicode="&#x303;" horiz-adv-x="0" 
d="M-210 1061l-210 84q37 121 109 197t169 76q43 0 82 -10t54 -17.5t48 -25.5q54 -33 94 -33q67 0 112 90l206 -68q-35 -128 -105.5 -208.5t-166.5 -80.5q-89 0 -179 51q-3 2 -10 5q-61 33 -95 33q-65 0 -108 -93z" />
    <glyph glyph-name="uni0304" unicode="&#x304;" horiz-adv-x="0" 
d="M-329 1128v270h656v-270h-656z" />
    <glyph glyph-name="uni0306" unicode="&#x306;" horiz-adv-x="0" 
d="M-1 1069q-96 0 -176 37t-133 113t-61 179h260q4 -44 33 -73.5t77 -29.5q45 0 75.5 27t33.5 76h261q-6 -68 -33.5 -127.5t-73.5 -104.5t-114 -71t-149 -26z" />
    <glyph glyph-name="uni0307" unicode="&#x307;" horiz-adv-x="0" 
d="M1 1061q-92 0 -151 56.5t-59 141.5q0 83 59.5 139t150.5 56q92 0 151 -55.5t59 -139.5q0 -56 -26.5 -101.5t-74.5 -71t-109 -25.5z" />
    <glyph glyph-name="uni0308" unicode="&#x308;" horiz-adv-x="0" 
d="M-244 1061q-92 0 -151 56.5t-59 141.5q0 83 59.5 139t150.5 56q92 0 151 -55.5t59 -139.5q0 -56 -26.5 -101.5t-74.5 -71t-109 -25.5zM239 1061q-92 0 -151 56.5t-59 141.5q0 83 59.5 139t150.5 56q92 0 151 -55.5t59 -139.5q0 -56 -26.5 -101.5t-74.5 -71t-109 -25.5z
" />
    <glyph glyph-name="hookabovecomb" unicode="&#x309;" horiz-adv-x="0" 
d="M-92 1047q-34 40 -34 64q0 14 11.5 27.5t29 24.5t38 23.5t38 24t29 26.5t11.5 31q0 17 -12.5 24t-38.5 7q-23 0 -58 -17t-61 -35l-95 94q27 25 61.5 45t85 35t102.5 15q109 0 168 -46t59 -123q0 -64 -51 -106.5t-140 -60.5l-9 -43z" />
    <glyph glyph-name="uni030A" unicode="&#x30a;" horiz-adv-x="0" 
d="M0 1048q-95 0 -160.5 61.5t-65.5 156.5q0 92 63 154.5t163 62.5q63 0 114.5 -27t82 -77t30.5 -113q0 -60 -27.5 -109.5t-80 -79t-119.5 -29.5zM0 1198q30 0 50 21t20 51q0 29 -20 49.5t-50 20.5q-28 0 -49 -21.5t-21 -50.5t20.5 -49.5t49.5 -20.5z" />
    <glyph glyph-name="uni030B" unicode="&#x30b;" horiz-adv-x="0" 
d="M-400 1085l222 311l357 2l-252 -313h-327zM88 1085l221 311l358 2l-252 -313h-327z" />
    <glyph glyph-name="uni030C" unicode="&#x30c;" horiz-adv-x="0" 
d="M80 1398h303l-218 -318h-315l-232 318h307l75 -146h4z" />
    <glyph glyph-name="uni0312" unicode="&#x312;" horiz-adv-x="0" 
d="M183 1458l61 -194q-59 -8 -85 -26.5t-26 -54.5q0 -29 15 -71h-287q-13 38 -13 79q0 267 335 267z" />
    <glyph glyph-name="uni031B" unicode="&#x31b;" horiz-adv-x="0" 
d="M-44 931l-5 140q50 4 81.5 17t48 40.5t22 60.5t5.5 87v179h293v-160q0 -103 -32.5 -176.5t-93 -115.5t-139.5 -59t-180 -13z" />
    <glyph glyph-name="dotbelowcomb" unicode="&#x323;" horiz-adv-x="0" 
d="M1 -140q91 0 150.5 -56.5t59.5 -141.5q0 -83 -59.5 -139t-150.5 -56q-92 0 -151 55.5t-59 139.5q0 86 59 142t151 56z" />
    <glyph glyph-name="uni0326" unicode="&#x326;" horiz-adv-x="0" 
d="M-181 -455l-61 194q30 4 50 10.5t34 16t20.5 23t6.5 31.5q0 29 -15 71h287q13 -38 13 -79q0 -267 -335 -267z" />
    <glyph glyph-name="uni0327" unicode="&#x327;" horiz-adv-x="0" 
d="M7 -61q87 -3 137.5 -46t50.5 -121q0 -79 -65.5 -124t-201.5 -45q-74 0 -136 12v139q45 -14 111 -14q81 0 81 51q0 58 -157 58v79l47 84h175l-43 -71z" />
    <glyph glyph-name="uni0328" unicode="&#x328;" horiz-adv-x="0" 
d="M-200 -395q-118 0 -188 56.5t-70 143.5q0 63 38.5 125t119.5 98l300 -28q-90 0 -146 -41.5t-56 -93.5q0 -19 5.5 -34t15 -25t23 -15t30.5 -5q18 0 31 1.5t24.5 4.5t15.5 4l14 -168q-55 -23 -157 -23z" />
    <glyph glyph-name="uni0335" unicode="&#x335;" horiz-adv-x="0" 
d="M-309 421v207h628v-207h-628z" />
    <glyph glyph-name="uni0374" unicode="&#x374;" horiz-adv-x="587" 
d="M70 948l99 555h346l-166 -555h-279z" />
    <glyph glyph-name="uni0375" unicode="&#x375;" horiz-adv-x="666" 
d="M131 -334l99 555h346l-166 -555h-279z" />
    <glyph glyph-name="uni037E" unicode="&#x37e;" horiz-adv-x="525" 
d="M255 631q-83 0 -141.5 57.5t-58.5 139.5q0 80 59 137.5t141 57.5t140.5 -57.5t58.5 -137.5q0 -82 -58.5 -139.5t-140.5 -57.5zM28 -276l59 570h351l-149 -570h-261z" />
    <glyph glyph-name="tonos" unicode="&#x384;" horiz-adv-x="945" 
d="M245 1085l109 370h385l-185 -370h-309z" />
    <glyph glyph-name="dieresistonos" unicode="&#x385;" horiz-adv-x="1295" 
d="M491 1085l3 370h280l-68 -370h-215zM247 1061q-92 0 -151 56.5t-59 141.5q0 83 59.5 139t150.5 56q92 0 151 -55.5t59 -139.5q0 -56 -26.5 -101.5t-74.5 -71t-109 -25.5zM988 1061q-91 0 -150.5 56.5t-59.5 141.5q0 83 59.5 139t150.5 56q92 0 151 -55.5t59 -139.5
q0 -42 -15.5 -79t-43 -63t-67 -41t-84.5 -15z" />
    <glyph glyph-name="Alphatonos" unicode="&#x386;" horiz-adv-x="1420" 
d="M402 1455l-215 -370h-309l139 370h385zM1017 0l-73 235h-467l-73 -235h-408l528 1455h372l528 -1455h-407zM578 562h264l-130 418h-4z" />
    <glyph glyph-name="anoteleia" unicode="&#x387;" horiz-adv-x="537" 
d="M274 631q-83 0 -141.5 57.5t-58.5 139.5q0 80 59 137.5t141 57.5q54 0 99.5 -26.5t72.5 -71.5t27 -97q0 -82 -58.5 -139.5t-140.5 -57.5z" />
    <glyph glyph-name="Epsilontonos" unicode="&#x388;" horiz-adv-x="1179" 
d="M-507 1085l139 370h385l-215 -370h-309zM106 0v1455h967v-347h-590v-219h462v-338h-462v-205h633v-346h-1010z" />
    <glyph glyph-name="Etatonos" unicode="&#x389;" horiz-adv-x="1444" 
d="M-502 1085l139 370h385l-215 -370h-309zM108 0v1455h394v-580h439v580h394v-1455h-394v530h-439v-530h-394z" />
    <glyph glyph-name="Iotatonos" unicode="&#x38a;" horiz-adv-x="629" 
d="M-479 1085l139 370h385l-215 -370h-309zM117 0v1455h395v-1455h-395z" />
    <glyph glyph-name="Omicrontonos" unicode="&#x38c;" horiz-adv-x="1633" 
d="M818 -21q-166 0 -307 55t-240 153t-154.5 237t-55.5 303t55.5 303.5t154.5 237.5t240 153t307 55q164 0 304 -54.5t239 -152t155 -237.5t56 -305t-56 -304.5t-155 -237t-239 -152t-304 -54.5zM-297 1085l139 370h385l-215 -370h-309zM817 342q101 0 181.5 51.5t124 139
t43.5 194.5t-43.5 194.5t-124 139t-181.5 51.5t-181 -51t-124.5 -139t-44.5 -195t44.5 -194.5t125 -139t180.5 -51.5z" />
    <glyph glyph-name="Upsilontonos" unicode="&#x38e;" horiz-adv-x="1312" 
d="M-586 1085l139 370h385l-215 -370h-309zM874 1455h451l-472 -827v-628h-397v628l-469 827h447l222 -445h2z" />
    <glyph glyph-name="Omegatonos" unicode="&#x38f;" horiz-adv-x="1497" 
d="M1212 349l1 -3h206v-346h-591v346q199 197 199 447q0 144 -77 237.5t-202 92.5t-201.5 -94t-76.5 -236q0 -250 199 -447v-346h-591v346h206l1 3q-223 181 -223 467q0 142 48 263.5t135.5 209t217 137.5t285.5 50t285.5 -50t217.5 -137.5t136 -209t48 -263.5
q0 -286 -223 -467zM-226 1455h385l-215 -370h-309z" />
    <glyph glyph-name="iotadieresistonos" unicode="&#x390;" horiz-adv-x="652" 
d="M157 1141l3 370h280l-68 -370h-215zM-87 1117q-91 0 -150.5 56.5t-59.5 141.5q0 54 26.5 98.5t75 70.5t108.5 26q92 0 151 -55.5t59 -139.5q0 -86 -59 -142t-151 -56zM654 1117q-92 0 -151 56.5t-59 141.5q0 54 26.5 98.5t75 70.5t108.5 26q92 0 151 -55.5t59 -139.5
q0 -86 -59 -142t-151 -56zM408 -21q-74 0 -129 18t-96.5 59t-62.5 112.5t-21 173.5v661h366v-628q0 -23 4 -39t9 -24.5t14.5 -13t17 -5.5t18.5 -1q26 0 80 9l44 -271q-120 -51 -244 -51z" />
    <glyph glyph-name="Alpha" unicode="&#x391;" horiz-adv-x="1420" 
d="M1017 0l-73 235h-467l-73 -235h-408l528 1455h372l528 -1455h-407zM578 562h264l-130 418h-4z" />
    <glyph glyph-name="Beta" unicode="&#x392;" horiz-adv-x="1283" 
d="M938 777q83 -22 142 -58t92.5 -85t49 -104t15.5 -121q0 -89 -29 -163t-85 -129t-144.5 -86t-201.5 -31h-669v1455h571q123 0 215.5 -25t151 -71.5t87 -111.5t28.5 -148q0 -48 -10.5 -90.5t-34.5 -86t-69.5 -80t-108.5 -61.5v-4zM485 1116v-235h127q72 0 115 31t43 85
q0 35 -17 61t-54 42t-90 16h-124zM657 334q81 0 129 34t48 98q0 59 -44.5 94.5t-134.5 35.5h-170v-262h172z" />
    <glyph glyph-name="Gamma" unicode="&#x393;" horiz-adv-x="1139" 
d="M108 0v1455h998v-346h-606v-1109h-392z" />
    <glyph glyph-name="uni0394" unicode="&#x394;" horiz-adv-x="1401" 
d="M893 1455l459 -1159v-296h-1303v296l459 1159h385zM480 346h436l-212 622h-4z" />
    <glyph glyph-name="Epsilon" unicode="&#x395;" horiz-adv-x="1176" 
d="M106 0v1455h967v-347h-590v-219h462v-338h-462v-205h633v-346h-1010z" />
    <glyph glyph-name="Zeta" unicode="&#x396;" horiz-adv-x="1243" 
d="M1176 1161l-610 -811v-4h609v-346h-1107v303l589 801v4h-572v347h1091v-294z" />
    <glyph glyph-name="Eta" unicode="&#x397;" horiz-adv-x="1444" 
d="M108 0v1455h394v-580h439v580h394v-1455h-394v530h-439v-530h-394z" />
    <glyph glyph-name="Theta" unicode="&#x398;" horiz-adv-x="1634" 
d="M818 -21q-166 0 -307 55t-240 153t-154.5 237t-55.5 303t55.5 303.5t154.5 237.5t240 153t307 55q164 0 304 -54.5t239 -152t155 -237.5t56 -305t-56 -304.5t-155 -237t-239 -152t-304 -54.5zM817 342q101 0 181.5 51.5t124 139t43.5 194.5t-43.5 194.5t-124 139
t-181.5 51.5t-181 -51t-124.5 -139t-44.5 -195t44.5 -194.5t125 -139t180.5 -51.5zM612 558v323h403v-323h-403z" />
    <glyph glyph-name="Iota" unicode="&#x399;" horiz-adv-x="629" 
d="M117 0v1455h395v-1455h-395z" />
    <glyph glyph-name="Kappa" unicode="&#x39a;" horiz-adv-x="1354" 
d="M579 523h-1l-83 -101v-422h-387v1455h387v-490h4l354 490h492l-512 -622l533 -833h-478z" />
    <glyph glyph-name="Lambda" unicode="&#x39b;" horiz-adv-x="1355" 
d="M946 0l-267 908h-4l-266 -908h-413l494 1455h375l494 -1455h-413z" />
    <glyph glyph-name="Mu" unicode="&#x39c;" horiz-adv-x="1734" 
d="M1231 1455h395v-1455h-385v717h-6l-244 -454h-248l-245 456h-5v-719h-385v1455h394l362 -719h8z" />
    <glyph glyph-name="Nu" unicode="&#x39d;" horiz-adv-x="1489" 
d="M991 1455h390v-1455h-404l-477 796h-5v-796h-387v1455h392l486 -820h5v820z" />
    <glyph glyph-name="Xi" unicode="&#x39e;" horiz-adv-x="1258" 
d="M76 1105v350h1106v-350h-1106zM206 558v331h837v-331h-837zM61 0v350h1136v-350h-1136z" />
    <glyph glyph-name="Omicron" unicode="&#x39f;" horiz-adv-x="1633" 
d="M818 -21q-166 0 -307 55t-240 153t-154.5 237t-55.5 303t55.5 303.5t154.5 237.5t240 153t307 55q164 0 304 -54.5t239 -152t155 -237.5t56 -305t-56 -304.5t-155 -237t-239 -152t-304 -54.5zM817 342q101 0 181.5 51.5t124 139t43.5 194.5t-43.5 194.5t-124 139
t-181.5 51.5t-181 -51t-124.5 -139t-44.5 -195t44.5 -194.5t125 -139t180.5 -51.5z" />
    <glyph glyph-name="Pi" unicode="&#x3a0;" horiz-adv-x="1377" 
d="M108 0v1455h1161v-1455h-393v1108h-375v-1108h-393z" />
    <glyph glyph-name="Rho" unicode="&#x3a1;" horiz-adv-x="1237" 
d="M108 0v1455h566q107 0 194.5 -25t149.5 -71t104 -110.5t61.5 -142t19.5 -168.5q0 -161 -69 -273.5t-192 -166.5t-292 -54h-164v-444h-378zM486 781h101q96 0 153.5 43t57.5 123q0 71 -54.5 118.5t-155.5 47.5h-102v-332z" />
    <glyph glyph-name="Sigma" unicode="&#x3a3;" horiz-adv-x="1190" 
d="M1137 1109h-548v-5l294 -376l-294 -377v-5h548v-346h-1076v269l356 459l-356 448v279h1076v-346z" />
    <glyph glyph-name="Tau" unicode="&#x3a4;" horiz-adv-x="1197" 
d="M406 0v1108h-370v347h1125v-347h-368v-1108h-387z" />
    <glyph glyph-name="Upsilon" unicode="&#x3a5;" horiz-adv-x="1312" 
d="M874 1455h451l-472 -827v-628h-397v628l-469 827h447l222 -445h2z" />
    <glyph glyph-name="Phi" unicode="&#x3a6;" horiz-adv-x="1697" 
d="M1643 739q0 -158 -69.5 -282t-204 -204t-324.5 -107v-146h-385v145q-192 27 -329 107t-207 204t-70 283q0 244 159 409.5t447 208.5v128h385v-129q284 -44 441 -209t157 -408zM440 745q0 -99 62.5 -174t174.5 -109v575q-112 -36 -174.5 -114t-62.5 -178zM1028 465
q108 34 168.5 108t60.5 172t-60.5 175t-168.5 114v-569z" />
    <glyph glyph-name="Chi" unicode="&#x3a7;" horiz-adv-x="1458" 
d="M990 0l-258 435h-5l-260 -435h-453l456 733l-436 722h445l248 -422h5l248 422h444l-436 -722l456 -733h-454z" />
    <glyph glyph-name="Psi" unicode="&#x3a8;" horiz-adv-x="1616" 
d="M1174 1455h367l-1 -533q-1 -297 -145.5 -460.5t-396.5 -163.5h-1v-298h-378v298h-3q-253 0 -397.5 163.5t-143.5 460.5l1 533h367l-1 -486q0 -118 20.5 -191.5t58.5 -105t98 -35.5v818h378v-817q59 4 96.5 35.5t58.5 104.5t21 191z" />
    <glyph glyph-name="uni03A9" unicode="&#x3a9;" horiz-adv-x="1497" 
d="M1212 349l1 -3h206v-346h-591v346q199 197 199 447q0 144 -77 237.5t-202 92.5t-201.5 -94t-76.5 -236q0 -250 199 -447v-346h-591v346h206l1 3q-223 181 -223 467q0 142 48 263.5t135.5 209t217 137.5t285.5 50t285.5 -50t217.5 -137.5t136 -209t48 -263.5
q0 -286 -223 -467z" />
    <glyph glyph-name="Iotadieresis" unicode="&#x3aa;" horiz-adv-x="629" 
d="M87 1567q-92 0 -151 56.5t-59 141.5q0 83 59.5 139t150.5 56q92 0 151 -55.5t59 -139.5q0 -86 -59 -142t-151 -56zM570 1567q-92 0 -151 56.5t-59 141.5q0 83 59.5 139t150.5 56q92 0 151 -55.5t59 -139.5q0 -86 -59 -142t-151 -56zM117 0v1455h395v-1455h-395z" />
    <glyph glyph-name="Upsilondieresis" unicode="&#x3ab;" horiz-adv-x="1312" 
d="M428 1567q-92 0 -151 56.5t-59 141.5q0 83 59.5 139t150.5 56q92 0 151 -55.5t59 -139.5q0 -86 -59 -142t-151 -56zM911 1567q-92 0 -151 56.5t-59 141.5q0 83 59.5 139t150.5 56q60 0 108.5 -25.5t75 -70t26.5 -99.5q0 -86 -59 -142t-151 -56zM874 1455h451l-472 -827
v-628h-397v628l-469 827h447l222 -445h2z" />
    <glyph glyph-name="alphatonos" unicode="&#x3ac;" horiz-adv-x="1219" 
d="M943 1511l-185 -370h-309l109 370h385zM1175 301l44 -271q-99 -51 -204 -51q-103 0 -166 37.5t-90 128.5h-4q-48 -87 -115 -126.5t-160 -39.5q-132 0 -231 66t-152 184.5t-53 272.5q0 114 34 211.5t92 165.5t138 106.5t170 38.5q202 0 291 -175h3l16 154h344l-70 -390
v-248q0 -77 57 -77q23 0 56 13zM566 302q63 0 109 55t54 144q0 90 -40.5 145t-113.5 55q-70 0 -116 -56.5t-46 -143.5q0 -86 41 -142.5t112 -56.5z" />
    <glyph glyph-name="epsilontonos" unicode="&#x3ad;" horiz-adv-x="992" 
d="M850 1512l-185 -370h-309l109 370h385zM856 330l126 -243q-112 -67 -226.5 -87.5t-279.5 -20.5q-201 0 -315 77.5t-114 220.5q0 82 39 145.5t115 100.5q-59 40 -91.5 98t-32.5 117q0 132 106.5 209t307.5 77q59 0 107.5 -3t115 -11.5t130 -29.5t118.5 -53l-115 -235
q-133 42 -301 42q-58 0 -90 -14t-32 -41q0 -20 25.5 -36t84.5 -16h163v-233h-183q-35 0 -58.5 -7.5t-34.5 -20.5t-11 -31q0 -20 19 -34.5t57 -22t91 -7.5q162 0 279 59z" />
    <glyph glyph-name="etatonos" unicode="&#x3ae;" horiz-adv-x="1170" 
d="M940 1512l-185 -370h-309l109 370h385zM733 1024q86 0 150.5 -22.5t111.5 -72t70.5 -133t23.5 -200.5v-1001h-366v914q0 98 -30 144.5t-91 46.5q-68 0 -107 -48.5t-39 -147.5v-504h-366v1003h366v-108h3q54 64 124.5 96.5t149.5 32.5z" />
    <glyph glyph-name="iotatonos" unicode="&#x3af;" horiz-adv-x="652" 
d="M136 1141l109 370h385l-185 -370h-309zM408 -21q-74 0 -129 18t-96.5 59t-62.5 112.5t-21 173.5v661h366v-628q0 -23 4 -39t9 -24.5t14.5 -13t17 -5.5t18.5 -1q26 0 80 9l44 -271q-120 -51 -244 -51z" />
    <glyph glyph-name="upsilondieresistonos" unicode="&#x3b0;" horiz-adv-x="1131" 
d="M447 1142l3 370h280l-68 -370h-215zM203 1118q-92 0 -151 56.5t-59 141.5q0 54 26.5 98.5t75 70.5t108.5 26q92 0 151 -55.5t59 -139.5q0 -86 -59 -142t-151 -56zM944 1118q-92 0 -151 56.5t-59 141.5q0 83 59.5 139t150.5 56q92 0 151 -55.5t59 -139.5
q0 -56 -26.5 -101.5t-74.5 -71t-109 -25.5zM566 -21q-230 0 -358.5 131t-128.5 391v502h365v-499q0 -42 4.5 -75t14 -57t24 -39.5t34 -23t44.5 -7.5q61 0 91 48.5t30 153.5v499h366v-502q0 -260 -128.5 -391t-357.5 -131z" />
    <glyph glyph-name="alpha" unicode="&#x3b1;" horiz-adv-x="1219" 
d="M1175 301l44 -271q-99 -51 -204 -51q-40 0 -73 5t-62.5 17t-52 31t-40 47.5t-28.5 65.5h-4q-48 -87 -115 -126.5t-160 -39.5q-132 0 -231 66t-152 184.5t-53 272.5q0 114 34 211.5t92 165.5t138 106.5t170 38.5q202 0 291 -175h3l16 154h344l-70 -390v-248q0 -77 57 -77
q23 0 56 13zM566 302q63 0 109 55t54 144q0 90 -40.5 145t-113.5 55q-70 0 -116 -56.5t-46 -143.5q0 -86 41 -142.5t112 -56.5z" />
    <glyph glyph-name="beta" unicode="&#x3b2;" horiz-adv-x="1210" 
d="M951 817q102 -53 160 -149t58 -211q0 -220 -124 -349t-337 -129q-160 0 -248 88h-4v-472h-366v1401q0 133 37 235.5t105 167t160.5 97.5t205.5 33q69 0 130.5 -11.5t111 -32.5t91 -49.5t72 -63.5t51.5 -74.5t31 -82t10 -85.5q0 -211 -144 -309v-4zM630 264
q76 0 124.5 52.5t48.5 128.5q0 88 -54.5 138t-150.5 50h-47v272h30q44 0 77.5 16t51.5 42t27 53.5t9 56.5q0 66 -36.5 106t-101.5 40q-28 0 -52 -7.5t-48 -26.5t-38 -57.5t-14 -93.5v-571q0 -55 22 -100.5t62 -72t90 -26.5z" />
    <glyph glyph-name="gamma" unicode="&#x3b3;" horiz-adv-x="1108" 
d="M1101 1003l-370 -1017q11 -37 17.5 -76t9.5 -84.5t3.5 -75t1 -83t0.5 -72.5h-349q0 14 -1 66t-1.5 74t-4.5 71t-11 84t-20 86t-32 102l-336 925h379l168 -569h3l164 569h379z" />
    <glyph glyph-name="delta" unicode="&#x3b4;" horiz-adv-x="1164" 
d="M846 957q32 -20 58 -39t55.5 -45t52 -53t44 -62t35.5 -72.5t22.5 -85t8.5 -99.5q0 -156 -69.5 -275.5t-191 -183t-274.5 -63.5q-157 0 -279.5 60t-191.5 170t-69 252q0 78 20 148t56 125.5t78 99t94 78.5q-136 116 -136 283q0 68 28.5 128t81.5 106.5t137.5 73
t189.5 26.5q268 0 451 -107l-115 -265q-56 28 -99.5 45t-93 27.5t-98.5 10.5q-61 0 -91.5 -13t-30.5 -45q0 -11 5 -22t17 -22t23 -20t31.5 -21.5t34 -20.5t40 -22.5t39.5 -21.5q14 -8 63 -33.5t74 -41.5zM587 302q69 0 117.5 50t48.5 139q0 43 -11 76t-36 59.5t-50 44.5
t-69 43q-26 15 -48 30q-56 -45 -90 -111t-34 -142q0 -83 50 -136t122 -53z" />
    <glyph glyph-name="epsilon" unicode="&#x3b5;" horiz-adv-x="992" 
d="M856 330l126 -243q-59 -35 -119.5 -57.5t-126 -33t-122.5 -14t-138 -3.5q-201 0 -315 77.5t-114 220.5q0 82 39 145.5t115 100.5q-40 27 -68 63t-42 74.5t-14 77.5q0 132 106.5 209t307.5 77q59 0 107.5 -3t115 -11.5t130 -29.5t118.5 -53l-115 -235q-133 42 -301 42
q-58 0 -90 -14t-32 -41q0 -20 25.5 -36t84.5 -16h163v-233h-183q-35 0 -58.5 -7.5t-34.5 -20.5t-11 -31q0 -20 19 -34.5t57 -22t91 -7.5q162 0 279 59z" />
    <glyph glyph-name="zeta" unicode="&#x3b6;" horiz-adv-x="961" 
d="M686 265q86 -35 144.5 -75.5t89 -84t43 -84.5t12.5 -89q0 -45 -7.5 -87t-21.5 -77.5t-30 -66t-37.5 -59t-39 -49t-39.5 -42.5l-304 140q110 110 110 181q0 45 -41.5 80.5t-125.5 65.5q-162 56 -240 117q-157 120 -156 341q3 324 449 722v4h-379v306h853v-266
q-112 -92 -210 -190.5t-176 -198t-123.5 -195.5t-46.5 -172q0 -18 2.5 -34t7 -28.5t14.5 -25t18 -21t25.5 -19t30 -17.5t36.5 -17.5t41 -17.5t48.5 -19.5t52.5 -21.5z" />
    <glyph glyph-name="eta" unicode="&#x3b7;" horiz-adv-x="1170" 
d="M733 1024q86 0 150.5 -22.5t111.5 -72t70.5 -133t23.5 -200.5v-1001h-366v914q0 98 -30 144.5t-91 46.5q-68 0 -107 -48.5t-39 -147.5v-504h-366v1003h366v-108h3q109 129 274 129z" />
    <glyph glyph-name="theta" unicode="&#x3b8;" horiz-adv-x="1197" 
d="M597 1529q98 0 180.5 -28t152 -88t117.5 -150t75 -219t27 -289q0 -134 -19 -248.5t-61 -213t-105.5 -167.5t-156.5 -108t-210 -39q-97 0 -179 27.5t-151 88t-117 150t-75 219.5t-27 291q0 110 13.5 207.5t41 185t72 157t104 120t140.5 77.5t178 27zM597 1217
q-157 0 -183 -320h370q-3 50 -9.5 90.5t-16.5 77.5t-24.5 64t-34 47.5t-45 30.5t-57.5 10zM597 290q159 0 185 320h-369q5 -75 16.5 -131.5t32.5 -100t54.5 -66t80.5 -22.5z" />
    <glyph glyph-name="iota" unicode="&#x3b9;" horiz-adv-x="652" 
d="M408 -21q-74 0 -129 18t-96.5 59t-62.5 112.5t-21 173.5v661h366v-628q0 -23 4 -39t9 -24.5t14.5 -13t17 -5.5t18.5 -1q26 0 80 9l44 -271q-120 -51 -244 -51z" />
    <glyph glyph-name="kappa" unicode="&#x3ba;" horiz-adv-x="1192" 
d="M1208 1003l-422 -428l407 -575h-417l-231 326h-5l-84 -86v-240h-366v1003h366v-295l6 -1l305 296h441z" />
    <glyph glyph-name="lambda" unicode="&#x3bb;" horiz-adv-x="1140" 
d="M758 0l-151 507h-3l-209 -507h-387l430 949q-42 110 -65 165t-54.5 74.5t-75.5 19.5q-17 0 -42 -2.5t-51 -6.5t-44 -9l-44 285q147 54 266 54q99 0 165.5 -29.5t120 -100.5t107.5 -202q213 -521 417 -1197h-380z" />
    <glyph glyph-name="uni03BC" unicode="&#x3bc;" horiz-adv-x="1176" 
d="M723 1003h366v-1003h-338l-21 103h-3q-91 -124 -225 -124q-45 0 -77 12l-9 -6q40 -130 40 -254v-136h-366v1408h366v-499q0 -107 30.5 -154.5t100.5 -47.5q61 0 98.5 49.5t37.5 147.5v504z" />
    <glyph glyph-name="nu" unicode="&#x3bd;" horiz-adv-x="1112" 
d="M722 1003h382l-383 -1003h-329l-384 1003h379l168 -569h4z" />
    <glyph glyph-name="xi" unicode="&#x3be;" horiz-adv-x="1016" 
d="M716 268q84 -27 142 -64t88 -81.5t42 -89.5t12 -100q0 -192 -177 -382l-303 140q109 125 109 192q0 28 -16.5 51.5t-52 43.5t-91.5 37q-40 12 -67 20.5t-65.5 23t-65 28t-59.5 34t-55 42t-45 51t-36.5 62t-22 74.5t-8.5 89q0 110 59 207.5t165 160.5v4q-156 114 -156 296
q0 83 27 153t73.5 119t109.5 83.5t135.5 50.5t150.5 16q241 0 426 -108l-121 -291q-88 44 -151 63.5t-140 19.5q-68 0 -110 -38.5t-42 -89.5q0 -32 17 -58t55.5 -48.5t111 -35t173.5 -12.5h80v-296h-239q-129 0 -192 -46t-63 -131q0 -25 11.5 -45.5t32 -37.5t60.5 -35
t83.5 -33.5t114.5 -38.5z" />
    <glyph glyph-name="omicron" unicode="&#x3bf;" horiz-adv-x="1180" 
d="M590 -21q-158 0 -282 65.5t-192.5 184.5t-68.5 272t68.5 272t192.5 185t282 66q159 0 282.5 -66t192 -185t68.5 -272t-68.5 -272t-192 -184.5t-282.5 -65.5zM590 302q75 0 125 56.5t50 142.5q0 88 -49 143.5t-126 55.5q-50 0 -90 -25t-62.5 -70.5t-22.5 -103.5
q0 -86 50 -142.5t125 -56.5z" />
    <glyph glyph-name="pi" unicode="&#x3c0;" horiz-adv-x="1315" 
d="M1284 1003v-306h-150v-697h-361v697h-222v-697h-361v697h-159v306h1253z" />
    <glyph glyph-name="rho" unicode="&#x3c1;" horiz-adv-x="1194" 
d="M599 1024q116 0 217.5 -37.5t175.5 -104.5t117 -165.5t43 -214.5q0 -153 -57 -272.5t-161 -185t-237 -65.5q-162 0 -257 92h-3v-476h-366v907q0 110 34 204.5t99 165.5t166.5 111.5t228.5 40.5zM598 302q81 0 133.5 55t52.5 144q0 87 -52.5 143t-133.5 56
q-74 0 -125.5 -56.5t-51.5 -142.5q0 -59 24 -104.5t64 -70t89 -24.5z" />
    <glyph glyph-name="uni03C2" unicode="&#x3c2;" horiz-adv-x="1033" 
d="M804 -448l-305 139q107 101 107 179q0 29 -10 48.5t-44 43t-101 53.5q-37 17 -64 29.5t-63.5 32.5t-63 38t-57.5 44t-53 52.5t-43.5 61t-34.5 72.5t-21 85t-8 99q0 149 70 261.5t195.5 173t289.5 60.5q85 0 165 -23t151.5 -70t121.5 -114l-243 -207q-76 90 -186 90
q-90 0 -143 -46.5t-53 -125.5q0 -81 58 -135.5t195 -115.5q94 -42 156 -82t96.5 -82t47.5 -84t13 -96q0 -208 -173 -381z" />
    <glyph glyph-name="sigma" unicode="&#x3c3;" horiz-adv-x="1216" 
d="M1205 706h-212v-5q116 -101 116 -256q0 -134 -68.5 -240.5t-192.5 -166t-280 -59.5q-149 0 -268 63t-187.5 180t-68.5 269q0 234 151.5 373t408.5 139h601v-297zM578 302q71 0 117 52.5t46 136.5q0 119 -79 215h-48q-94 0 -148 -57t-54 -158q0 -87 51 -138t115 -51z" />
    <glyph glyph-name="tau" unicode="&#x3c4;" horiz-adv-x="944" 
d="M580 -21q-74 0 -132 20t-103.5 62.5t-69.5 116t-24 174.5v354h-240v297h898v-297h-292v-301q0 -68 20 -90.5t63 -22.5q33 0 91 15l88 -249q-58 -37 -126 -58t-173 -21z" />
    <glyph glyph-name="upsilon" unicode="&#x3c5;" horiz-adv-x="1131" 
d="M566 -21q-230 0 -358.5 131t-128.5 391v502h365v-499q0 -105 29 -153.5t92 -48.5q61 0 91 48.5t30 153.5v499h366v-502q0 -260 -128.5 -391t-357.5 -131z" />
    <glyph glyph-name="phi" unicode="&#x3c6;" horiz-adv-x="1472" 
d="M1430 530q0 -74 -15.5 -141t-45 -125.5t-75 -106.5t-103.5 -83t-132.5 -56t-159.5 -24v-399h-359v400q-109 8 -199 49t-155.5 112.5t-102 177.5t-36.5 237q0 124 31.5 233t100.5 220l325 -45q-49 -95 -75 -194.5t-26 -181.5q0 -140 35.5 -217t109.5 -101v249
q0 147 47 257t138.5 171.5t216.5 61.5q159 0 268 -61.5t160.5 -171t51.5 -261.5zM892 279q88 20 137 89.5t49 161.5q0 83 -24 132.5t-72 49.5q-90 0 -90 -175v-258z" />
    <glyph glyph-name="chi" unicode="&#x3c7;" horiz-adv-x="1107" 
d="M1069 -104l48 -293q-102 -29 -198 -29q-59 0 -103.5 10.5t-80 33t-64 62t-52 92t-47.5 128.5l-21 65h-3l-174 -370h-384l397 735l-129 279q-25 53 -55.5 75.5t-75.5 22.5q-21 0 -54 -5l-48 293q102 29 188 29q67 0 115 -14.5t85.5 -50t66 -85.5t60.5 -132l18 -56h3
l147 317h393l-369 -672l152 -342q23 -52 54 -75t77 -23q21 0 54 5z" />
    <glyph glyph-name="psi" unicode="&#x3c8;" horiz-adv-x="1498" 
d="M1079 1003h342v-512q0 -125 -37 -222.5t-103.5 -159t-154.5 -94t-195 -36.5v-384h-363v383q-107 4 -195 36.5t-155 94t-104 159t-37 223.5v512h341v-490q0 -101 42.5 -155t117.5 -59v995h343v-995q74 5 116 59.5t42 154.5v490z" />
    <glyph glyph-name="omega" unicode="&#x3c9;" horiz-adv-x="1497" 
d="M1306 1024q3 -5 23 -42.5t24 -46.5t21 -44t22 -52.5t17.5 -53.5t17 -65t11.5 -69t9 -83.5t2 -91.5q0 -122 -33.5 -219t-90 -156.5t-127 -90.5t-149.5 -31q-214 0 -302 142h-5q-88 -142 -302 -142q-79 0 -149.5 31t-127 90.5t-90 156.5t-33.5 219q0 48 2 91.5t9 83.5
t11.5 69t17 65t17.5 53.5t22 52.5t21 44t24 46.5t23 42.5l328 -50q-49 -111 -77.5 -234.5t-28.5 -225.5q0 -76 10.5 -123t30.5 -68t51 -21q37 0 66.5 51t29.5 146v252h295v-252q0 -95 29.5 -146t66.5 -51q31 0 51 21t30.5 68t10.5 123q0 68 -13 147.5t-37 159.5t-56 153z
" />
    <glyph glyph-name="iotadieresis" unicode="&#x3ca;" horiz-adv-x="652" 
d="M36 1117q-45 0 -84.5 15.5t-67 41.5t-43 62.5t-15.5 78.5q0 83 59.5 139t150.5 56q92 0 151 -55.5t59 -139.5q0 -86 -59 -142t-151 -56zM519 1117q-92 0 -151 56.5t-59 141.5q0 54 26.5 98.5t75 70.5t108.5 26q92 0 151 -55.5t59 -139.5q0 -86 -59 -142t-151 -56z
M408 -21q-74 0 -129 18t-96.5 59t-62.5 112.5t-21 173.5v661h366v-628q0 -23 4 -39t9 -24.5t14.5 -13t17 -5.5t18.5 -1q26 0 80 9l44 -271q-120 -51 -244 -51z" />
    <glyph glyph-name="upsilondieresis" unicode="&#x3cb;" horiz-adv-x="1131" 
d="M326 1118q-92 0 -151 56.5t-59 141.5q0 83 59.5 139t150.5 56q92 0 151 -55.5t59 -139.5q0 -86 -59 -142t-151 -56zM809 1118q-92 0 -151 56.5t-59 141.5q0 83 59.5 139t150.5 56q92 0 151 -55.5t59 -139.5q0 -56 -26.5 -101.5t-74.5 -71t-109 -25.5zM566 -21
q-230 0 -358.5 131t-128.5 391v502h365v-499q0 -42 4.5 -75t14 -57t24 -39.5t34 -23t44.5 -7.5q61 0 91 48.5t30 153.5v499h366v-502q0 -260 -128.5 -391t-357.5 -131z" />
    <glyph glyph-name="omicrontonos" unicode="&#x3cc;" horiz-adv-x="1180" 
d="M444 1142l109 370h385l-185 -370h-309zM590 -21q-158 0 -282 65.5t-192.5 184.5t-68.5 272t68.5 272t192.5 185t282 66q159 0 282.5 -66t192 -185t68.5 -272t-68.5 -272t-192 -184.5t-282.5 -65.5zM590 302q75 0 125 56.5t50 142.5q0 88 -49 143.5t-126 55.5
q-50 0 -90 -25t-62.5 -70.5t-22.5 -103.5q0 -86 50 -142.5t125 -56.5z" />
    <glyph glyph-name="upsilontonos" unicode="&#x3cd;" horiz-adv-x="1131" 
d="M426 1142l109 370h385l-185 -370h-309zM566 -21q-230 0 -358.5 131t-128.5 391v502h365v-499q0 -105 29 -153.5t92 -48.5q61 0 91 48.5t30 153.5v499h366v-502q0 -260 -128.5 -391t-357.5 -131z" />
    <glyph glyph-name="omegatonos" unicode="&#x3ce;" horiz-adv-x="1497" 
d="M1095 1512l-185 -370h-309l109 370h385zM1306 1024q3 -5 23 -42.5t24 -46.5t21 -44t22 -52.5t17.5 -53.5t17 -65t11.5 -69t9 -83.5t2 -91.5q0 -122 -33.5 -219t-90 -156.5t-127 -90.5t-149.5 -31q-214 0 -302 142h-5q-88 -142 -302 -142q-79 0 -149.5 31t-127 90.5
t-90 156.5t-33.5 219q0 48 2 91.5t9 83.5t11.5 69t17 65t17.5 53.5t22 52.5t21 44t24 46.5t23 42.5l328 -50q-49 -111 -77.5 -234.5t-28.5 -225.5q0 -76 10.5 -123t30.5 -68t51 -21q37 0 66.5 51t29.5 146v252h295v-252q0 -95 29.5 -146t66.5 -51q46 0 69 50t23 162
q0 68 -13 147.5t-37 159.5t-56 153z" />
    <glyph glyph-name="uni03D7" unicode="&#x3d7;" horiz-adv-x="1222" 
d="M773 580q81 -180 185 -274.5t257 -126.5v-184q-156 -168 -281 -262.5t-245 -135t-267 -40.5q-259 0 -411 72l51 272q68 -36 156 -57t157 -21q125 0 235.5 47t181.5 127v5q-172 113 -253 317h-5l-78 -86v-233h-366v1003h366v-300h4l257 300h441z" />
    <glyph glyph-name="Wgrave" unicode="&#x1e80;" horiz-adv-x="2089" 
d="M1210 1591h-327l-252 313l357 -2zM1658 1455h416l-452 -1455h-354l-216 885h-4l-227 -885h-354l-452 1455h415l212 -811h5l194 811h410l191 -811h5z" />
    <glyph glyph-name="wgrave" unicode="&#x1e81;" horiz-adv-x="1562" 
d="M949 1140h-327l-252 313l357 -2zM1192 1003h360l-337 -1003h-284l-149 565h-2l-143 -565h-290l-337 1003h361l141 -481h2l127 481h278l129 -481h2z" />
    <glyph glyph-name="Wacute" unicode="&#x1e82;" horiz-adv-x="2089" 
d="M1465 1904l-253 -313h-328l224 311zM1658 1455h416l-452 -1455h-354l-216 885h-4l-227 -885h-354l-452 1455h415l212 -811h5l194 811h410l191 -811h5z" />
    <glyph glyph-name="wacute" unicode="&#x1e83;" horiz-adv-x="1562" 
d="M1207 1453l-253 -313h-328l224 311zM1192 1003h360l-337 -1003h-284l-149 565h-2l-143 -565h-290l-337 1003h361l141 -481h2l127 481h278l129 -481h2z" />
    <glyph glyph-name="Wdieresis" unicode="&#x1e84;" horiz-adv-x="2089" 
d="M801 1567q-92 0 -151 56.5t-59 141.5q0 83 59.5 139t150.5 56q92 0 151 -55.5t59 -139.5q0 -86 -59 -142t-151 -56zM1284 1567q-60 0 -108.5 26t-75 71t-26.5 101q0 83 59.5 139t150.5 56q92 0 151 -55.5t59 -139.5q0 -86 -59 -142t-151 -56zM1658 1455h416l-452 -1455
h-354l-216 885h-4l-227 -885h-354l-452 1455h415l212 -811h5l194 811h410l191 -811h5z" />
    <glyph glyph-name="wdieresis" unicode="&#x1e85;" horiz-adv-x="1562" 
d="M536 1117q-92 0 -151 56.5t-59 141.5q0 83 59.5 139t150.5 56q92 0 151 -55.5t59 -139.5q0 -86 -59 -142t-151 -56zM1019 1117q-36 0 -69 10t-58.5 27.5t-44 42t-28.5 55t-10 63.5q0 83 59.5 139t150.5 56q60 0 108.5 -25.5t75 -70t26.5 -99.5q0 -86 -59 -142t-151 -56z
M1192 1003h360l-337 -1003h-284l-149 565h-2l-143 -565h-290l-337 1003h361l141 -481h2l127 481h278l129 -481h2z" />
    <glyph glyph-name="uni1E9E" unicode="&#x1e9e;" horiz-adv-x="1609" 
d="M1161 885q177 -68 248 -116q125 -85 149 -226q6 -38 6 -82q0 -66 -13.5 -125t-37.5 -104t-56 -83t-70.5 -65.5t-80 -48t-85.5 -32.5t-84.5 -18t-80.5 -6q-121 0 -242 45t-227 134l175 312q77 -74 159.5 -111t139.5 -37q32 0 54 14.5t31 35t9 44.5q0 32 -13.5 53t-53 42.5
t-117.5 47.5q-84 28 -150.5 59.5t-132.5 81.5l235 425l-1 5q-115 11 -213 11q-107 0 -175 -58t-68 -170l-2 -909h-377l2 921q0 104 19.5 187t57 143.5t89 103t120.5 68.5t146.5 37.5t170.5 11.5q378 0 732 -100l-264 -488z" />
    <glyph glyph-name="uni1EA0" unicode="&#x1ea0;" horiz-adv-x="1420" 
d="M1424 0h-407l-73 235h-467l-73 -235h-408l528 1455h372zM578 562h264l-130 418h-4zM711 -140q92 0 151 -56.5t59 -141.5q0 -83 -59.5 -139t-150.5 -56q-45 0 -84.5 15t-67 41t-43 62t-15.5 77q0 86 59 142t151 56z" />
    <glyph glyph-name="uni1EA1" unicode="&#x1ea1;" horiz-adv-x="1204" 
d="M751 1003h367v-1003h-347v94h-3q-90 -115 -258 -115q-102 0 -188.5 38.5t-147.5 106.5t-95.5 165.5t-34.5 212.5q0 113 34 211t93.5 166t141.5 106.5t175 38.5q156 0 260 -120h3v99zM591 299q75 0 125.5 56t50.5 146q0 88 -50.5 144.5t-125.5 56.5q-78 0 -128 -56
t-50 -145q0 -91 50 -146.5t128 -55.5zM595 -140q91 0 150.5 -56.5t59.5 -141.5q0 -54 -26.5 -98.5t-75 -70.5t-108.5 -26q-92 0 -151 55.5t-59 139.5q0 86 59 142t151 56z" />
    <glyph glyph-name="uni1EA2" unicode="&#x1ea2;" horiz-adv-x="1420" 
d="M692 1805q-23 0 -58 -17t-61 -35l-95 94q43 39 108 67t141 28q72 0 124 -21.5t77.5 -59.5t25.5 -88q0 -64 -51 -106.5t-140 -60.5l-9 -43l-134 -10q-34 40 -34 64q0 16 16 32t39 29.5t46.5 27.5t39.5 31.5t16 36.5q0 17 -12.5 24t-38.5 7zM1017 0l-73 235h-467l-73 -235
h-408l528 1455h372l528 -1455h-407zM578 562h264l-130 418h-4z" />
    <glyph glyph-name="uni1EA3" unicode="&#x1ea3;" horiz-adv-x="1204" 
d="M576 1354q-16 0 -40.5 -9.5t-44 -20.5t-34.5 -22l-95 94q43 39 108 67t141 28q109 0 168 -46t59 -123q0 -43 -24 -77t-66.5 -56t-100.5 -34l-9 -43l-134 -10q-34 40 -34 64q0 20 24.5 40t54 35t54 37t24.5 45q0 17 -12.5 24t-38.5 7zM751 1003h367v-1003h-347v94h-3
q-90 -115 -258 -115q-102 0 -188.5 38.5t-147.5 106.5t-95.5 165.5t-34.5 212.5q0 113 34 211t93.5 166t141.5 106.5t175 38.5q157 0 260 -120h3v99zM591 299q75 0 125.5 56t50.5 146q0 88 -50.5 144.5t-125.5 56.5q-78 0 -128 -56t-50 -145q0 -91 50 -146.5t128 -55.5z" />
    <glyph glyph-name="uni1EA4" unicode="&#x1ea4;" horiz-adv-x="1420" 
d="M1584 1989l-283 -313h-268l224 311zM706 1692l-74 -145h-304l217 318h316l232 -318h-307l-76 145h-4zM524 1455h372l528 -1455h-407l-73 235h-467l-73 -235h-408zM578 562h264l-130 418h-4z" />
    <glyph glyph-name="uni1EA5" unicode="&#x1ea5;" horiz-adv-x="1204" 
d="M1077 1656l327 2l-283 -313h-268zM588 1282l-74 -145h-304l217 318h316l232 -318h-307l-76 145h-4zM751 904v99h367v-1003h-347v94h-3q-90 -115 -258 -115q-102 0 -188.5 38.5t-147.5 106.5t-95.5 165.5t-34.5 212.5q0 113 34 211t93.5 166t141.5 106.5t175 38.5
q156 0 260 -120h3zM591 299q75 0 125.5 56t50.5 146q0 88 -50.5 144.5t-125.5 56.5q-78 0 -128 -56t-50 -145q0 -45 13.5 -83t37 -64t56.5 -40.5t71 -14.5z" />
    <glyph glyph-name="uni1EA6" unicode="&#x1ea6;" horiz-adv-x="1420" 
d="M1383 1676h-254l-233 313l313 -2zM707 1692l-74 -145h-304l217 318h316l232 -318h-307l-76 145h-4zM1017 0l-73 235h-467l-73 -235h-408l528 1455h372l528 -1455h-407zM578 562h264l-130 418h-4z" />
    <glyph glyph-name="uni1EA7" unicode="&#x1ea7;" horiz-adv-x="1204" 
d="M1204 1348h-254l-233 313l313 -2zM589 1281l-74 -145h-304l217 318h316l232 -318h-307l-76 145h-4zM751 904v99h367v-1003h-347v94h-3q-90 -115 -258 -115q-102 0 -188.5 38.5t-147.5 106.5t-95.5 165.5t-34.5 212.5q0 113 34 211t93.5 166t141.5 106.5t175 38.5
q156 0 260 -120h3zM591 299q75 0 125.5 56t50.5 146q0 88 -50.5 144.5t-125.5 56.5q-78 0 -128 -56t-50 -145q0 -45 13.5 -83t37 -64t56.5 -40.5t71 -14.5z" />
    <glyph glyph-name="uni1EA8" unicode="&#x1ea8;" horiz-adv-x="1420" 
d="M1165 1867q-23 0 -58 -17t-61 -35l-95 94q27 25 61.5 45t85 35t102.5 15q101 0 158.5 -46.5t57.5 -122.5q0 -63 -49 -106t-131 -61l-9 -43l-134 -10q-34 40 -34 64q0 20 24.5 40t54 35t54 37t24.5 45q0 17 -12.5 24t-38.5 7zM706 1692l-74 -145h-304l217 318h316
l232 -318h-307l-76 145h-4zM1017 0l-73 235h-467l-73 -235h-408l528 1455h372l528 -1455h-407zM578 562h264l-130 418h-4z" />
    <glyph glyph-name="uni1EA9" unicode="&#x1ea9;" horiz-adv-x="1204" 
d="M1030 1677q101 0 158.5 -46.5t57.5 -122.5q0 -63 -49 -106t-131 -61l-9 -43l-134 -10q-34 40 -34 64q0 20 24.5 40t54 35t54 37t24.5 45q0 17 -12.5 24t-38.5 7q-23 0 -58 -17t-61 -35l-95 94q43 39 108 67t141 28zM591 1281l-74 -145h-304l217 318h316l232 -318h-307
l-76 145h-4zM751 904v99h367v-1003h-347v94h-3q-90 -115 -258 -115q-102 0 -188.5 38.5t-147.5 106.5t-95.5 165.5t-34.5 212.5q0 113 34.5 211t93.5 166t141 106.5t175 38.5q157 0 260 -120h3zM591 299q75 0 125.5 56t50.5 146q0 88 -50.5 144.5t-125.5 56.5
q-78 0 -128 -56t-50 -145q0 -91 50 -146.5t128 -55.5z" />
    <glyph glyph-name="uni1EAA" unicode="&#x1eaa;" horiz-adv-x="1420" 
d="M569 1840q-17 0 -35.5 -10t-35.5 -28.5t-31 -42.5l-147 48q21 52 55 90.5t82.5 61.5t105.5 23q15 0 29.5 -1.5t30 -5.5t25 -6.5t27.5 -9.5l22 -9q5 -2 24 -11t21 -10q66 -31 107 -31q31 0 61.5 21.5t51.5 59.5l144 -35q-31 -89 -95 -139t-152 -50q-32 0 -66 8t-55 16
t-53 23q-84 38 -116 38zM711 1601l-120 -92h-300l287 209h256l302 -209h-303zM1017 0l-73 235h-467l-73 -235h-408l528 1455h372l528 -1455h-407zM578 562h264l-130 418h-4z" />
    <glyph glyph-name="uni1EAB" unicode="&#x1eab;" horiz-adv-x="1204" 
d="M520 1587q-47 0 -90 -93l-208 84q37 122 104 197.5t157 75.5q29 0 55.5 -6t36.5 -10.5t36 -19.5t29 -17q54 -33 83 -33q61 0 106 90l204 -68q-34 -124 -112 -206.5t-171 -82.5q-13 0 -24.5 1.5t-21 3t-20 5t-17.5 6t-17 8t-15.5 8.5t-17 9.5t-16.5 9.5q-9 5 -22.5 13.5
t-21 13t-17.5 8t-20 3.5zM592 1281l-74 -145h-304l217 318h316l232 -318h-307l-76 145h-4zM751 1003h367v-1003h-347v94h-3q-90 -115 -258 -115q-102 0 -188.5 38.5t-147.5 106.5t-95.5 165.5t-34.5 212.5q0 113 34 211t93.5 166t141.5 106.5t175 38.5q157 0 260 -120h3v99z
M591 299q75 0 125.5 56t50.5 146q0 88 -50.5 144.5t-125.5 56.5q-78 0 -128 -56t-50 -145q0 -91 50 -146.5t128 -55.5z" />
    <glyph glyph-name="uni1EAC" unicode="&#x1eac;" horiz-adv-x="1420" 
d="M707 1732l-74 -145h-304l217 318h316l232 -318h-307l-76 145h-4zM1424 0h-407l-73 235h-467l-73 -235h-408l528 1455h372zM578 562h264l-130 418h-4zM711 -140q92 0 151 -56.5t59 -141.5q0 -83 -59.5 -139t-150.5 -56q-45 0 -84.5 15t-67 41t-43 62t-15.5 77q0 86 59 142
t151 56z" />
    <glyph glyph-name="uni1EAD" unicode="&#x1ead;" horiz-adv-x="1204" 
d="M591 1281l-74 -145h-304l217 318h316l232 -318h-307l-76 145h-4zM751 1003h367v-1003h-347v94h-3q-90 -115 -258 -115q-102 0 -188.5 38.5t-147.5 106.5t-95.5 165.5t-34.5 212.5q0 113 34 211t93.5 166t141.5 106.5t175 38.5q156 0 260 -120h3v99zM591 299
q75 0 125.5 56t50.5 146q0 88 -50.5 144.5t-125.5 56.5q-78 0 -128 -56t-50 -145q0 -91 50 -146.5t128 -55.5zM595 -140q91 0 150.5 -56.5t59.5 -141.5q0 -54 -26.5 -98.5t-75 -70.5t-108.5 -26q-92 0 -151 55.5t-59 139.5q0 86 59 142t151 56z" />
    <glyph glyph-name="uni1EAE" unicode="&#x1eae;" horiz-adv-x="1420" 
d="M1166 1941l-359 -225h-217l189 223zM711 1487q-159 0 -258.5 61t-141.5 188h211q25 -47 74 -73t115 -26t115 26t74 73h211q-42 -127 -141.5 -188t-258.5 -61zM1017 0l-73 235h-467l-73 -235h-408l528 1455h372l528 -1455h-407zM578 562h264l-130 418h-4z" />
    <glyph glyph-name="uni1EAF" unicode="&#x1eaf;" horiz-adv-x="1204" 
d="M977 1821l-253 -313h-328l224 311zM596 1125q-96 0 -176 37t-133 113t-61 179h260q4 -44 33 -73.5t77 -29.5q22 0 41 6.5t33.5 19t24 32.5t10.5 45h261q-6 -68 -33.5 -127.5t-73.5 -104.5t-114 -71t-149 -26zM751 1003h367v-1003h-347v94h-3q-90 -115 -258 -115
q-102 0 -188.5 38.5t-147.5 106.5t-95.5 165.5t-34.5 212.5q0 113 34 211t93.5 166t141.5 106.5t175 38.5q156 0 260 -120h3v99zM591 299q75 0 125.5 56t50.5 146q0 88 -50.5 144.5t-125.5 56.5q-78 0 -128 -56t-50 -145q0 -91 50 -146.5t128 -55.5z" />
    <glyph glyph-name="uni1EB0" unicode="&#x1eb0;" horiz-adv-x="1420" 
d="M832 1716h-217l-359 225l387 -2zM522 1736q25 -47 74 -73t115 -26t115 26t74 73h211q-42 -127 -141.5 -188t-258.5 -61t-258.5 61t-141.5 188h211zM1017 0l-73 235h-467l-73 -235h-408l528 1455h372l528 -1455h-407zM578 562h264l-130 418h-4z" />
    <glyph glyph-name="uni1EB1" unicode="&#x1eb1;" horiz-adv-x="1204" 
d="M696 1508h-327l-252 313l357 -2zM584 1351q22 0 41 6.5t33.5 19t24 32.5t10.5 45h261q-6 -68 -33.5 -127.5t-73.5 -104.5t-114 -71t-149 -26q-96 0 -176 37t-133 113t-61 179h260q4 -44 33 -73.5t77 -29.5zM751 1003h367v-1003h-347v94h-3q-90 -115 -258 -115
q-102 0 -188.5 38.5t-147.5 106.5t-95.5 165.5t-34.5 212.5q0 113 34 211t93.5 166t141.5 106.5t175 38.5q156 0 260 -120h3v99zM591 299q75 0 125.5 56t50.5 146q0 88 -50.5 144.5t-125.5 56.5q-78 0 -128 -56t-50 -145q0 -45 13.5 -83t37 -64t56.5 -40.5t71 -14.5z" />
    <glyph glyph-name="uni1EB2" unicode="&#x1eb2;" horiz-adv-x="1420" 
d="M693 1846q-38 0 -108 -47l-86 85q39 36 98 61t128 25q85 0 135.5 -36t50.5 -97q0 -56 -43 -95t-110 -56l-9 -19l-71 -2q-61 -2 -61 41q0 9 6.5 17.5t17.5 16t24 15.5t26 15.5t24 15.5t17.5 17.5t6.5 18.5q0 24 -46 24zM711 1487q-159 0 -258.5 61t-141.5 188h211
q25 -47 74 -73t115 -26q62 0 113 25t76 74h211q-42 -127 -141.5 -188t-258.5 -61zM1017 0l-73 235h-467l-73 -235h-408l528 1455h372l528 -1455h-407zM578 562h264l-130 418h-4z" />
    <glyph glyph-name="uni1EB3" unicode="&#x1eb3;" horiz-adv-x="1204" 
d="M572 1731q-23 0 -58 -17t-61 -35l-95 94q43 39 108 67t141 28q109 0 168 -46t59 -123q0 -43 -24 -77t-66.5 -56t-100.5 -34l-9 -43l-134 -10q-34 40 -34 64q0 20 24.5 40t54 35t54 37t24.5 45q0 17 -12.5 24t-38.5 7zM591 1125q-96 0 -176 37t-133 113t-61 179h260
q3 -29 16 -52t37.5 -37t56.5 -14q22 0 41 6.5t33.5 19t24 32.5t10.5 45h261q-6 -68 -33.5 -127.5t-73.5 -104.5t-114 -71t-149 -26zM751 1003h367v-1003h-347v94h-3q-90 -115 -258 -115q-102 0 -188.5 38.5t-147.5 106.5t-95.5 165.5t-34.5 212.5q0 113 34 211t93.5 166
t141.5 106.5t175 38.5q156 0 260 -120h3v99zM591 299q75 0 125.5 56t50.5 146q0 88 -50.5 144.5t-125.5 56.5q-78 0 -128 -56t-50 -145q0 -36 8.5 -68t24.5 -56.5t38 -42t49 -26.5t58 -9z" />
    <glyph glyph-name="uni1EB4" unicode="&#x1eb4;" horiz-adv-x="1420" 
d="M569 1840q-17 0 -35.5 -10t-35.5 -28.5t-31 -42.5l-147 48q21 52 55 90.5t82.5 61.5t105.5 23q15 0 29.5 -1.5t30 -5.5t25 -6.5t27.5 -9.5l22 -9q5 -2 24 -11t21 -10q66 -31 107 -31q31 0 61.5 21.5t51.5 59.5l144 -35q-31 -89 -95 -139t-152 -50q-32 0 -66 8t-55 16
t-53 23q-84 38 -116 38zM711 1487q-159 0 -258.5 61t-141.5 188h211q25 -47 74 -73t115 -26t115 26t74 73h211q-42 -127 -141.5 -188t-258.5 -61zM1017 0l-73 235h-467l-73 -235h-408l528 1455h372l528 -1455h-407zM578 562h264l-130 418h-4z" />
    <glyph glyph-name="uni1EB5" unicode="&#x1eb5;" horiz-adv-x="1204" 
d="M515 1587q-47 0 -90 -93l-208 84q37 122 104 197.5t157 75.5q24 0 43.5 -3t36.5 -9.5t27 -11.5t26.5 -15t23.5 -14q54 -33 83 -33q61 0 106 90l204 -68q-34 -124 -112 -206.5t-171 -82.5q-14 0 -27 1t-25 4.5t-20.5 6t-21 8.5t-17.5 9t-19 11t-19 11q-9 5 -22.5 13.5
t-21 13t-17.5 8t-20 3.5zM589 1351q45 0 75.5 27t33.5 76h261q-6 -68 -33.5 -127.5t-73.5 -104.5t-114 -71t-149 -26q-96 0 -176 37t-133 113t-61 179h260q4 -44 33 -73.5t77 -29.5zM751 1003h367v-1003h-347v94h-3q-90 -115 -258 -115q-102 0 -188.5 38.5t-147.5 106.5
t-95.5 165.5t-34.5 212.5q0 113 34 211t93.5 166t141.5 106.5t175 38.5q156 0 260 -120h3v99zM591 299q75 0 125.5 56t50.5 146q0 88 -50.5 144.5t-125.5 56.5q-78 0 -128 -56t-50 -145q0 -45 13.5 -83t37 -64t56.5 -40.5t71 -14.5z" />
    <glyph glyph-name="uni1EB6" unicode="&#x1eb6;" horiz-adv-x="1420" 
d="M711 1576q-96 0 -176 37t-133 113t-61 179h260q2 -21 10 -39.5t21.5 -33t34 -22.5t44.5 -8q45 0 75.5 27t33.5 76h261q-6 -68 -33.5 -127.5t-73.5 -104.5t-114 -71t-149 -26zM1424 0h-407l-73 235h-467l-73 -235h-408l528 1455h372zM578 562h264l-130 418h-4zM711 -140
q92 0 151 -56.5t59 -141.5q0 -83 -59.5 -139t-150.5 -56q-45 0 -84.5 15t-67 41t-43 62t-15.5 77q0 86 59 142t151 56z" />
    <glyph glyph-name="uni1EB7" unicode="&#x1eb7;" horiz-adv-x="1204" 
d="M595 1125q-96 0 -176 37t-133 113t-61 179h260q4 -44 33 -73.5t77 -29.5q45 0 75.5 27t33.5 76h261q-6 -68 -33.5 -127.5t-73.5 -104.5t-114 -71t-149 -26zM751 1003h367v-1003h-347v94h-3q-90 -115 -258 -115q-102 0 -188.5 38.5t-147.5 106.5t-95.5 165.5t-34.5 212.5
q0 113 34 211t93.5 166t141.5 106.5t175 38.5q156 0 260 -120h3v99zM591 299q75 0 125.5 56t50.5 146q0 88 -50.5 144.5t-125.5 56.5q-78 0 -128 -56t-50 -145q0 -45 13.5 -83t37 -64t56.5 -40.5t71 -14.5zM595 -140q91 0 150.5 -56.5t59.5 -141.5q0 -54 -26.5 -98.5
t-75 -70.5t-108.5 -26q-92 0 -151 55.5t-59 139.5q0 86 59 142t151 56z" />
    <glyph glyph-name="uni1EB8" unicode="&#x1eb8;" horiz-adv-x="1176" 
d="M106 0v1455h967v-347h-590v-219h462v-338h-462v-205h633v-346h-1010zM608 -140q92 0 151 -56.5t59 -141.5q0 -54 -26.5 -98.5t-75 -70.5t-108.5 -26q-92 0 -151 55.5t-59 139.5q0 86 59 142t151 56z" />
    <glyph glyph-name="uni1EB9" unicode="&#x1eb9;" horiz-adv-x="1116" 
d="M1072 509q0 -57 -10 -97h-658q12 -70 68.5 -107t139.5 -37q125 0 231 111l189 -208q-68 -85 -187.5 -138.5t-271.5 -53.5q-149 0 -269 65.5t-188.5 185.5t-68.5 272q0 150 66.5 269t185.5 186t268 67q107 0 201 -38.5t160.5 -105.5t105 -163.5t38.5 -207.5zM565 745
q-61 0 -104.5 -35.5t-55.5 -98.5h312q-7 31 -20.5 56t-32.5 42.5t-44.5 26.5t-54.5 9zM572 -140q91 0 150.5 -56.5t59.5 -141.5q0 -83 -59.5 -139t-150.5 -56q-92 0 -151 55.5t-59 139.5q0 86 59 142t151 56z" />
    <glyph glyph-name="uni1EBA" unicode="&#x1eba;" horiz-adv-x="1176" 
d="M500 1549q-34 40 -34 64q0 20 24.5 40t54 35t54 37t24.5 45q0 17 -12.5 24t-38.5 7q-23 0 -58 -17t-61 -35l-95 94q20 18 45 34t56.5 30t70 22.5t77.5 8.5q109 0 168 -46t59 -123q0 -43 -24 -77t-66.5 -56t-100.5 -34l-9 -43zM106 0v1455h967v-347h-590v-219h462v-338
h-462v-205h633v-346h-1010z" />
    <glyph glyph-name="uni1EBB" unicode="&#x1ebb;" horiz-adv-x="1116" 
d="M550 1354q-23 0 -58 -17t-61 -35l-95 94q43 39 108 67t141 28q109 0 168 -46t59 -123q0 -43 -24 -77t-66.5 -56t-100.5 -34l-9 -43l-134 -10q-34 40 -34 64q0 20 24.5 40t54 35t54 37t24.5 45q0 11 -6 18t-17 10t-28 3zM1072 509q0 -57 -10 -97h-658q8 -47 37.5 -80
t73 -48.5t97.5 -15.5q125 0 231 111l189 -208q-68 -85 -187.5 -138.5t-271.5 -53.5q-149 0 -269 65.5t-188.5 185.5t-68.5 272q0 150 66.5 269t185.5 186t268 67q107 0 201 -38.5t160.5 -105.5t105 -163.5t38.5 -207.5zM565 745q-61 0 -104.5 -35.5t-55.5 -98.5h312
q-14 63 -53.5 98.5t-98.5 35.5z" />
    <glyph glyph-name="uni1EBC" unicode="&#x1ebc;" horiz-adv-x="1176" 
d="M381 1564l-210 84q37 121 109 197t169 76q43 0 82 -10t54 -17.5t48 -25.5q54 -33 94 -33q67 0 112 90l206 -68q-35 -128 -105.5 -208.5t-166.5 -80.5q-89 0 -179 51q-1 1 -13 7l-14 7l-12 6q-10 5 -13.5 6.5t-12 4.5t-14 4t-12.5 2t-14 1q-65 0 -108 -93zM106 0v1455h967
v-347h-590v-219h462v-338h-462v-205h633v-346h-1010z" />
    <glyph glyph-name="uni1EBD" unicode="&#x1ebd;" horiz-adv-x="1116" 
d="M467 1210q-65 0 -108 -93l-210 84q37 121 109 197t169 76q43 0 82 -10t54 -17.5t48 -25.5q54 -33 94 -33q67 0 112 90l206 -68q-23 -83 -60 -146.5t-92 -103t-120 -39.5q-89 0 -179 51q-2 1 -13 7t-13.5 7t-12.5 6t-13.5 6.5t-12 4.5t-14 4t-12.5 2t-14 1zM1072 509
q0 -57 -10 -97h-658q8 -47 37.5 -80t73 -48.5t97.5 -15.5q125 0 231 111l189 -208q-68 -85 -187.5 -138.5t-271.5 -53.5q-149 0 -269 65.5t-188.5 185.5t-68.5 272q0 150 66.5 269t185.5 186t268 67q107 0 201 -38.5t160.5 -105.5t105 -163.5t38.5 -207.5zM565 745
q-61 0 -104.5 -35.5t-55.5 -98.5h312q-14 63 -53.5 98.5t-98.5 35.5z" />
    <glyph glyph-name="uni1EBE" unicode="&#x1ebe;" horiz-adv-x="1176" 
d="M1137 1983l327 2l-283 -313h-268zM586 1688l-74 -145h-304l217 318h316l232 -318h-307l-76 145h-4zM483 551v-205h633v-346h-1010v1455h967v-347h-590v-219h462v-338h-462z" />
    <glyph glyph-name="uni1EBF" unicode="&#x1ebf;" horiz-adv-x="1116" 
d="M1051 1656l327 2l-283 -313h-268zM562 1282l-74 -145h-304l217 318h316l232 -318h-307l-76 145h-4zM567 1024q107 0 201 -38.5t160.5 -105.5t105 -163.5t38.5 -207.5q0 -57 -10 -97h-658q12 -70 68.5 -107t139.5 -37q125 0 231 111l189 -208q-68 -85 -187.5 -138.5
t-271.5 -53.5q-149 0 -269 65.5t-188.5 185.5t-68.5 272q0 150 66.5 269t185.5 186t268 67zM565 745q-61 0 -104.5 -35.5t-55.5 -98.5h312q-14 63 -53.5 98.5t-98.5 35.5z" />
    <glyph glyph-name="uni1EC0" unicode="&#x1ec0;" horiz-adv-x="1176" 
d="M1263 1672h-254l-233 313l313 -2zM587 1688l-74 -145h-304l217 318h316l232 -318h-307l-76 145h-4zM483 551v-205h633v-346h-1010v1455h967v-347h-590v-219h462v-338h-462z" />
    <glyph glyph-name="uni1EC1" unicode="&#x1ec1;" horiz-adv-x="1116" 
d="M1178 1348h-254l-233 313l313 -2zM563 1281l-74 -145h-304l217 318h316l232 -318h-307l-76 145h-4zM567 1024q107 0 201 -38.5t160.5 -105.5t105 -163.5t38.5 -207.5q0 -57 -10 -97h-658q12 -70 68.5 -107t139.5 -37q125 0 231 111l189 -208q-68 -85 -187.5 -138.5
t-271.5 -53.5q-149 0 -269 65.5t-188.5 185.5t-68.5 272q0 150 66.5 269t185.5 186t268 67zM565 745q-61 0 -104.5 -35.5t-55.5 -98.5h312q-14 63 -53.5 98.5t-98.5 35.5z" />
    <glyph glyph-name="uni1EC2" unicode="&#x1ec2;" horiz-adv-x="1176" 
d="M1080 2000q101 0 158.5 -46.5t57.5 -122.5q0 -63 -49 -106t-131 -61l-9 -43l-134 -10q-34 40 -34 64q0 16 16 32t39 29.5t46.5 27.5t39.5 31.5t16 36.5q0 17 -12.5 24t-38.5 7q-23 0 -58 -17t-61 -35l-95 94q20 18 45 34t56.5 30t70 22.5t77.5 8.5zM586 1688l-74 -145
h-304l217 318h316l232 -318h-307l-76 145h-4zM483 551v-205h633v-346h-1010v1455h967v-347h-590v-219h462v-338h-462z" />
    <glyph glyph-name="uni1EC3" unicode="&#x1ec3;" horiz-adv-x="1116" 
d="M1004 1677q101 0 158.5 -46.5t57.5 -122.5q0 -63 -49 -106t-131 -61l-9 -43l-134 -10q-34 40 -34 64q0 20 24.5 40t54 35t54 37t24.5 45q0 17 -12.5 24t-38.5 7q-23 0 -58 -17t-61 -35l-95 94q43 39 108 67t141 28zM565 1281l-74 -145h-304l217 318h316l232 -318h-307
l-76 145h-4zM567 1024q107 0 201 -38.5t160.5 -105.5t105 -163.5t38.5 -207.5q0 -57 -10 -97h-658q12 -70 68.5 -107t139.5 -37q125 0 231 111l189 -208q-68 -85 -187.5 -138.5t-271.5 -53.5q-149 0 -269 65.5t-188.5 185.5t-68.5 272q0 150 66.5 269t185.5 186t268 67z
M565 745q-61 0 -104.5 -35.5t-55.5 -98.5h312q-14 63 -53.5 98.5t-98.5 35.5z" />
    <glyph glyph-name="uni1EC4" unicode="&#x1ec4;" horiz-adv-x="1176" 
d="M739 1751q-32 0 -66 8t-55 16t-53 23q-84 38 -116 38q-25 0 -53 -22t-49 -59l-147 48q33 80 95.5 127.5t147.5 47.5q15 0 29.5 -1.5t30 -5.5t25 -6.5t27.5 -9.5l22 -9q5 -2 24 -11t21 -10q66 -31 107 -31q31 0 61.5 21.5t51.5 59.5l144 -35q-31 -89 -95 -139t-152 -50z
M171 1505l287 209h256l302 -209h-303l-122 92l-120 -92h-300zM106 0v1455h967v-347h-590v-219h462v-338h-462v-205h633v-346h-1010z" />
    <glyph glyph-name="uni1EC5" unicode="&#x1ec5;" horiz-adv-x="1116" 
d="M494 1587q-47 0 -90 -93l-208 84q37 122 104 197.5t157 75.5q29 0 55.5 -6t36.5 -10.5t36 -19.5t29 -17q54 -33 83 -33q61 0 106 90l204 -68q-34 -124 -112 -206.5t-171 -82.5q-14 0 -27 1t-25 4.5t-20.5 6t-21 8.5t-17.5 9t-19 11t-19 11q-9 5 -22.5 13.5t-21 13
t-17.5 8t-20 3.5zM566 1281l-74 -145h-304l217 318h316l232 -318h-307l-76 145h-4zM1072 509q0 -57 -10 -97h-658q12 -70 68.5 -107t139.5 -37q125 0 231 111l189 -208q-68 -85 -187.5 -138.5t-271.5 -53.5q-149 0 -269 65.5t-188.5 185.5t-68.5 272q0 150 66.5 269
t185.5 186t268 67q107 0 201 -38.5t160.5 -105.5t105 -163.5t38.5 -207.5zM565 745q-61 0 -104.5 -35.5t-55.5 -98.5h312q-14 63 -53.5 98.5t-98.5 35.5z" />
    <glyph glyph-name="uni1EC6" unicode="&#x1ec6;" horiz-adv-x="1176" 
d="M587 1728l-74 -145h-304l217 318h316l232 -318h-307l-76 145h-4zM483 346h633v-346h-1010v1455h967v-347h-590v-219h462v-338h-462v-205zM608 -140q92 0 151 -56.5t59 -141.5q0 -83 -59.5 -139t-150.5 -56q-92 0 -151 55.5t-59 139.5q0 86 59 142t151 56z" />
    <glyph glyph-name="uni1EC7" unicode="&#x1ec7;" horiz-adv-x="1116" 
d="M565 1281l-74 -145h-304l217 318h316l232 -318h-307l-76 145h-4zM1072 509q0 -57 -10 -97h-658q12 -70 68.5 -107t139.5 -37q125 0 231 111l189 -208q-68 -85 -187.5 -138.5t-271.5 -53.5q-149 0 -269 65.5t-188.5 185.5t-68.5 272q0 150 66.5 269t185.5 186t268 67
q107 0 201 -38.5t160.5 -105.5t105 -163.5t38.5 -207.5zM565 745q-61 0 -104.5 -35.5t-55.5 -98.5h312q-7 31 -20.5 56t-32.5 42.5t-44.5 26.5t-54.5 9zM572 -140q92 0 151 -56.5t59 -141.5q0 -83 -59.5 -139t-150.5 -56q-92 0 -151 55.5t-59 139.5q0 86 59 142t151 56z" />
    <glyph glyph-name="uni1EC8" unicode="&#x1ec8;" horiz-adv-x="629" 
d="M224 1549q-34 40 -34 64q0 20 24.5 40t54 35t54 37t24.5 45q0 11 -6 18t-17 10t-28 3q-23 0 -58 -17t-61 -35l-95 94q43 39 108 67t141 28q72 0 124 -21.5t77.5 -59.5t25.5 -88q0 -64 -51 -106.5t-140 -60.5l-9 -43zM117 0v1455h395v-1455h-395z" />
    <glyph glyph-name="uni1EC9" unicode="&#x1ec9;" horiz-adv-x="564" 
d="M191 1102q-34 40 -34 64q0 20 24.5 40t54 35t54 37t24.5 45q0 17 -12.5 24t-38.5 7q-23 0 -58 -17t-61 -35l-95 94q43 39 108 67t141 28q109 0 168 -46t59 -123q0 -43 -24 -77t-66.5 -56t-100.5 -34l-9 -43zM99 0v1003h365v-1003h-365z" />
    <glyph glyph-name="uni1ECA" unicode="&#x1eca;" horiz-adv-x="629" 
d="M117 0v1455h395v-1455h-395zM312 -140q91 0 150.5 -56.5t59.5 -141.5q0 -83 -59.5 -139t-150.5 -56q-92 0 -151 55.5t-59 139.5q0 86 59 142t151 56z" />
    <glyph glyph-name="uni1ECB" unicode="&#x1ecb;" horiz-adv-x="564" 
d="M282 1117q-92 0 -151 56.5t-59 141.5q0 54 26.5 98.5t75 70.5t108.5 26q92 0 151 -55.5t59 -139.5q0 -86 -59 -142t-151 -56zM99 0v1003h365v-1003h-365zM298 -140q91 0 150.5 -56.5t59.5 -141.5q0 -83 -59.5 -139t-150.5 -56q-92 0 -151 55.5t-59 139.5q0 86 59 142
t151 56z" />
    <glyph glyph-name="uni1ECC" unicode="&#x1ecc;" horiz-adv-x="1633" 
d="M818 -21q-166 0 -307 55t-240 153t-154.5 237t-55.5 303t55.5 303.5t154.5 237.5t240 153t307 55q164 0 304 -54.5t239 -152t155 -237.5t56 -305t-56 -304.5t-155 -237t-239 -152t-304 -54.5zM817 342q101 0 181.5 51.5t124 139t43.5 194.5t-43.5 194.5t-124 139
t-181.5 51.5t-181 -51t-124.5 -139t-44.5 -195t44.5 -194.5t125 -139t180.5 -51.5zM819 -140q92 0 151 -56.5t59 -141.5q0 -54 -26.5 -98.5t-75 -70.5t-108.5 -26q-45 0 -84.5 15t-67 41t-43 62t-15.5 77q0 86 59 142t151 56z" />
    <glyph glyph-name="uni1ECD" unicode="&#x1ecd;" horiz-adv-x="1194" 
d="M597 -21q-160 0 -285.5 65.5t-195 184.5t-69.5 272t69.5 272t195 185t285.5 66t285 -66t195 -185t70 -272t-70 -272t-195 -184.5t-285 -65.5zM597 302q78 0 130 56.5t52 142.5q0 88 -51 143.5t-131 55.5q-39 0 -73 -15t-58 -41t-37.5 -63t-13.5 -80q0 -34 9 -65t25.5 -55
t39 -42t50 -27.5t58.5 -9.5zM599 -140q91 0 150.5 -56.5t59.5 -141.5q0 -83 -59.5 -139t-150.5 -56q-92 0 -151 55.5t-59 139.5q0 86 59 142t151 56z" />
    <glyph glyph-name="uni1ECE" unicode="&#x1ece;" horiz-adv-x="1633" 
d="M729 1552q-34 40 -34 64q0 20 24.5 40t54 35t54 37t24.5 45q0 17 -12.5 24t-38.5 7q-16 0 -40.5 -9.5t-44 -20.5t-34.5 -22l-95 94q43 39 108 67t141 28q109 0 168 -46t59 -123q0 -64 -51 -106.5t-140 -60.5l-9 -43zM818 -21q-166 0 -307 55t-240 153t-154.5 237
t-55.5 303t55.5 303.5t154.5 237.5t240 153t307 55q164 0 304 -54.5t239 -152t155 -237.5t56 -305t-56 -304.5t-155 -237t-239 -152t-304 -54.5zM817 342q101 0 181.5 51.5t124 139t43.5 194.5t-43.5 194.5t-124 139t-181.5 51.5t-181 -51t-124.5 -139t-44.5 -195
q0 -163 99 -274t251 -111z" />
    <glyph glyph-name="uni1ECF" unicode="&#x1ecf;" horiz-adv-x="1194" 
d="M508 1102q-34 40 -34 64q0 20 24.5 40t54 35t54 37t24.5 45q0 31 -51 31q-23 0 -58 -17t-61 -35l-95 94q43 39 108 67t141 28q72 0 124 -21.5t77.5 -59.5t25.5 -88q0 -43 -24 -77t-66.5 -56t-100.5 -34l-9 -43zM597 -21q-160 0 -285.5 65.5t-195 184.5t-69.5 272
t69.5 272t195 185t285.5 66t285 -66t195 -185t70 -272t-70 -272t-195 -184.5t-285 -65.5zM597 302q78 0 130 56.5t52 142.5q0 88 -51 143.5t-131 55.5q-52 0 -93.5 -25t-65 -70.5t-23.5 -103.5q0 -86 52 -142.5t130 -56.5z" />
    <glyph glyph-name="uni1ED0" unicode="&#x1ed0;" horiz-adv-x="1633" 
d="M1693 1988l-283 -313h-268l224 311zM815 1691l-74 -145h-304l217 318h316l232 -318h-307l-76 145h-4zM818 1476q164 0 304 -54.5t239 -152t155 -237.5t56 -305t-56 -304.5t-155 -237t-239 -152t-304 -54.5q-166 0 -307 55t-240 153t-154.5 237t-55.5 303t55.5 303.5
t154.5 237.5t240 153t307 55zM817 342q101 0 181.5 51.5t124 139t43.5 194.5t-43.5 194.5t-124 139t-181.5 51.5t-181 -51t-124.5 -139t-44.5 -195t44.5 -194.5t125 -139t180.5 -51.5z" />
    <glyph glyph-name="uni1ED1" unicode="&#x1ed1;" horiz-adv-x="1194" 
d="M1408 1658l-283 -313h-268l224 311zM592 1282l-74 -145h-304l217 318h316l232 -318h-307l-76 145h-4zM597 1024q160 0 285 -66t195 -185t70 -272t-70 -272t-195 -184.5t-285 -65.5t-285.5 65.5t-195 184.5t-69.5 272t69.5 272t195 185t285.5 66zM597 302q78 0 130 56.5
t52 142.5q0 88 -51 143.5t-131 55.5q-52 0 -93.5 -25t-65 -70.5t-23.5 -103.5q0 -86 52 -142.5t130 -56.5z" />
    <glyph glyph-name="uni1ED2" unicode="&#x1ed2;" horiz-adv-x="1633" 
d="M1492 1675h-254l-233 313l313 -2zM816 1691l-74 -145h-304l217 318h316l232 -318h-307l-76 145h-4zM818 1476q164 0 304 -54.5t239 -152t155 -237.5t56 -305t-56 -304.5t-155 -237t-239 -152t-304 -54.5q-166 0 -307 55t-240 153t-154.5 237t-55.5 303t55.5 303.5
t154.5 237.5t240 153t307 55zM817 342q101 0 181.5 51.5t124 139t43.5 194.5t-43.5 194.5t-124 139t-181.5 51.5t-181 -51t-124.5 -139t-44.5 -195t44.5 -194.5t125 -139t180.5 -51.5z" />
    <glyph glyph-name="uni1ED3" unicode="&#x1ed3;" horiz-adv-x="1194" 
d="M1208 1348h-254l-233 313l313 -2zM593 1281l-74 -145h-304l217 318h316l232 -318h-307l-76 145h-4zM597 1024q160 0 285 -66t195 -185t70 -272t-70 -272t-195 -184.5t-285 -65.5t-285.5 65.5t-195 184.5t-69.5 272t69.5 272t195 185t285.5 66zM597 302q78 0 130 56.5
t52 142.5q0 58 -23 103.5t-64.5 70.5t-94.5 25q-52 0 -93.5 -25t-65 -70.5t-23.5 -103.5q0 -34 9 -65t25.5 -55t39 -42t50 -27.5t58.5 -9.5z" />
    <glyph glyph-name="uni1ED4" unicode="&#x1ed4;" horiz-adv-x="1633" 
d="M1274 1866q-23 0 -58 -17t-61 -35l-95 94q43 39 108 67t141 28q101 0 158.5 -46.5t57.5 -122.5q0 -63 -49 -106t-131 -61l-9 -43l-134 -10q-34 40 -34 64q0 20 24.5 40t54 35t54 37t24.5 45q0 17 -12.5 24t-38.5 7zM815 1691l-74 -145h-304l217 318h316l232 -318h-307
l-76 145h-4zM818 1476q164 0 304 -54.5t239 -152t155 -237.5t56 -305t-56 -304.5t-155 -237t-239 -152t-304 -54.5q-166 0 -307 55t-240 153t-154.5 237t-55.5 303t55.5 303.5t154.5 237.5t240 153t307 55zM817 342q101 0 181.5 51.5t124 139t43.5 194.5t-43.5 194.5
t-124 139t-181.5 51.5t-181 -51t-124.5 -139t-44.5 -195t44.5 -194.5t125 -139t180.5 -51.5z" />
    <glyph glyph-name="uni1ED5" unicode="&#x1ed5;" horiz-adv-x="1194" 
d="M1034 1677q101 0 158.5 -46.5t57.5 -122.5q0 -63 -49 -106t-131 -61l-9 -43l-134 -10q-34 40 -34 64q0 20 24.5 40t54 35t54 37t24.5 45q0 17 -12.5 24t-38.5 7q-23 0 -58 -17t-61 -35l-95 94q43 39 108 67t141 28zM595 1281l-74 -145h-304l217 318h316l232 -318h-307
l-76 145h-4zM597 1024q160 0 285 -66t195 -185t70 -272t-70 -272t-195 -184.5t-285 -65.5t-285.5 65.5t-195 184.5t-69.5 272t69.5 272t195 185t285.5 66zM597 302q78 0 130 56.5t52 142.5q0 88 -51 143.5t-131 55.5q-52 0 -93.5 -25t-65 -70.5t-23.5 -103.5
q0 -86 52 -142.5t130 -56.5z" />
    <glyph glyph-name="uni1ED6" unicode="&#x1ed6;" horiz-adv-x="1633" 
d="M968 1754q-32 0 -66 8t-55 16t-53 23q-84 38 -116 38q-17 0 -35.5 -10t-35.5 -28.5t-31 -42.5l-147 48q33 80 95.5 127.5t147.5 47.5q13 0 27 -1.5t24.5 -3.5t24.5 -6t22 -6.5t22 -8.5t20 -8.5t20.5 -9.5t18.5 -9q66 -31 107 -31q31 0 61.5 21.5t51.5 59.5l144 -35
q-31 -89 -95 -139t-152 -50zM400 1508l287 209h256l302 -209h-303l-122 92l-120 -92h-300zM818 -21q-166 0 -307 55t-240 153t-154.5 237t-55.5 303t55.5 303.5t154.5 237.5t240 153t307 55q164 0 304 -54.5t239 -152t155 -237.5t56 -305t-56 -304.5t-155 -237t-239 -152
t-304 -54.5zM817 342q101 0 181.5 51.5t124 139t43.5 194.5t-43.5 194.5t-124 139t-181.5 51.5t-181 -51t-124.5 -139t-44.5 -195t44.5 -194.5t125 -139t180.5 -51.5z" />
    <glyph glyph-name="uni1ED7" unicode="&#x1ed7;" horiz-adv-x="1194" 
d="M524 1587q-47 0 -90 -93l-208 84q37 122 104 197.5t157 75.5q24 0 43.5 -3t36.5 -9.5t27 -11.5t26.5 -15t23.5 -14q54 -33 83 -33q61 0 106 90l204 -68q-34 -124 -112 -206.5t-171 -82.5q-14 0 -27 1t-25 4.5t-20.5 6t-21 8.5t-17.5 9t-19 11t-19 11q-9 5 -22.5 13.5
t-21 13t-17.5 8t-20 3.5zM596 1281l-74 -145h-304l217 318h316l232 -318h-307l-76 145h-4zM597 1024q160 0 285 -66t195 -185t70 -272t-70 -272t-195 -184.5t-285 -65.5t-285.5 65.5t-195 184.5t-69.5 272t69.5 272t195 185t285.5 66zM597 302q78 0 130 56.5t52 142.5
q0 58 -23 103.5t-64.5 70.5t-94.5 25q-80 0 -131 -55.5t-51 -143.5q0 -86 52 -142.5t130 -56.5z" />
    <glyph glyph-name="uni1ED8" unicode="&#x1ed8;" horiz-adv-x="1633" 
d="M816 1731l-74 -145h-304l217 318h316l232 -318h-307l-76 145h-4zM818 1476q164 0 304 -54.5t239 -152t155 -237.5t56 -305t-56 -304.5t-155 -237t-239 -152t-304 -54.5q-166 0 -307 55t-240 153t-154.5 237t-55.5 303t55.5 303.5t154.5 237.5t240 153t307 55zM817 342
q101 0 181.5 51.5t124 139t43.5 194.5t-43.5 194.5t-124 139t-181.5 51.5t-181 -51t-124.5 -139t-44.5 -195q0 -163 99 -274t251 -111zM819 -140q92 0 151 -56.5t59 -141.5q0 -83 -59.5 -139t-150.5 -56q-92 0 -151 55.5t-59 139.5q0 86 59 142t151 56z" />
    <glyph glyph-name="uni1ED9" unicode="&#x1ed9;" horiz-adv-x="1194" 
d="M595 1281l-74 -145h-304l217 318h316l232 -318h-307l-76 145h-4zM597 1024q160 0 285 -66t195 -185t70 -272t-70 -272t-195 -184.5t-285 -65.5t-285.5 65.5t-195 184.5t-69.5 272t69.5 272t195 185t285.5 66zM597 302q78 0 130 56.5t52 142.5q0 88 -51 143.5t-131 55.5
q-52 0 -93.5 -25t-65 -70.5t-23.5 -103.5q0 -86 52 -142.5t130 -56.5zM599 -140q92 0 151 -56.5t59 -141.5q0 -83 -59.5 -139t-150.5 -56q-92 0 -151 55.5t-59 139.5q0 86 59 142t151 56z" />
    <glyph glyph-name="uni1EDA" unicode="&#x1eda;" horiz-adv-x="1693" 
d="M1243 1904l-253 -313h-328l224 311zM1449 1587h293v-160q0 -281 -244 -346l-1 -3q75 -159 75 -351q0 -165 -56 -304.5t-155 -237t-239 -152t-304 -54.5q-166 0 -307 55t-240 153t-154.5 237t-55.5 303t55.5 303.5t154.5 237.5t240 153t307 55q119 0 226.5 -29
t195.5 -83.5t155 -131.5q22 15 34 41t16 57t4 78v179zM817 342q101 0 181.5 51.5t124 139t43.5 194.5t-43.5 194.5t-124 139t-181.5 51.5t-181 -51t-124.5 -139t-44.5 -195t44.5 -194.5t125 -139t180.5 -51.5z" />
    <glyph glyph-name="uni1EDB" unicode="&#x1edb;" horiz-adv-x="1435" 
d="M1019 1453l-253 -313h-328l224 311zM1095 1159h293v-160q0 -290 -257 -349l-2 -5q18 -67 18 -144q0 -153 -70 -272t-195 -184.5t-285 -65.5t-285.5 65.5t-195 184.5t-69.5 272t69.5 272t195 185t285.5 66q146 0 263.5 -55.5t190.5 -156.5q25 23 34.5 63t9.5 105v179z
M597 302q78 0 130 56.5t52 142.5q0 88 -51 143.5t-131 55.5q-39 0 -73 -14.5t-58 -41t-37.5 -63.5t-13.5 -80q0 -34 9 -65t25.5 -55t39 -42t50 -27.5t58.5 -9.5z" />
    <glyph glyph-name="uni1EDC" unicode="&#x1edc;" horiz-adv-x="1693" 
d="M1028 1591h-327l-252 313l357 -2zM1449 1587h293v-160q0 -281 -244 -346l-1 -3q75 -159 75 -351q0 -165 -56 -304.5t-155 -237t-239 -152t-304 -54.5q-166 0 -307 55t-240 153t-154.5 237t-55.5 303t55.5 303.5t154.5 237.5t240 153t307 55q119 0 226.5 -29t195.5 -83.5
t155 -131.5q32 23 43 64t11 112v179zM817 342q101 0 181.5 51.5t124 139t43.5 194.5t-43.5 194.5t-124 139t-181.5 51.5t-181 -51t-124.5 -139t-44.5 -195t44.5 -194.5t125 -139t180.5 -51.5z" />
    <glyph glyph-name="uni1EDD" unicode="&#x1edd;" horiz-adv-x="1435" 
d="M806 1140h-327l-252 313l357 -2zM1095 1159h293v-160q0 -290 -257 -349l-2 -5q18 -68 18 -144q0 -153 -70 -272t-195 -184.5t-285 -65.5t-285.5 65.5t-195 184.5t-69.5 272t69.5 272t195 185t285.5 66q146 0 263.5 -55.5t190.5 -156.5q25 23 34.5 63t9.5 105v179z
M597 302q78 0 130 56.5t52 142.5q0 88 -51 143.5t-131 55.5t-131 -55.5t-51 -143.5q0 -34 9 -65t25.5 -55t39 -42t50 -27.5t58.5 -9.5z" />
    <glyph glyph-name="uni1EDE" unicode="&#x1ede;" horiz-adv-x="1693" 
d="M801 1804q-16 0 -40.5 -9.5t-44 -20.5t-34.5 -22l-95 94q43 39 108 67t141 28q109 0 168 -46t59 -123q0 -43 -24 -77t-66.5 -56t-100.5 -34l-9 -43l-134 -10q-34 40 -34 64q0 20 24.5 40t54 35t54 37t24.5 45q0 17 -12.5 24t-38.5 7zM1449 1587h293v-160
q0 -281 -244 -346l-1 -3q75 -159 75 -351q0 -165 -56 -304.5t-155 -237t-239 -152t-304 -54.5q-166 0 -307 55t-240 153t-154.5 237t-55.5 303t55.5 303.5t154.5 237.5t240 153t307 55q119 0 226.5 -29t195.5 -83.5t155 -131.5q22 15 34 41t16 57t4 78v179zM817 342
q101 0 181.5 51.5t124 139t43.5 194.5t-43.5 194.5t-124 139t-181.5 51.5t-181 -51t-124.5 -139t-44.5 -195t44.5 -194.5t125 -139t180.5 -51.5z" />
    <glyph glyph-name="uni1EDF" unicode="&#x1edf;" horiz-adv-x="1435" 
d="M580 1354q-23 0 -58 -17t-61 -35l-95 94q43 39 108 67t141 28q72 0 124 -21.5t77.5 -59.5t25.5 -88q0 -43 -24 -77t-66.5 -56t-100.5 -34l-9 -43l-134 -10q-34 40 -34 64q0 20 24.5 40t54 35t54 37t24.5 45q0 11 -6 18t-17 10t-28 3zM1095 1159h293v-160
q0 -290 -257 -349l-2 -5q18 -67 18 -144q0 -153 -70 -272t-195 -184.5t-285 -65.5t-285.5 65.5t-195 184.5t-69.5 272t69.5 272t195 185t285.5 66q146 0 263.5 -55.5t190.5 -156.5q25 23 34.5 63t9.5 105v179zM597 302q78 0 130 56.5t52 142.5q0 58 -23 103.5t-64.5 70.5
t-94.5 25q-52 0 -93.5 -25t-65 -70.5t-23.5 -103.5q0 -34 9 -65t25.5 -55t39 -42t50 -27.5t58.5 -9.5z" />
    <glyph glyph-name="uni1EE0" unicode="&#x1ee0;" horiz-adv-x="1693" 
d="M718 1660q-65 0 -108 -93l-210 84q37 121 109 197t169 76q43 0 82 -10t54 -17.5t48 -25.5q54 -33 94 -33q67 0 112 90l206 -68q-35 -128 -105.5 -208.5t-166.5 -80.5q-89 0 -179 51q-3 1 -12 6t-12 6l-11 6q-8 4 -12 5.5t-11 4.5t-11.5 4.5t-11 3t-12.5 2t-12 0.5z
M1449 1587h293v-160q0 -281 -244 -346l-1 -3q75 -159 75 -351q0 -165 -56 -304.5t-155 -237t-239 -152t-304 -54.5q-166 0 -307 55t-240 153t-154.5 237t-55.5 303t55.5 303.5t154.5 237.5t240 153t307 55q119 0 226.5 -29t195.5 -83.5t155 -131.5q22 15 34 41t16 57t4 78
v179zM817 342q101 0 181.5 51.5t124 139t43.5 194.5t-43.5 194.5t-124 139t-181.5 51.5t-181 -51t-124.5 -139t-44.5 -195t44.5 -194.5t125 -139t180.5 -51.5z" />
    <glyph glyph-name="uni1EE1" unicode="&#x1ee1;" horiz-adv-x="1435" 
d="M497 1210q-65 0 -108 -93l-210 84q37 121 109 197t169 76q43 0 82 -10t54 -17.5t48 -25.5q54 -33 94 -33q67 0 112 90l206 -68q-35 -128 -105.5 -208.5t-166.5 -80.5q-89 0 -179 51q-2 1 -13 7t-13.5 7t-12.5 6t-13.5 6.5t-12 4.5t-14 4t-12.5 2t-14 1zM1095 1159h293
v-160q0 -290 -257 -349l-2 -5q18 -67 18 -144q0 -153 -70 -272t-195 -184.5t-285 -65.5t-285.5 65.5t-195 184.5t-69.5 272t69.5 272t195 185t285.5 66q146 0 263.5 -55.5t190.5 -156.5q25 23 34.5 63t9.5 105v179zM597 302q78 0 130 56.5t52 142.5q0 58 -23 103.5
t-64.5 70.5t-94.5 25q-52 0 -93.5 -25t-65 -70.5t-23.5 -103.5q0 -34 9 -65t25.5 -55t39 -42t50 -27.5t58.5 -9.5z" />
    <glyph glyph-name="uni1EE2" unicode="&#x1ee2;" horiz-adv-x="1693" 
d="M1449 1587h293v-160q0 -281 -244 -346l-1 -3q75 -159 75 -351q0 -165 -56 -304.5t-155 -237t-239 -152t-304 -54.5q-166 0 -307 55t-240 153t-154.5 237t-55.5 303t55.5 303.5t154.5 237.5t240 153t307 55q119 0 226.5 -29t195.5 -83.5t155 -131.5q32 23 43 64t11 112
v179zM817 342q101 0 181.5 51.5t124 139t43.5 194.5t-43.5 194.5t-124 139t-181.5 51.5t-181 -51t-124.5 -139t-44.5 -195t44.5 -194.5t125 -139t180.5 -51.5zM819 -140q91 0 150.5 -56.5t59.5 -141.5q0 -54 -26.5 -98.5t-75 -70.5t-108.5 -26q-45 0 -84.5 15t-67 41t-43 62
t-15.5 77q0 86 59 142t151 56z" />
    <glyph glyph-name="uni1EE3" unicode="&#x1ee3;" horiz-adv-x="1435" 
d="M1095 1159h293v-160q0 -290 -257 -349l-2 -5q18 -68 18 -144q0 -153 -70 -272t-195 -184.5t-285 -65.5t-285.5 65.5t-195 184.5t-69.5 272t69.5 272t195 185t285.5 66q146 0 263.5 -55.5t190.5 -156.5q25 23 34.5 63t9.5 105v179zM597 302q78 0 130 56.5t52 142.5
q0 88 -51 143.5t-131 55.5t-131 -55.5t-51 -143.5q0 -34 9 -65t25.5 -55t39 -42t50 -27.5t58.5 -9.5zM599 -140q91 0 150.5 -56.5t59.5 -141.5q0 -83 -59.5 -139t-150.5 -56q-92 0 -151 55.5t-59 139.5q0 86 59 142t151 56z" />
    <glyph glyph-name="uni1EE4" unicode="&#x1ee4;" horiz-adv-x="1416" 
d="M705 -21q-138 0 -250 41.5t-192.5 120.5t-124.5 199t-44 271v844h394v-822q0 -80 22.5 -144.5t73 -106t121.5 -41.5q64 0 114.5 33.5t80 100.5t29.5 158v822h392v-844q0 -191 -70 -332.5t-210 -220.5t-336 -79zM706 -140q91 0 150.5 -56.5t59.5 -141.5q0 -83 -59.5 -139
t-150.5 -56q-45 0 -84.5 15t-67 41t-43 62t-15.5 77q0 86 59 142t151 56z" />
    <glyph glyph-name="uni1EE5" unicode="&#x1ee5;" horiz-adv-x="1160" 
d="M708 1003h367v-1003h-367v107h-4q-51 -63 -121.5 -95.5t-151.5 -32.5q-355 0 -355 437v587h365v-499q0 -107 30.5 -154.5t100.5 -47.5q61 0 98.5 49.5t37.5 147.5v504zM596 -140q92 0 151 -56.5t59 -141.5q0 -54 -26.5 -98.5t-75 -70.5t-108.5 -26q-92 0 -151 55.5
t-59 139.5q0 86 59 142t151 56z" />
    <glyph glyph-name="uni1EE6" unicode="&#x1ee6;" horiz-adv-x="1416" 
d="M616 1552q-34 40 -34 64q0 20 24.5 40t54 35t54 37t24.5 45q0 17 -12.5 24t-38.5 7q-23 0 -58 -17t-61 -35l-95 94q43 39 108 67t141 28q109 0 168 -46t59 -123q0 -64 -51 -106.5t-140 -60.5l-9 -43zM705 -21q-137 0 -249.5 41.5t-193 120.5t-124.5 199t-44 271v844h394
v-822q0 -80 22.5 -144.5t73 -106t121.5 -41.5q64 0 114.5 33.5t80 100.5t29.5 158v822h392v-844q0 -191 -70 -332.5t-210 -220.5t-336 -79z" />
    <glyph glyph-name="uni1EE7" unicode="&#x1ee7;" horiz-adv-x="1160" 
d="M564 1354q-23 0 -58 -17t-61 -35l-95 94q43 39 108 67t141 28q72 0 124 -21.5t77.5 -59.5t25.5 -88q0 -21 -6 -40.5t-18 -36t-28.5 -31t-38 -25.5t-46.5 -19.5t-54 -14.5l-9 -43l-134 -10q-34 40 -34 64q0 20 24.5 40t54 35t54 37t24.5 45q0 11 -6 18t-17 10t-28 3z
M708 1003h367v-1003h-367v107h-4q-51 -63 -121.5 -95.5t-151.5 -32.5q-355 0 -355 437v587h365v-499q0 -107 30.5 -154.5t100.5 -47.5q61 0 98.5 49.5t37.5 147.5v504z" />
    <glyph glyph-name="uni1EE8" unicode="&#x1ee8;" horiz-adv-x="1696" 
d="M1107 1904l-253 -313h-328l224 311zM1450 1587h293v-160q0 -100 -30.5 -172.5t-88 -114.5t-132.5 -61t-171 -17v-451q0 -191 -70 -332.5t-210 -220.5t-336 -79q-138 0 -250 41.5t-192.5 120.5t-124.5 199t-44 271v844h394v-822q0 -80 22.5 -144.5t73 -106t121.5 -41.5
q64 0 114.5 33.5t80 100.5t29.5 158v822h392v-249q28 4 48.5 12t34.5 21t23 28.5t14 38t7 46t2 56.5v179z" />
    <glyph glyph-name="uni1EE9" unicode="&#x1ee9;" horiz-adv-x="1490" 
d="M982 1453l-253 -313h-328l224 311zM1180 1159h293v-160q0 -78 -19 -139t-53.5 -103t-84.5 -69.5t-109.5 -40t-131.5 -13.5v-634h-367v107h-4q-51 -63 -121.5 -95.5t-151.5 -32.5q-355 0 -355 437v587h365v-499q0 -107 30.5 -154.5t100.5 -47.5q61 0 98.5 49.5t37.5 147.5
v504h367v-220q64 16 84.5 60.5t20.5 136.5v179z" />
    <glyph glyph-name="uni1EEA" unicode="&#x1eea;" horiz-adv-x="1696" 
d="M901 1591h-327l-252 313l357 -2zM1450 1587h293v-160q0 -100 -30.5 -172.5t-88 -114.5t-132.5 -61t-171 -17v-451q0 -191 -70 -332.5t-210 -220.5t-336 -79q-138 0 -250 41.5t-192.5 120.5t-124.5 199t-44 271v844h394v-822q0 -80 22.5 -144.5t73 -106t121.5 -41.5
q64 0 114.5 33.5t80 100.5t29.5 158v822h392v-249q28 4 48.5 12t34.5 21t23 28.5t14 38t7 46t2 56.5v179z" />
    <glyph glyph-name="uni1EEB" unicode="&#x1eeb;" horiz-adv-x="1490" 
d="M784 1141h-327l-252 313l357 -2zM1180 1159h293v-160q0 -78 -19 -139t-53.5 -103t-84.5 -69.5t-109.5 -40t-131.5 -13.5v-634h-367v107h-4q-34 -42 -77.5 -71t-92.5 -43t-103 -14q-355 0 -355 437v587h365v-499q0 -107 30.5 -154.5t100.5 -47.5q61 0 98.5 49.5
t37.5 147.5v504h367v-220q64 16 84.5 60.5t20.5 136.5v179z" />
    <glyph glyph-name="uni1EEC" unicode="&#x1eec;" horiz-adv-x="1696" 
d="M688 1804q-23 0 -58 -17t-61 -35l-95 94q43 39 108 67t141 28q72 0 124 -21.5t77.5 -59.5t25.5 -88q0 -43 -24 -77t-66.5 -56t-100.5 -34l-9 -43l-134 -10q-34 40 -34 64q0 20 24.5 40t54 35t54 37t24.5 45q0 17 -12.5 24t-38.5 7zM1450 1587h293v-160
q0 -100 -30.5 -172.5t-88 -114.5t-132.5 -61t-171 -17v-451q0 -191 -70 -332.5t-210 -220.5t-336 -79q-138 0 -250 41.5t-192.5 120.5t-124.5 199t-44 271v844h394v-822q0 -80 22.5 -144.5t73 -106t121.5 -41.5q64 0 114.5 33.5t80 100.5t29.5 158v822h392v-249
q28 4 48.5 12t34.5 21t23 28.5t14 38t7 46t2 56.5v179z" />
    <glyph glyph-name="uni1EED" unicode="&#x1eed;" horiz-adv-x="1490" 
d="M564 1354q-23 0 -58 -17t-61 -35l-95 94q43 39 108 67t141 28q72 0 124 -21.5t77.5 -59.5t25.5 -88q0 -21 -6 -40.5t-18 -36t-28.5 -31t-38 -25.5t-46.5 -19.5t-54 -14.5l-9 -43l-134 -10q-34 40 -34 64q0 20 24.5 40t54 35t54 37t24.5 45q0 11 -6 18t-17 10t-28 3z
M1180 1159h293v-160q0 -97 -28.5 -168t-82.5 -113.5t-125 -62.5t-162 -21v-634h-367v107h-4q-51 -63 -121.5 -95.5t-151.5 -32.5q-355 0 -355 437v587h365v-499q0 -107 30.5 -154.5t100.5 -47.5q61 0 98.5 49.5t37.5 147.5v504h367v-220q64 16 84.5 60.5t20.5 136.5v179z
" />
    <glyph glyph-name="uni1EEE" unicode="&#x1eee;" horiz-adv-x="1696" 
d="M605 1660q-65 0 -108 -93l-210 84q37 121 109 197t169 76q33 0 60 -4t53 -14.5t35.5 -15.5t35.5 -19q54 -33 94 -33q67 0 112 90l206 -68q-35 -128 -105.5 -208.5t-166.5 -80.5q-89 0 -179 51q-3 1 -12 6t-12 6l-11 6q-8 4 -12 5.5t-11 4.5t-11.5 4.5t-11 3t-12.5 2
t-12 0.5zM1450 1587h293v-160q0 -100 -30.5 -172.5t-88 -114.5t-132.5 -61t-171 -17v-451q0 -191 -70 -332.5t-210 -220.5t-336 -79q-137 0 -249.5 41.5t-193 120.5t-124.5 199t-44 271v844h394v-822q0 -80 22.5 -144.5t73 -106t121.5 -41.5q64 0 114.5 33.5t80 100.5
t29.5 158v822h392v-249q28 4 48.5 12t34.5 21t23 28.5t14 38t7 46t2 56.5v179z" />
    <glyph glyph-name="uni1EEF" unicode="&#x1eef;" horiz-adv-x="1490" 
d="M481 1210q-65 0 -108 -93l-210 84q37 121 109 197t169 76q43 0 82 -10t54 -17.5t48 -25.5q54 -33 94 -33q67 0 112 90l206 -68q-23 -83 -60 -146.5t-92 -103t-120 -39.5q-89 0 -179 51q-2 1 -13 7t-13.5 7t-12.5 6t-13.5 6.5t-12 4.5t-14 4t-12.5 2t-14 1zM1180 1159h293
v-160q0 -78 -19 -139t-53.5 -103t-84.5 -69.5t-109.5 -40t-131.5 -13.5v-634h-367v107h-4q-51 -63 -121.5 -95.5t-151.5 -32.5q-355 0 -355 437v587h365v-499q0 -107 30.5 -154.5t100.5 -47.5q61 0 98.5 49.5t37.5 147.5v504h367v-220q64 16 84.5 60.5t20.5 136.5v179z" />
    <glyph glyph-name="uni1EF0" unicode="&#x1ef0;" horiz-adv-x="1696" 
d="M1450 1587h293v-160q0 -100 -30.5 -172.5t-88 -114.5t-132.5 -61t-171 -17v-451q0 -191 -70 -332.5t-210 -220.5t-336 -79q-138 0 -250 41.5t-192.5 120.5t-124.5 199t-44 271v844h394v-822q0 -80 22.5 -144.5t73 -106t121.5 -41.5q64 0 114.5 33.5t80 100.5t29.5 158
v822h392v-249q28 4 48.5 12t34.5 21t23 28.5t14 38t7 46t2 56.5v179zM706 -140q91 0 150.5 -56.5t59.5 -141.5q0 -83 -59.5 -139t-150.5 -56q-60 0 -108.5 25.5t-75 70t-26.5 99.5q0 86 59 142t151 56z" />
    <glyph glyph-name="uni1EF1" unicode="&#x1ef1;" horiz-adv-x="1490" 
d="M1180 1159h293v-160q0 -78 -19 -139t-53.5 -103t-84.5 -69.5t-109.5 -40t-131.5 -13.5v-634h-367v107h-4q-51 -63 -121.5 -95.5t-151.5 -32.5q-355 0 -355 437v587h365v-499q0 -107 30.5 -154.5t100.5 -47.5q61 0 98.5 49.5t37.5 147.5v504h367v-220q64 16 84.5 60.5
t20.5 136.5v179zM596 -140q92 0 151 -56.5t59 -141.5q0 -54 -26.5 -98.5t-75 -70.5t-108.5 -26q-92 0 -151 55.5t-59 139.5q0 86 59 142t151 56z" />
    <glyph glyph-name="Ygrave" unicode="&#x1ef2;" horiz-adv-x="1312" 
d="M855 1591h-327l-252 313l357 -2zM874 1455h451l-472 -827v-628h-397v628l-469 827h447l222 -445h2z" />
    <glyph glyph-name="ygrave" unicode="&#x1ef3;" horiz-adv-x="1100" 
d="M763 1131h-327l-252 313l357 -2zM719 1003h373l-515 -1408h-355l170 479l-384 929h377l170 -475h4z" />
    <glyph glyph-name="uni1EF4" unicode="&#x1ef4;" horiz-adv-x="1312" 
d="M456 0v628l-469 827h447l222 -445h2l216 445h451l-472 -827v-628h-397zM657 -140q92 0 151 -56.5t59 -141.5q0 -83 -59.5 -139t-150.5 -56q-92 0 -151 55.5t-59 139.5q0 86 59 142t151 56z" />
    <glyph glyph-name="uni1EF5" unicode="&#x1ef5;" horiz-adv-x="1100" 
d="M719 1003h373l-515 -1408h-355l170 479l-384 929h377l170 -475h4zM914 -140q60 0 108.5 -26t75 -71t26.5 -101q0 -83 -59.5 -139t-150.5 -56q-92 0 -151 55.5t-59 139.5q0 86 59 142t151 56z" />
    <glyph glyph-name="uni1EF6" unicode="&#x1ef6;" horiz-adv-x="1312" 
d="M638 1804q-23 0 -58 -17t-61 -35l-95 94q43 39 108 67t141 28q72 0 124 -21.5t77.5 -59.5t25.5 -88q0 -43 -24 -77t-66.5 -56t-100.5 -34l-9 -43l-134 -10q-34 40 -34 64q0 20 24.5 40t54 35t54 37t24.5 45q0 17 -12.5 24t-38.5 7zM874 1455h451l-472 -827v-628h-397v628
l-469 827h447l222 -445h2z" />
    <glyph glyph-name="uni1EF7" unicode="&#x1ef7;" horiz-adv-x="1100" 
d="M536 1354q-23 0 -58 -17t-61 -35l-95 94q43 39 108 67t141 28q109 0 168 -46t59 -123q0 -43 -24 -77t-66.5 -56t-100.5 -34l-9 -43l-134 -10q-34 40 -34 64q0 20 24.5 40t54 35t54 37t24.5 45q0 17 -12.5 24t-38.5 7zM719 1003h373l-515 -1408h-355l170 479l-384 929h377
l170 -475h4z" />
    <glyph glyph-name="uni1EF8" unicode="&#x1ef8;" horiz-adv-x="1312" 
d="M555 1660q-65 0 -108 -93l-210 84q37 121 109 197t169 76q43 0 82 -10t54 -17.5t48 -25.5q54 -33 94 -33q67 0 112 90l206 -68q-23 -83 -60 -146.5t-92 -103t-120 -39.5q-89 0 -179 51q-3 2 -10 5q-61 33 -95 33zM874 1455h451l-472 -827v-628h-397v628l-469 827h447
l222 -445h2z" />
    <glyph glyph-name="uni1EF9" unicode="&#x1ef9;" horiz-adv-x="1100" 
d="M453 1210q-65 0 -108 -93l-210 84q37 121 109 197t169 76q43 0 82 -10t54 -17.5t48 -25.5q54 -33 94 -33q67 0 112 90l206 -68q-35 -128 -105.5 -208.5t-166.5 -80.5q-89 0 -179 51q-3 1 -12 6t-12 6l-11 6q-8 4 -12 5.5t-11 4.5t-11.5 4.5t-11 3t-12.5 2t-12 0.5z
M719 1003h373l-515 -1408h-355l170 479l-384 929h377l170 -475h4z" />
    <glyph glyph-name="uni2002" unicode="&#x2002;" horiz-adv-x="956" 
 />
    <glyph glyph-name="uni2003" unicode="&#x2003;" horiz-adv-x="1912" 
 />
    <glyph glyph-name="uni2009" unicode="&#x2009;" horiz-adv-x="28" 
 />
    <glyph glyph-name="endash" unicode="&#x2013;" horiz-adv-x="1088" 
d="M66 463v298h956v-298h-956z" />
    <glyph glyph-name="emdash" unicode="&#x2014;" horiz-adv-x="2044" 
d="M66 463v298h1912v-298h-1912z" />
    <glyph glyph-name="uni2015" unicode="&#x2015;" horiz-adv-x="2394" 
d="M66 463v298h2262v-298h-2262z" />
    <glyph glyph-name="quoteleft" unicode="&#x2018;" horiz-adv-x="498" 
d="M470 1454l-59 -571h-351l149 571h261z" />
    <glyph glyph-name="quoteright" unicode="&#x2019;" horiz-adv-x="498" 
d="M54 884l59 571h351l-149 -571h-261z" />
    <glyph glyph-name="quotesinglbase" unicode="&#x201a;" horiz-adv-x="509" 
d="M28 -276l59 570h351l-149 -570h-261z" />
    <glyph glyph-name="quotedblleft" unicode="&#x201c;" horiz-adv-x="966" 
d="M471 1455l-59 -571h-353l150 571h262zM938 1455l-59 -571h-351l149 571h261z" />
    <glyph glyph-name="quotedblright" unicode="&#x201d;" horiz-adv-x="966" 
d="M54 884l59 571h351l-149 -571h-261zM521 884l59 571h353l-150 -571h-262z" />
    <glyph glyph-name="quotedblbase" unicode="&#x201e;" horiz-adv-x="978" 
d="M28 -164l59 571h351l-149 -571h-261zM495 -164l59 571h353l-150 -571h-262z" />
    <glyph glyph-name="dagger" unicode="&#x2020;" horiz-adv-x="746" 
d="M374 429l-96 156l11 248l-2 217h-37l-184 -11v188l184 -10h35l-7 190h191l-10 -190h38l182 13v-191l-182 11h-40v-217l12 -248z" />
    <glyph glyph-name="daggerdbl" unicode="&#x2021;" horiz-adv-x="746" 
d="M278 104l10 187h-38l-184 -13v189l182 -10h40v68l-10 224l10 225v76h-38l-184 -10v185l182 -10h38l-11 192h192l-11 -192h39l184 12v-186l-186 9h-36v-76l10 -225l-13 -224l3 -68h38l184 10v-187l-184 11h-39l11 -187h-189z" />
    <glyph glyph-name="bullet" unicode="&#x2022;" horiz-adv-x="844" 
d="M422 379q-111 0 -191 78.5t-80 189.5q0 112 80 191t191 79q114 0 192.5 -78.5t78.5 -191.5q0 -111 -78.5 -189.5t-192.5 -78.5z" />
    <glyph glyph-name="ellipsis" unicode="&#x2026;" horiz-adv-x="2048" 
d="M328 -21q-83 0 -141.5 57.5t-58.5 139.5q0 80 59 137.5t141 57.5t140.5 -57.5t58.5 -137.5q0 -82 -58.5 -139.5t-140.5 -57.5zM1011 -21q-83 0 -141.5 57.5t-58.5 139.5q0 52 27 97t73 71.5t100 26.5q82 0 140.5 -57.5t58.5 -137.5q0 -40 -16 -76.5t-42.5 -63t-63.5 -42
t-77 -15.5zM1695 -21q-83 0 -141.5 57.5t-58.5 139.5q0 80 59 137.5t141 57.5t140.5 -57.5t58.5 -137.5q0 -82 -58.5 -139.5t-140.5 -57.5z" />
    <glyph glyph-name="perthousand" unicode="&#x2030;" horiz-adv-x="2980" 
d="M829 -58l-249 108l651 1440l248 -108zM454 651q-114 0 -209 51t-151 146t-56 216q0 114 51.5 207.5t147 149t217.5 55.5q115 0 210 -50.5t151.5 -145.5t56.5 -216q0 -113 -51.5 -207t-148 -150t-218.5 -56zM457 885q69 0 112.5 51t43.5 125q0 79 -45 128.5t-111 49.5
q-69 0 -112.5 -51t-43.5 -127q0 -77 45 -126.5t111 -49.5zM1601 -21q-114 0 -208.5 51t-151 146t-56.5 216q0 84 30 159t83.5 130.5t132 88t170.5 32.5q114 0 209 -50.5t151.5 -145t56.5 -214.5q0 -113 -51.5 -207t-147.5 -150t-218 -56zM2524 -21q-114 0 -208.5 51
t-151 146t-56.5 216q0 84 30 159t83.5 130.5t132 88t170.5 32.5q114 0 209 -50.5t151.5 -145t56.5 -214.5q0 -113 -51.5 -207t-147.5 -150t-218 -56zM1603 213q69 0 112.5 51t43.5 126q0 51 -21 91t-56.5 61.5t-78.5 21.5q-69 0 -112.5 -50.5t-43.5 -123.5q0 -78 45 -127.5
t111 -49.5zM2526 213q69 0 112.5 51t43.5 126q0 77 -45 125.5t-111 48.5q-45 0 -81 -23.5t-55.5 -63t-19.5 -87.5q0 -78 45 -127.5t111 -49.5z" />
    <glyph glyph-name="guilsinglleft" unicode="&#x2039;" horiz-adv-x="617" 
d="M637 907l-233 -399l235 -407h-335l-230 407l226 399h337z" />
    <glyph glyph-name="guilsinglright" unicode="&#x203a;" horiz-adv-x="617" 
d="M6 108l233 399l-235 407h335l230 -407l-226 -399h-337z" />
    <glyph glyph-name="uni203D" unicode="&#x203d;" horiz-adv-x="961" 
d="M452 1529q105 0 191 -27.5t145 -78t91.5 -123.5t32.5 -162q0 -63 -15 -118t-44 -100t-56.5 -76.5t-68.5 -68.5q-5 -4 -14 -12l-52 -48q-18 -16 -40 -40t-32.5 -44t-12.5 -41l-10 -78h-300l-61 565h300l4 -121l4 -1q71 79 71 173q0 112 -141 112q-40 0 -84 -11
t-82.5 -29.5t-71.5 -42.5l-206 184q71 83 196 135.5t256 52.5zM412 371q82 0 140.5 -57.5t58.5 -137.5q0 -82 -58.5 -139.5t-140.5 -57.5q-83 0 -141.5 57.5t-58.5 139.5q0 52 27 97t73 71.5t100 26.5z" />
    <glyph glyph-name="uni2042" unicode="&#x2042;" horiz-adv-x="1665" 
d="M721 768l10 182l-150 -96l-105 176l160 80l-160 83l105 179l150 -99l-10 182h205l-11 -182l153 95l105 -175l-162 -81l161 -82l-104 -179l-147 99l5 -182h-205zM288 81l10 182l-150 -96l-105 176l160 80l-160 83l105 179l150 -99l-10 182h205l-11 -182l153 95l105 -175
l-162 -81l161 -82l-104 -179l-147 99l5 -182h-205zM1170 81l10 182l-150 -96l-105 176l160 80l-160 83l105 179l150 -99l-10 182h205l-11 -182l153 95l105 -175l-162 -81l161 -82l-104 -179l-147 99l5 -182h-205z" />
    <glyph glyph-name="fraction" unicode="&#x2044;" horiz-adv-x="497" 
d="M77 -58l-249 108l650 1440l249 -108z" />
    <glyph glyph-name="uni2051" unicode="&#x2051;" horiz-adv-x="783" 
d="M288 768l10 182l-150 -96l-105 176l160 80l-160 83l105 179l150 -99l-10 182h205l-11 -182l153 95l105 -175l-162 -81l161 -82l-104 -179l-147 99l5 -182h-205zM288 0l10 182l-150 -96l-105 176l160 80l-160 83l105 179l150 -99l-10 182h205l-11 -182l153 95l105 -175
l-162 -81l161 -82l-104 -179l-147 99l5 -182h-205z" />
    <glyph glyph-name="uni2070" unicode="&#x2070;" horiz-adv-x="818" 
d="M407 867q-71 0 -131.5 21t-105 60t-76 94t-47.5 123t-16 146q0 107 28.5 191.5t79 139.5t118.5 83.5t150 28.5q119 0 205.5 -57t130 -156t43.5 -230q0 -108 -28.5 -193t-79.5 -139.5t-120 -83t-151 -28.5zM408 1106q53 0 85 51t32 153q0 48 -8 86t-22.5 64.5t-36.5 40.5
t-50 14q-34 0 -59.5 -21.5t-41 -68.5t-15.5 -115q0 -96 30.5 -150t85.5 -54z" />
    <glyph glyph-name="uni2074" unicode="&#x2074;" horiz-adv-x="688" 
d="M311 893v121h-312v152l368 570h203v-504h103v-218h-103v-121h-259zM207 1215h127v200z" />
    <glyph glyph-name="uni2075" unicode="&#x2075;" horiz-adv-x="662" 
d="M382 1441q105 0 179.5 -76t74.5 -190q0 -133 -91 -216.5t-231 -83.5q-195 0 -319 123l191 157q45 -47 101 -47q34 0 59.5 19.5t25.5 52.5q0 41 -23 58t-57 17q-50 0 -93 -47l-137 56l30 471h494v-232h-280l-6 -74q45 12 82 12z" />
    <glyph glyph-name="uni2076" unicode="&#x2076;" horiz-adv-x="695" 
d="M413 1437q47 0 91.5 -17.5t81 -50t58.5 -84t22 -114.5q0 -87 -45 -155.5t-117.5 -104t-159.5 -35.5q-66 0 -125.5 26.5t-104 73t-71 114.5t-26.5 147q0 48 9 96t28.5 95.5t48 91t68.5 83t89 71.5t111 56.5t132 37.5l71 -204q-195 -55 -260 -138l6 -5q45 16 93 16z
M347 1100q33 0 56.5 20t23.5 56q0 14 -5.5 27t-16 23t-26 15.5t-34.5 5.5q-46 0 -83 -33v-2q0 -56 24 -84t61 -28z" />
    <glyph glyph-name="uni2077" unicode="&#x2077;" horiz-adv-x="574" 
d="M19 1735h545v-168l-243 -700l-259 46l217 586h-260v236z" />
    <glyph glyph-name="uni2078" unicode="&#x2078;" horiz-adv-x="710" 
d="M541 1350q62 -28 103 -85t41 -137q0 -77 -45 -135t-120 -87.5t-167 -29.5t-166 29t-119 87t-45 136q0 79 41 136t101 86v2q-24 13 -44.5 38t-33.5 60t-13 71q0 58 22 102.5t60.5 72.5t88.5 42t108 14q78 0 139.5 -24t100.5 -77t39 -130q0 -54 -26.5 -101.5t-64.5 -67.5
v-2zM353 1554q-23 1 -39.5 -16t-16.5 -41t16 -40t40 -16t39.5 16t15.5 40t-15 40.5t-40 16.5zM353 1089q16 0 29.5 5t23.5 14.5t15.5 23t5.5 29.5q0 30 -21 52.5t-53 21.5q-20 -1 -36 -11.5t-25 -27t-9 -35.5q0 -32 19.5 -52t50.5 -20z" />
    <glyph glyph-name="uni2079" unicode="&#x2079;" horiz-adv-x="690" 
d="M344 1751q66 0 125.5 -26.5t104 -73t71 -114.5t26.5 -147q0 -69 -17 -136t-54.5 -132t-92.5 -117.5t-135.5 -91t-177.5 -54.5l-71 204q111 28 174 64t92 86q-57 -23 -114 -23q-37 0 -73.5 10.5t-69 33t-57 53.5t-39 74.5t-14.5 93.5q0 88 45 156.5t117.5 104t159.5 35.5z
M261 1451q0 -30 22.5 -50.5t59.5 -20.5q46 0 83 33v2q0 55 -24 83.5t-61 28.5q-33 0 -56.5 -20t-23.5 -56z" />
    <glyph glyph-name="uni207A" unicode="&#x207a;" horiz-adv-x="690" 
d="M630 1409v-215h-172v-177h-226v177h-172v215h172v177h226v-177h172z" />
    <glyph glyph-name="uni207B" unicode="&#x207b;" horiz-adv-x="706" 
d="M68 1185v233h570v-233h-570z" />
    <glyph glyph-name="uni207C" unicode="&#x207c;" horiz-adv-x="738" 
d="M84 1335v206h570v-206h-570zM84 1007v206h570v-206h-570z" />
    <glyph glyph-name="uni207D" unicode="&#x207d;" horiz-adv-x="507" 
d="M261 749q-154 271 -154 559q0 104 21 207t58 192t87 162l204 -84q-40 -55 -80 -198t-40 -279q0 -146 38 -277.5t83 -205.5z" />
    <glyph glyph-name="uni207E" unicode="&#x207e;" horiz-adv-x="507" 
d="M272 749l-217 76q45 74 83 205.5t38 277.5q0 136 -40 279t-80 198l204 84q77 -110 121.5 -258t44.5 -303q0 -288 -154 -559z" />
    <glyph glyph-name="uni207F" unicode="&#x207f;" horiz-adv-x="698" 
d="M450 484q49 0 87.5 -13t70 -42t48 -81.5t16.5 -127.5v-355h-257v293q0 51 -14.5 71.5t-52.5 20.5q-34 0 -51.5 -18t-17.5 -63v-304h-259v605h259v-60h3q67 74 168 74z" />
    <glyph glyph-name="uni2080" unicode="&#x2080;" horiz-adv-x="818" 
d="M407 -161q-118 0 -204 57t-129 156.5t-43 230.5q0 107 28.5 191.5t79 139.5t118.5 83.5t150 28.5q90 0 161.5 -32.5t119 -91.5t73 -140t25.5 -179q0 -108 -28.5 -193t-79.5 -139.5t-120 -83t-151 -28.5zM408 78q53 0 85 51t32 153q0 97 -30.5 151t-86.5 54
q-34 0 -59.5 -21.5t-41 -68.5t-15.5 -115q0 -96 30.5 -150t85.5 -54z" />
    <glyph glyph-name="uni2081" unicode="&#x2081;" horiz-adv-x="574" 
d="M232 -136v525l-105 -75l-127 198l292 196h198v-844h-258z" />
    <glyph glyph-name="uni2082" unicode="&#x2082;" horiz-adv-x="661" 
d="M392 98h241v-234h-608l-3 171l241 250q57 59 78 90t21 60q0 23 -15.5 35t-40.5 12q-15 0 -31.5 -4.5t-36.5 -17t-36 -30.5l-191 134q45 69 127 114.5t191 45.5q79 0 146 -30.5t109 -90t42 -137.5q0 -41 -4.5 -69.5t-18.5 -63t-43.5 -70.5t-77.5 -79l-90 -82v-4z" />
    <glyph glyph-name="uni2083" unicode="&#x2083;" horiz-adv-x="678" 
d="M525 298q127 -61 127 -199q0 -116 -87.5 -184t-228.5 -68q-122 0 -213 61t-124 154l234 91q9 -39 30.5 -60t53.5 -21q29 0 47.5 18t18.5 43q0 21 -10 35.5t-29.5 21.5t-46.5 7h-49v187h64q29 0 47.5 15t18.5 39q0 25 -16.5 42t-42.5 17q-51 0 -69 -64l-214 114
q26 76 105.5 126.5t179.5 50.5q131 0 216 -62.5t85 -173.5q0 -120 -97 -188v-2z" />
    <glyph glyph-name="uni2084" unicode="&#x2084;" horiz-adv-x="688" 
d="M311 -135v121h-312v152l368 570h203v-504h103v-218h-103v-121h-259zM207 187h127v200z" />
    <glyph glyph-name="uni2085" unicode="&#x2085;" horiz-adv-x="662" 
d="M382 414q105 0 179.5 -76t74.5 -190q0 -132 -91 -216t-231 -84q-195 0 -319 123l191 157q45 -47 101 -47q34 0 59.5 19.5t25.5 52.5q0 41 -23 58t-57 17q-50 0 -93 -47l-137 56l30 471h494v-232h-280l-6 -74q45 12 82 12z" />
    <glyph glyph-name="uni2086" unicode="&#x2086;" horiz-adv-x="695" 
d="M413 409q47 0 91.5 -17.5t81 -50t58.5 -84t22 -114.5q0 -87 -45 -155.5t-117.5 -104t-159.5 -35.5q-66 0 -125.5 26.5t-104 73t-71 114.5t-26.5 147q0 68 18 134.5t57 130t95 116t137 92t179 58.5l71 -204q-195 -55 -260 -138l6 -5q45 16 93 16zM347 72q33 0 56.5 20
t23.5 56q0 14 -5.5 27t-16 23t-26 15.5t-34.5 5.5q-46 0 -83 -33v-2q0 -56 24 -84t61 -28z" />
    <glyph glyph-name="uni2087" unicode="&#x2087;" horiz-adv-x="574" 
d="M19 708h545v-168l-243 -700l-259 46l217 586h-260v236z" />
    <glyph glyph-name="uni2088" unicode="&#x2088;" horiz-adv-x="710" 
d="M541 322q29 -13 54 -33t45.5 -47.5t32.5 -64t12 -77.5q0 -77 -45 -135t-120 -87.5t-167 -29.5t-166 29t-119 87t-45 136q0 79 41 136t101 86v2q-18 10 -34.5 27t-29 39t-20 49t-7.5 54q0 76 38.5 129.5t100 77.5t140.5 24q78 0 139.5 -24t100.5 -77.5t39 -129.5
q0 -54 -26.5 -101.5t-64.5 -67.5v-2zM353 526q-23 1 -39.5 -16t-16.5 -41t16 -40t40 -16t39.5 16t15.5 40t-15 40.5t-40 16.5zM353 61q21 0 38 9t26.5 25.5t9.5 37.5q0 30 -21 52.5t-53 21.5q-20 -1 -36 -11.5t-25 -27t-9 -35.5q0 -32 19.5 -52t50.5 -20z" />
    <glyph glyph-name="uni2089" unicode="&#x2089;" horiz-adv-x="690" 
d="M344 724q66 0 125.5 -26.5t104 -73t71 -114.5t26.5 -147q0 -69 -17 -136t-54.5 -132t-92.5 -117.5t-135.5 -91t-177.5 -54.5l-71 204q111 28 174 64t92 86q-57 -23 -114 -23q-47 0 -91.5 17.5t-81 49.5t-58.5 84t-22 114q0 88 45 156.5t117.5 104t159.5 35.5zM261 424
q0 -30 22.5 -50.5t59.5 -20.5q46 0 83 33v2q0 37 -12 63t-30.5 37.5t-42.5 11.5q-16 0 -30 -5t-25.5 -14t-18 -24t-6.5 -33z" />
    <glyph glyph-name="uni208A" unicode="&#x208a;" horiz-adv-x="690" 
d="M630 369v-215h-172v-177h-226v177h-172v215h172v178h226v-178h172z" />
    </font>
</defs>
</svg>
