<?xml version="1.0" standalone="no"?>
<!DOCTYPE svg PUBLIC "-//W3C//DTD SVG 1.1//EN" "http://www.w3.org/Graphics/SVG/1.1/DTD/svg11.dtd" >
<svg xmlns="http://www.w3.org/2000/svg" xmlns:xlink="http://www.w3.org/1999/xlink" version="1.1">
<metadata>
Created by FontForge 20170731 at Fri Jul 17 15:49:55 2015
 By Aleksey,,,
Copyright (c) 2015 by Kostas Bartsokas. All rights reserved.
</metadata>
<defs>
<font id="Averta-Bold" horiz-adv-x="1200" >
  <font-face 
    font-family="Averta-Bold"
    font-weight="400"
    font-stretch="normal"
    units-per-em="2048"
    panose-1="0 0 8 0 0 0 0 0 0 0"
    ascent="1604"
    descent="-444"
    x-height="1000"
    cap-height="1455"
    bbox="-494 -526 2928 2025"
    underline-thickness="108"
    underline-position="-186"
    unicode-range="U+0020-2E18"
  />
<missing-glyph horiz-adv-x="920" 
 />
    <glyph glyph-name=".notdef" horiz-adv-x="920" 
 />
    <glyph glyph-name=".null" horiz-adv-x="0" 
 />
    <glyph glyph-name="nonmarkingreturn" horiz-adv-x="682" 
 />
    <glyph glyph-name="space" unicode=" " horiz-adv-x="539" 
 />
    <glyph glyph-name="exclam" unicode="!" horiz-adv-x="576" 
d="M192 478l-47 1030h293l-48 -1030h-198zM288 -17q-70 0 -118.5 47.5t-48.5 115.5t48.5 116t118.5 48q68 0 116.5 -48.5t48.5 -115.5t-48.5 -115t-116.5 -48z" />
    <glyph glyph-name="quotedbl" unicode="&#x22;" horiz-adv-x="850" 
d="M67 921l63 534h274l-130 -534h-207zM452 921l62 534h276l-131 -534h-207z" />
    <glyph glyph-name="numbersign" unicode="#" horiz-adv-x="1320" 
d="M226 -90l61 385h-217v199h248l43 284h-241v198h272l57 367h182l-57 -367h281l57 367h182l-56 -367h224l-1 -198h-254l-44 -284h247l-1 -199h-277l-58 -385h-183l59 385h-280l-60 -385h-184zM500 494h282l43 284h-280z" />
    <glyph glyph-name="dollar" unicode="$" horiz-adv-x="1171" 
d="M1092 399q0 -164 -101.5 -270t-278.5 -132v-228h-214v229q-238 35 -411 208l166 202q82 -79 179.5 -119t185.5 -40q77 0 123.5 35t46.5 94q0 22 -5.5 40.5t-18 34.5t-30 29t-44.5 26t-58.5 25t-75.5 25q-39 12 -68.5 21.5t-65.5 22.5t-63 26t-57 29t-52 34t-44 39.5
t-37 46.5t-27 54t-17.5 63t-5.5 72q0 160 100.5 267.5t278.5 128.5v242h214v-253q95 -20 187.5 -63t161.5 -99l-161 -202q-162 114 -316 114q-78 0 -121 -30.5t-43 -85.5q0 -54 50 -89t166 -72q52 -16 88.5 -28t79.5 -28t72.5 -31t62 -35.5t54 -41.5t42 -49t32 -59t18.5 -70
t7 -83z" />
    <glyph glyph-name="percent" unicode="%" horiz-adv-x="2087" 
d="M824 -48l-202 87l645 1446l201 -87zM492 655q-113 0 -207 50.5t-150 145t-56 214.5q0 111 51 203.5t146 147.5t216 55q114 0 208 -50t150 -143.5t56 -212.5q0 -112 -51 -205.5t-146.5 -149t-216.5 -55.5zM494 846q89 0 145.5 62.5t56.5 154.5q0 63 -27 112.5t-73 75.5
t-102 26q-59 0 -105 -28.5t-71 -77.5t-25 -108q0 -63 27 -113t73 -77t101 -27zM1592 -17q-113 0 -206.5 50.5t-149.5 144.5t-56 213q0 84 30 158.5t83 129.5t130.5 87t168.5 32q85 0 161 -29.5t132 -82t88.5 -129t32.5 -166.5q0 -112 -51 -204.5t-146.5 -148t-216.5 -55.5z
M1594 174q89 0 145.5 62.5t56.5 153.5q0 63 -27 112.5t-73 76t-102 26.5q-89 0 -145.5 -62.5t-56.5 -152.5q0 -63 27.5 -112.5t73.5 -76.5t101 -27z" />
    <glyph glyph-name="ampersand" unicode="&#x26;" horiz-adv-x="1365" 
d="M1015 0l-80 102h-5q-141 -119 -369 -119q-133 0 -241.5 55t-172.5 157.5t-64 232.5q0 141 72 248.5t192 178.5l-159 203q18 182 144 298t310 116q56 0 106.5 -9.5t90.5 -25.5t76.5 -39.5t63.5 -49t51.5 -56.5t41.5 -59.5t32 -60.5l-222 -82q-71 149 -215 150
q-36 0 -66.5 -9t-51.5 -24.5t-37 -36.5t-24.5 -43t-12.5 -45l468 -601h4q47 108 47 216l252 6q0 -114 -31 -230t-97 -213v-3l200 -257h-303zM352 445q0 -98 66 -157.5t171 -59.5q110 0 199 58v4l-294 377q-70 -38 -106 -96.5t-36 -125.5z" />
    <glyph glyph-name="quotesingle" unicode="'" horiz-adv-x="465" 
d="M67 921l63 534h274l-130 -534h-207z" />
    <glyph glyph-name="parenleft" unicode="(" horiz-adv-x="636" 
d="M354 -322q-120 190 -183.5 425t-63.5 501t65 505.5t186 421.5l197 -89q-99 -180 -152 -395.5t-53 -442.5q0 -450 203 -837z" />
    <glyph glyph-name="parenright" unicode=")" horiz-adv-x="636" 
d="M282 -322l-199 89q203 387 203 837q0 151 -24 299t-69.5 284t-111.5 255l197 89q121 -182 186 -421.5t65 -505.5t-63.5 -501t-183.5 -425z" />
    <glyph glyph-name="asterisk" unicode="*" horiz-adv-x="826" 
d="M332 785l9 210l-176 -111l-82 140l184 94l-185 98l83 142l176 -113l-9 210h162l-11 -210l178 110l82 -139l-186 -96l186 -96l-82 -141l-174 112l7 -210h-162z" />
    <glyph glyph-name="plus" unicode="+" horiz-adv-x="1187" 
d="M475 83v367h-367v234h367v369h237v-369h368v-234h-368v-367h-237z" />
    <glyph glyph-name="comma" unicode="," horiz-adv-x="499" 
d="M52 -272l63 533h274l-142 -533h-195z" />
    <glyph glyph-name="hyphen" unicode="-" horiz-adv-x="820" 
d="M100 507v251h620v-251h-620z" />
    <glyph glyph-name="period" unicode="." horiz-adv-x="553" 
d="M277 -17q-70 0 -118.5 47.5t-48.5 115.5t48.5 116t118.5 48q68 0 116.5 -48.5t48.5 -115.5t-48.5 -115t-116.5 -48z" />
    <glyph glyph-name="slash" unicode="/" horiz-adv-x="897" 
d="M135 -229l-200 92l782 1748l198 -92z" />
    <glyph glyph-name="zero" unicode="0" horiz-adv-x="1293" 
d="M646 -17q-122 0 -223 49t-173 140t-112 227t-40 304q0 160 38 293.5t108 228t173 146.5t229 52q122 0 223.5 -49t173.5 -140t112 -227t40 -304q0 -215 -65.5 -377t-190.5 -252.5t-293 -90.5zM647 242q124 0 193.5 120t69.5 341q0 215 -69.5 338t-193.5 123
q-123 0 -193.5 -120t-70.5 -341q0 -141 31 -245t91 -160t142 -56z" />
    <glyph glyph-name="one" unicode="1" horiz-adv-x="842" 
d="M398 0v1072l-236 -177l-134 207l426 304h224v-1406h-280z" />
    <glyph glyph-name="two" unicode="2" horiz-adv-x="1088" 
d="M485 253h513v-253h-919l-3 183l438 462q96 102 142 176.5t46 153.5q0 54 -24 97.5t-66.5 68.5t-96.5 25q-153 0 -245 -152l-200 143q67 121 183 193.5t283 72.5q89 0 169.5 -29t142.5 -81.5t98.5 -132.5t36.5 -175q0 -124 -50.5 -230t-182.5 -243l-265 -274v-5z" />
    <glyph glyph-name="three" unicode="3" horiz-adv-x="1113" 
d="M799 726q104 -48 163 -136t59 -208q0 -119 -61.5 -210t-169.5 -140t-244 -49q-182 0 -316 86t-188 223l242 101q60 -159 243 -159q87 0 147.5 51t60.5 136q0 81 -60.5 134.5t-171.5 53.5h-101v226h124q90 0 136 46.5t46 119.5q0 75 -53.5 123t-132.5 48q-138 0 -205 -118
l-222 119q49 112 165 181t268 69q95 0 177 -25t143 -72t96.5 -119t35.5 -160q0 -101 -47.5 -183t-133.5 -133v-5z" />
    <glyph glyph-name="four" unicode="4" horiz-adv-x="1176" 
d="M648 0v230h-596v177l645 999h224v-938h190v-238h-190v-230h-273zM354 454h313v505z" />
    <glyph glyph-name="five" unicode="5" horiz-adv-x="1134" 
d="M605 907q71 0 137 -20t120.5 -59t94.5 -93t62.5 -126t22.5 -154q0 -136 -66.5 -244.5t-181 -168t-255.5 -59.5q-147 0 -273 56.5t-213 165.5l200 162q98 -130 272 -130q101 0 168 64t67 158q0 53 -21.5 96t-56.5 70t-77.5 41t-85.5 14q-121 0 -211 -72l-149 55l43 743
h768v-252h-525l-16 -277q101 30 176 30z" />
    <glyph glyph-name="six" unicode="6" 
d="M678 901q89 0 167 -30.5t137 -86.5t93 -143t34 -193q0 -135 -66.5 -241.5t-182 -165t-258.5 -58.5q-107 0 -200 41t-160.5 113.5t-106 178.5t-38.5 230q0 169 54 323t151 272.5t235.5 201t301.5 112.5l81 -224q-194 -55 -319.5 -150.5t-184.5 -242.5l4 -1q116 64 258 64z
M610 233q99 0 163.5 65t64.5 157q0 93 -63.5 152.5t-167.5 59.5q-70 0 -135 -35t-110 -90v-19q0 -129 72 -209.5t176 -80.5z" />
    <glyph glyph-name="seven" unicode="7" horiz-adv-x="1000" 
d="M45 1406h875v-182l-489 -1254l-277 50l461 1135h-570v251z" />
    <glyph glyph-name="eight" unicode="8" horiz-adv-x="1173" 
d="M849 760q111 -41 180 -137t69 -234q0 -122 -68.5 -215.5t-184.5 -142t-259 -48.5q-145 0 -260.5 50t-181.5 143t-66 213q0 138 68.5 234t178.5 137v3q-70 30 -122.5 111.5t-52.5 181.5q0 116 58.5 200.5t156 125.5t221.5 41q127 0 225.5 -43t155.5 -127t57 -197
q0 -100 -52 -181t-123 -112v-3zM586 1193q-51 0 -92.5 -22t-64 -59t-22.5 -81q0 -46 23 -82.5t63.5 -56.5t92.5 -20q80 0 130 44.5t50 114.5t-51.5 116t-128.5 46zM586 221q99 0 163 60t64 144q0 59 -28.5 106t-80 73.5t-118.5 26.5q-100 0 -163.5 -58t-63.5 -148
q0 -87 65.5 -145.5t161.5 -58.5z" />
    <glyph glyph-name="nine" unicode="9" horiz-adv-x="1191" 
d="M587 1423q62 0 120.5 -13.5t109 -39.5t94 -63t77.5 -85t58.5 -104t37 -122t12.5 -137q0 -172 -55.5 -326t-154 -272t-238 -199.5t-303.5 -112.5l-82 225q198 55 325.5 150t187.5 244l-2 1q-118 -66 -261 -66q-71 0 -135 19t-118 57.5t-93.5 92t-61.5 126t-22 157.5
q0 102 39 189.5t106.5 148.5t160.5 95.5t198 34.5zM356 950q0 -94 62 -153.5t167 -59.5q70 0 135 35.5t110 91.5v17q0 130 -67.5 210.5t-171.5 80.5q-105 0 -170 -64.5t-65 -157.5z" />
    <glyph glyph-name="colon" unicode=":" horiz-adv-x="555" 
d="M274 689q-70 0 -118.5 47.5t-48.5 115.5t48.5 116t118.5 48q44 0 82 -22t60.5 -60t22.5 -82q0 -67 -48.5 -115t-116.5 -48zM274 -17q-70 0 -118.5 47.5t-48.5 115.5t48.5 116t118.5 48q44 0 82 -22t60.5 -60t22.5 -82q0 -67 -48.5 -115t-116.5 -48z" />
    <glyph glyph-name="semicolon" unicode=";" horiz-adv-x="517" 
d="M249 688q-70 0 -118.5 47.5t-48.5 115.5t48.5 116t118.5 48q68 0 116.5 -48.5t48.5 -115.5t-48.5 -115t-116.5 -48zM52 -272l63 533h274l-142 -533h-195z" />
    <glyph glyph-name="less" unicode="&#x3c;" horiz-adv-x="1187" 
d="M1059 54l-951 409v192l951 417v-258l-606 -252l606 -257v-251z" />
    <glyph glyph-name="equal" unicode="=" horiz-adv-x="1209" 
d="M130 685v234h972v-234h-972zM130 215v234h972v-234h-972z" />
    <glyph glyph-name="greater" unicode="&#x3e;" horiz-adv-x="1187" 
d="M128 54v251l606 257l-606 252v258l951 -417v-192z" />
    <glyph glyph-name="question" unicode="?" horiz-adv-x="959" 
d="M286 473l-1 102q0 24 4.5 47t10 41t18.5 41t21.5 36t28 36t28.5 33t32.5 34.5t30.5 32.5q30 32 49 54t40.5 53t31.5 63t10 65q0 75 -45 117t-119 42q-58 0 -113.5 -29.5t-93.5 -80.5l-191 177q70 87 181.5 137.5t238.5 50.5q88 0 165 -25t137.5 -73t95.5 -125.5
t35 -175.5q0 -57 -14.5 -109t-42.5 -96.5t-56 -77.5t-68 -71q-13 -12 -40 -37t-40 -37t-33 -33t-29.5 -35.5t-17.5 -33t-9 -36.5l-7 -87h-238zM410 -17q-70 0 -118.5 47.5t-48.5 115.5t48.5 116t118.5 48q44 0 82 -22t60.5 -60t22.5 -82q0 -67 -48.5 -115t-116.5 -48z" />
    <glyph glyph-name="at" unicode="@" horiz-adv-x="1839" 
d="M1365 955l-56 -529q-2 -36 -2 -49q0 -52 17 -73t54 -21q40 0 74.5 32.5t56 81.5t33.5 102.5t12 99.5q0 115 -40 219t-112 182t-179.5 124t-234.5 46q-105 0 -197.5 -22.5t-162.5 -61t-128 -92t-97 -114t-66 -128t-39 -133.5t-12 -131q0 -123 46.5 -235.5t123.5 -193
t181 -128t215 -47.5q206 0 418 105l83 -139q-228 -153 -501 -153q-161 0 -302 60t-242.5 164t-160 252t-58.5 317q0 76 14.5 156.5t48 165.5t82 162.5t122 147t163.5 120.5t210.5 81t258.5 30q174 0 319 -57.5t242 -158.5t150.5 -239t53.5 -298q0 -43 -6 -88t-20.5 -97
t-37 -98.5t-59 -90t-82.5 -75t-111 -50.5t-141 -19q-119 0 -185 69q-34 29 -49 87h-4q-25 -37 -67.5 -68t-93 -49t-96.5 -18q-152 0 -245 107t-93 282q0 38 6 80.5t20.5 89t35.5 90.5t52.5 84t70 69.5t91 47t111.5 17.5q154 0 236 -131h4l13 116h262zM881 334q56 0 102 31.5
t72 84t26 112.5q0 78 -43.5 127.5t-108.5 49.5q-85 0 -144 -65.5t-59 -159.5q0 -80 44.5 -130t110.5 -50z" />
    <glyph glyph-name="A" unicode="A" horiz-adv-x="1430" 
d="M1095 0l-99 291h-558l-99 -291h-301l539 1455h278l541 -1455h-301zM521 537h391l-195 571h-2z" />
    <glyph glyph-name="B" unicode="B" horiz-adv-x="1319" 
d="M942 771q140 -35 216 -130.5t76 -238.5q0 -88 -29.5 -161t-87 -127t-148 -84t-207.5 -30h-602v1455h525q232 0 353.5 -91t121.5 -264q0 -68 -21 -128.5t-71 -114t-126 -82.5v-4zM443 1200v-341h206q60 0 108 17.5t79.5 57t31.5 97.5q0 52 -24 89t-78 58.5t-136 21.5h-187
zM675 253q78 0 135.5 20.5t90.5 62t33 102.5q0 88 -65.5 138.5t-190.5 50.5h-235v-374h232z" />
    <glyph glyph-name="C" unicode="C" horiz-adv-x="1486" 
d="M842 -15q-120 0 -230 30t-203 92t-161.5 148.5t-107.5 206.5t-39 261q0 125 31 237.5t93.5 205.5t150 161.5t207 106.5t259.5 38q103 0 203 -28t199.5 -92t176.5 -159l-211 -180q-68 82 -164 133.5t-204 51.5q-54 0 -104 -11t-94 -32.5t-81.5 -52t-67 -70.5t-50.5 -87.5
t-32 -103.5t-11 -118q0 -134 55.5 -240t156 -165.5t228.5 -59.5q109 0 205 50t163 134l211 -181q-100 -125 -248 -200.5t-331 -75.5z" />
    <glyph glyph-name="D" unicode="D" horiz-adv-x="1496" 
d="M160 0v1455h481q170 0 311.5 -54t239 -149.5t151 -231t53.5 -295.5t-51.5 -294t-147 -229.5t-236.5 -148.5t-314 -53h-487zM444 257h185q104 0 192 36t148.5 98.5t94 148.5t33.5 185q0 135 -57.5 243t-160.5 168.5t-232 60.5h-203v-940z" />
    <glyph glyph-name="E" unicode="E" horiz-adv-x="1228" 
d="M159 0v1455h930v-258h-646v-349h518v-254h-518v-337h689v-257h-973z" />
    <glyph glyph-name="F" unicode="F" horiz-adv-x="1204" 
d="M160 0v1455h965v-258h-681v-389h568v-257h-568v-551h-284z" />
    <glyph glyph-name="G" unicode="G" horiz-adv-x="1542" 
d="M843 -14q-157 0 -292.5 50.5t-235.5 143.5t-157 233.5t-57 311.5q0 159 51 296t143.5 237t230.5 157t305 57q161 0 315 -63.5t263 -185.5l-204 -173q-156 151 -374 151q-90 0 -168 -33t-136.5 -93t-92 -150.5t-33.5 -199.5q0 -134 53 -241.5t154.5 -171t234.5 -63.5
q162 0 295 83v214h-327v247h605v-627q-101 -82 -254.5 -131t-318.5 -49z" />
    <glyph glyph-name="H" unicode="H" horiz-adv-x="1493" 
d="M160 0v1455h289v-630h595v630h290v-1455h-290v568h-595v-568h-289z" />
    <glyph glyph-name="I" unicode="I" horiz-adv-x="628" 
d="M169 0v1455h290v-1455h-290z" />
    <glyph glyph-name="J" unicode="J" horiz-adv-x="1036" 
d="M448 -14q-113 0 -220 48.5t-179 141.5l164 203q41 -54 99.5 -89.5t116.5 -35.5q177 0 177 253v948h289v-943q0 -82 -10.5 -151t-33 -128.5t-58 -104.5t-84.5 -77t-114.5 -48.5t-146.5 -16.5z" />
    <glyph glyph-name="K" unicode="K" horiz-adv-x="1364" 
d="M591 583h-3l-141 -169v-414h-287v1455h287v-641h2l503 641h364l-536 -642l554 -813h-355z" />
    <glyph glyph-name="L" unicode="L" horiz-adv-x="1159" 
d="M160 0v1455h288v-1198h647v-257h-935z" />
    <glyph glyph-name="M" unicode="M" horiz-adv-x="1795" 
d="M1345 1455h290v-1455h-286v904h-3l-355 -628h-187l-355 628h-3v-904h-286v1455h290l447 -828h4z" />
    <glyph glyph-name="N" unicode="N" horiz-adv-x="1546" 
d="M1098 1455h288v-1455h-295l-640 964h-4v-964h-287v1455h287l647 -983h4v983z" />
    <glyph glyph-name="O" unicode="O" horiz-adv-x="1682" 
d="M842 -17q-163 0 -301.5 56t-235 154t-151 236.5t-54.5 298.5t54.5 298t151 236t235.5 154t301 56q159 0 295.5 -54.5t234.5 -151t154 -235.5t56 -303t-56 -303.5t-154 -236t-234.5 -151t-295.5 -54.5zM843 251q93 0 174.5 36t140 99t92 152t33.5 190q0 135 -57.5 244
t-158 170t-224.5 61q-128 0 -230 -63.5t-157.5 -172t-55.5 -239.5q0 -132 55.5 -240.5t157.5 -172.5t230 -64z" />
    <glyph glyph-name="P" unicode="P" horiz-adv-x="1278" 
d="M160 0v1455h538q129 0 227.5 -36t158.5 -102t90 -153t30 -194q0 -118 -38 -208t-108.5 -148t-168 -87t-218.5 -29h-227v-498h-284zM444 753h191q132 0 201.5 60t69.5 163t-67.5 163t-191.5 60h-203v-446z" />
    <glyph glyph-name="Q" unicode="Q" horiz-adv-x="1715" 
d="M1622 150l-151 -194l-180 164q-190 -137 -448 -137q-163 0 -301.5 56t-235 154.5t-151 236.5t-54.5 298t54.5 298t151 236t235.5 154t301 56q159 0 295.5 -54.5t234.5 -151t154 -235.5t56 -303q0 -248 -123 -434zM843 251q128 0 232 66l-133 121l150 182l140 -124
q51 107 51 232q0 131 -55 239.5t-156 172t-229 63.5q-94 0 -176 -36t-141 -99t-92.5 -151t-33.5 -189q0 -81 21.5 -154.5t61.5 -132t94 -101.5t122.5 -66t143.5 -23z" />
    <glyph glyph-name="R" unicode="R" horiz-adv-x="1346" 
d="M1278 0h-341l-326 498h-167v-498h-284v1455h550q128 0 226.5 -36t159 -102t91 -153t30.5 -194q0 -114 -36.5 -202.5t-102 -146.5t-159.5 -89v-4zM444 1199v-447h202q131 0 202 60.5t71 163.5t-68.5 163t-192.5 60h-214z" />
    <glyph glyph-name="S" unicode="S" horiz-adv-x="1196" 
d="M597 -17q-145 0 -281.5 57t-248.5 172l173 213q40 -46 86.5 -81t93 -57t92.5 -33t90 -11q68 0 115.5 20t70.5 54t23 80q0 32 -10 57t-27.5 44t-51 37.5t-69.5 33t-95 34.5q-53 19 -94 35t-89 40.5t-83 49t-69.5 59t-56 73t-35 89t-13.5 107.5q0 115 62 210t169 149.5
t236 56.5q264 3 490 -183l-166 -217q-175 143 -317 143q-77 0 -125.5 -39t-49.5 -107q0 -27 10 -49t27 -39.5t50.5 -36t67 -33t90.5 -36.5q182 -71 241 -103q136 -74 181 -183q28 -68 28 -158q0 -92 -31 -168.5t-82 -127t-118.5 -86t-138.5 -51t-145 -15.5z" />
    <glyph glyph-name="T" unicode="T" horiz-adv-x="1210" 
d="M461 0v1197h-401v258h1091v-258h-403v-1197h-287z" />
    <glyph glyph-name="U" unicode="U" horiz-adv-x="1461" 
d="M728 -17q-131 0 -239.5 41.5t-185.5 119t-119.5 194.5t-42.5 264v853h289v-834q0 -106 34 -188.5t102.5 -131t161.5 -48.5q135 0 219 98.5t84 269.5v834h288v-853q0 -189 -69.5 -328t-203 -215t-318.5 -76z" />
    <glyph glyph-name="V" unicode="V" horiz-adv-x="1418" 
d="M1069 1455h309l-538 -1455h-254l-540 1455h312l352 -1045h3z" />
    <glyph glyph-name="W" unicode="W" horiz-adv-x="2116" 
d="M1755 1455h307l-458 -1455h-267l-274 1035h-3l-283 -1035h-266l-458 1455h307l283 -984h4l259 984h305l257 -984h4z" />
    <glyph glyph-name="X" unicode="X" horiz-adv-x="1437" 
d="M1048 0l-327 509h-3l-329 -509h-336l476 730l-462 725h330l320 -501h5l319 501h329l-460 -724l475 -731h-337z" />
    <glyph glyph-name="Y" unicode="Y" horiz-adv-x="1295" 
d="M942 1455h333l-484 -816v-639h-291v639l-481 816h330l296 -531h4z" />
    <glyph glyph-name="Z" unicode="Z" horiz-adv-x="1277" 
d="M473 257h694v-257h-1062v225l678 965v7h-650v258h1032v-220l-692 -971v-7z" />
    <glyph glyph-name="bracketleft" unicode="[" horiz-adv-x="707" 
d="M126 -303v1805h487v-200h-256v-1404h256v-201h-487z" />
    <glyph glyph-name="backslash" unicode="\" horiz-adv-x="908" 
d="M762 -229l-780 1748l198 92l782 -1748z" />
    <glyph glyph-name="bracketright" unicode="]" horiz-adv-x="707" 
d="M581 -303h-487v201h256v1404h-256v200h487v-1805z" />
    <glyph glyph-name="asciicircum" unicode="^" horiz-adv-x="956" 
d="M104 1023l279 432h189l281 -432h-218l-157 263l-164 -263h-210z" />
    <glyph glyph-name="underscore" unicode="_" horiz-adv-x="1092" 
d="M-5 -236v180h1101v-180h-1101z" />
    <glyph glyph-name="grave" unicode="`" horiz-adv-x="1020" 
d="M470 1096l-253 302l281 -1l231 -301h-259z" />
    <glyph glyph-name="a" unicode="a" horiz-adv-x="1244" 
d="M849 1000h268v-1000h-255v121h-5q-107 -138 -299 -138q-103 0 -191.5 37t-152 103.5t-99.5 163t-36 210.5q0 112 36 209t98.5 165t150 107t186.5 39q183 0 295 -130h4v113zM607 223q107 0 180 76t73 197q0 120 -71.5 200t-180.5 80q-110 0 -183.5 -77t-73.5 -203
q0 -121 71.5 -197t184.5 -76z" />
    <glyph glyph-name="b" unicode="b" horiz-adv-x="1264" 
d="M711 1017q99 0 186.5 -39t150 -107t98.5 -165t36 -209q0 -114 -36 -210.5t-99.5 -163t-152 -103.5t-191.5 -37q-197 0 -306 138h-5v-121h-256v1508h268v-621h5q113 130 302 130zM654 223q113 0 184.5 76t71.5 197q0 126 -73 203t-183 77q-115 0 -189 -79.5t-74 -200.5
t75.5 -197t187.5 -76z" />
    <glyph glyph-name="c" unicode="c" horiz-adv-x="1088" 
d="M595 -17q-147 0 -264 64.5t-183.5 182.5t-66.5 269q0 152 67 270t187 183t273 65q123 0 237 -49.5t188 -142.5l-181 -156q-92 107 -233 107q-59 0 -109 -20.5t-84.5 -56.5t-53.5 -87t-19 -111q0 -123 74.5 -200t193.5 -77q74 0 133.5 28.5t98.5 72.5l184 -162
q-69 -80 -183.5 -130t-258.5 -50z" />
    <glyph glyph-name="d" unicode="d" horiz-adv-x="1261" 
d="M858 1508h268v-1508h-255v121h-6q-109 -138 -306 -138q-59 0 -114 12t-102.5 36t-88.5 57t-73 77t-54.5 95t-34.5 111.5t-12 125.5q0 112 36 209t98.5 165t150 107t186.5 39q189 0 302 -130h5v621zM608 223q73 0 133 33.5t95.5 96.5t35.5 143q0 120 -74.5 200t-188.5 80
q-110 0 -183.5 -77t-73.5 -203q0 -121 71.5 -197t184.5 -76z" />
    <glyph glyph-name="e" unicode="e" horiz-adv-x="1146" 
d="M1068 509q0 -71 -7 -96h-701q24 -89 91.5 -140t163.5 -52q145 -1 239 113l174 -162q-68 -86 -178 -137.5t-254 -51.5q-146 0 -263 63.5t-184.5 182.5t-67.5 272q0 112 38 208.5t103.5 164t157.5 105.5t197 38q145 0 257 -65.5t173 -181t61 -261.5zM586 781
q-83 0 -142.5 -45t-82.5 -130h441q-21 82 -76 128.5t-140 46.5z" />
    <glyph glyph-name="f" unicode="f" horiz-adv-x="713" 
d="M173 0v778h-106v222h106v172q0 115 37.5 194.5t107.5 119t169 39.5q82 0 149.5 -22t109.5 -50l-54 -210q-90 44 -150 44q-101 0 -101 -135v-152h223v-222h-223v-778h-268z" />
    <glyph glyph-name="g" unicode="g" horiz-adv-x="1239" 
d="M845 1000h268v-885q0 -96 -17 -176t-56 -147.5t-99 -114.5t-148.5 -73t-201.5 -26q-234 0 -410 101l62 226q82 -45 159 -69t166 -24q135 0 209 63t74 159v101h-5q-111 -117 -291 -117q-137 0 -245.5 62t-170 174.5t-61.5 255.5q0 145 59.5 261t165.5 181t238 65
q86 0 163.5 -30.5t135.5 -89.5h5v103zM604 261q111 0 182 73t71 186t-72.5 183t-180.5 70q-112 0 -183 -71t-71 -184q0 -47 12.5 -87.5t35.5 -71.5t54.5 -53t70 -33.5t81.5 -11.5z" />
    <glyph glyph-name="h" unicode="h" horiz-adv-x="1222" 
d="M733 1017q84 0 149.5 -22.5t115.5 -70.5t77 -129.5t27 -193.5v-602h-269v534q0 133 -47.5 188t-147.5 55q-110 0 -172 -68.5t-62 -200.5v-507h-268v1508h268v-629h4q61 68 144.5 103t180.5 35z" />
    <glyph glyph-name="i" unicode="i" horiz-adv-x="564" 
d="M282 1141q-45 0 -83.5 22t-60.5 59.5t-22 82.5q0 67 48.5 115t117.5 48q68 0 117 -48t49 -115q0 -68 -49 -116t-117 -48zM148 0v1000h268v-1000h-268z" />
    <glyph glyph-name="j" unicode="j" horiz-adv-x="527" 
d="M264 1147q-45 0 -83.5 22t-60.5 59.5t-22 82.5q0 67 48.5 115t117.5 48q68 0 117 -48t49 -115q0 -68 -49 -116t-117 -48zM106 -422q-66 0 -112.5 8t-96.5 28l45 223q44 -25 89 -25q49 0 75.5 35t26.5 104v1049h268v-1060q0 -176 -79.5 -269t-215.5 -93z" />
    <glyph glyph-name="k" unicode="k" horiz-adv-x="1104" 
d="M547 398h-3l-141 -159v-239h-268v1508h268v-911h4l357 403h314l-353 -398l359 -602h-299z" />
    <glyph glyph-name="l" unicode="l" horiz-adv-x="563" 
d="M148 0v1508h268v-1508h-268z" />
    <glyph glyph-name="m" unicode="m" horiz-adv-x="1827" 
d="M1353 1017q168 0 260.5 -107t92.5 -329v-582h-268v517q0 260 -175 260q-57 0 -103 -31t-73.5 -94.5t-27.5 -150.5v-501h-268v517q0 260 -177 260q-61 0 -108 -31t-75 -94.5t-28 -150.5v-500h-268v1000h268v-132h3q59 72 137 110.5t162 38.5q209 0 297 -161h3
q61 78 150.5 119.5t197.5 41.5z" />
    <glyph glyph-name="n" unicode="n" horiz-adv-x="1212" 
d="M728 1017q83 0 147.5 -23.5t114 -72.5t75.5 -132t26 -196v-594h-268v527q0 138 -47 194t-145 56q-104 0 -165.5 -71t-61.5 -202v-503h-268v1000h268v-129h3q61 71 144.5 108.5t176.5 37.5z" />
    <glyph glyph-name="o" unicode="o" horiz-adv-x="1225" 
d="M613 -17q-94 0 -177 25t-147.5 71t-111.5 109.5t-71.5 142.5t-24.5 168q0 111 38.5 207t107.5 164.5t169 107.5t217 39q115 0 214 -38t169 -105.5t109.5 -164t39.5 -210.5q0 -151 -68 -269t-189 -182.5t-275 -64.5zM613 223q110 0 185 78t75 198q0 122 -74 199.5
t-186 77.5q-116 0 -188.5 -78.5t-72.5 -198.5q0 -117 73.5 -196.5t187.5 -79.5z" />
    <glyph glyph-name="p" unicode="p" horiz-adv-x="1264" 
d="M711 1017q79 0 151.5 -24.5t130.5 -71t100.5 -110t65.5 -144t23 -170.5q0 -114 -36 -210.5t-99.5 -163t-152 -103.5t-191.5 -37q-188 0 -295 129h-4v-517h-268v1405h268v-115h4q112 132 303 132zM654 223q113 0 184.5 76t71.5 197q0 126 -73 203t-183 77
q-57 0 -105.5 -21.5t-82.5 -58.5t-53.5 -89t-19.5 -111q0 -80 34.5 -143t94 -96.5t132.5 -33.5z" />
    <glyph glyph-name="q" unicode="q" horiz-adv-x="1258" 
d="M860 1000h268v-1405h-267v519h-4q-109 -131 -297 -131q-103 0 -191.5 37t-152 103.5t-99.5 163t-36 210.5q0 227 134.5 373.5t336.5 146.5q191 0 303 -132h5v115zM609 223q112 0 186.5 76t74.5 197t-73 200.5t-187 79.5q-110 0 -183.5 -77t-73.5 -203q0 -121 71.5 -197
t184.5 -76z" />
    <glyph glyph-name="r" unicode="r" horiz-adv-x="768" 
d="M709 1017q15 0 21 -1v-294q-40 3 -71 3q-120 0 -187.5 -73t-67.5 -188v-464h-268v1000h268v-147h3q57 79 135 121.5t167 42.5z" />
    <glyph glyph-name="s" unicode="s" horiz-adv-x="917" 
d="M459 -17q-238 0 -405 147l130 185q125 -117 277 -117q57 0 90 23t33 60q0 23 -20 40.5t-55.5 32.5t-106.5 38q-45 15 -80.5 30t-72.5 35.5t-63.5 45.5t-48 56t-32.5 71t-11 87q0 89 47.5 157.5t129 105.5t183.5 37q105 0 193 -30t173 -96l-130 -196q-56 53 -118.5 79.5
t-120.5 26.5q-38 0 -68 -19.5t-30 -55.5q0 -30 35.5 -54t114.5 -54q166 -61 222 -97q97 -60 116 -160q6 -30 6 -67q0 -139 -99.5 -225t-288.5 -86z" />
    <glyph glyph-name="t" unicode="t" horiz-adv-x="764" 
d="M447 -17q-133 0 -209.5 84.5t-76.5 248.5v462h-118v222h118v327l268 29v-356h272v-222h-272v-425q0 -66 20.5 -97t67.5 -31q58 0 126 35l69 -214q-57 -31 -115 -47t-150 -16z" />
    <glyph glyph-name="u" unicode="u" horiz-adv-x="1182" 
d="M787 1000h268v-1000h-268v122h-4q-58 -68 -134.5 -103.5t-162.5 -35.5q-84 0 -149 22.5t-115.5 70.5t-77 129t-26.5 193v602h268v-532q0 -135 41.5 -189.5t137.5 -54.5q94 0 158 76t64 215v485z" />
    <glyph glyph-name="v" unicode="v" horiz-adv-x="1106" 
d="M786 1000h286l-393 -1000h-250l-394 1000h283l235 -672h3z" />
    <glyph glyph-name="w" unicode="w" horiz-adv-x="1581" 
d="M1272 1000h269l-341 -1000h-231l-178 617h-3l-176 -617h-230l-341 1000h269l194 -608h3l175 608h216l177 -608h3z" />
    <glyph glyph-name="x" unicode="x" horiz-adv-x="1082" 
d="M745 0l-202 287h-5l-203 -287h-291l344 511l-341 489h305l185 -286h5l187 286h303l-341 -488l347 -512h-293z" />
    <glyph glyph-name="y" unicode="y" horiz-adv-x="1104" 
d="M791 1000h278l-539 -1405h-274l178 467l-400 938h280l245 -619h3z" />
    <glyph glyph-name="z" unicode="z" horiz-adv-x="996" 
d="M918 820l-488 -594v-6h477v-220h-832v183l482 595v3h-446v219h807v-180z" />
    <glyph glyph-name="braceleft" unicode="{" horiz-adv-x="733" 
d="M487 818q0 -92 -26 -143t-84 -75v-4q32 -12 50.5 -24.5t33.5 -36.5t20.5 -61.5t5.5 -97.5v-355q0 -37 5 -61.5t17 -44t35.5 -29t59.5 -9.5h46v-177h-149q-102 0 -171 71.5t-69 187.5v378q0 23 -0.5 35.5t-4 32t-9.5 30t-18.5 24t-30.5 20.5t-45 12t-62 6v199q27 1 50 5
t39.5 9.5t29.5 14.5t21 17t14 20.5t9 21.5t4.5 24t2 24t0.5 24v386q0 72 29 130.5t84 94t127 35.5h149v-178h-46q-33 0 -57 -13t-36.5 -34.5t-18 -42.5t-5.5 -43v-373z" />
    <glyph glyph-name="bar" unicode="|" horiz-adv-x="650" 
d="M215 -235v1744h220v-1744h-220z" />
    <glyph glyph-name="braceright" unicode="}" horiz-adv-x="733" 
d="M472 856q0 -20 0.5 -31.5t4 -30t9.5 -30t18.5 -25t30 -21.5t45 -14.5t62.5 -7.5v-199q-35 -1 -62 -6t-45 -12t-30.5 -20t-18.5 -24t-9.5 -30.5t-4 -32t-0.5 -35.5v-378q0 -58 -19 -107t-51.5 -82t-76.5 -51.5t-93 -18.5h-149v177h46q69 0 93 35t24 109v355q0 60 5.5 97.5
t20.5 61.5t33.5 36.5t50.5 24.5v4q-58 24 -84 75t-26 143v373q0 22 -5.5 43t-18 42.5t-36.5 34.5t-57 13h-46v178h149q108 0 174 -75t66 -185v-386z" />
    <glyph glyph-name="asciitilde" unicode="~" horiz-adv-x="1167" 
d="M291 400l-185 75q40 117 114.5 189t175.5 72q45 0 89.5 -10.5t61 -17t59.5 -25.5q76 -39 134 -39q15 0 29 3t27 9t25 14.5t22 19t19 22.5t17 26l183 -63q-38 -121 -112.5 -197t-171.5 -76q-41 0 -84 10t-65 18.5t-64 26.5q-83 38 -135 38q-86 0 -139 -95z" />
    <glyph glyph-name="exclamdown" unicode="&#xa1;" horiz-adv-x="576" 
d="M288 1015q33 0 63.5 -13t53 -34.5t35.5 -52t13 -63.5q0 -67 -48.5 -115.5t-116.5 -48.5q-70 0 -118.5 48t-48.5 116t48.5 115.5t118.5 47.5zM192 520h198l48 -1030h-293z" />
    <glyph glyph-name="cent" unicode="&#xa2;" horiz-adv-x="1113" 
d="M1047 273q-54 -62 -138.5 -107.5t-190.5 -63.5v-194h-207v192q-191 28 -309.5 167t-118.5 343q0 201 117 339t311 170v188h207v-187q97 -17 181.5 -63.5t142.5 -120.5l-180 -156q-92 107 -237 107q-121 0 -195.5 -76.5t-74.5 -197.5q0 -122 75.5 -200t196.5 -78
q51 0 98 14.5t79.5 36.5t58.5 50z" />
    <glyph glyph-name="sterling" unicode="&#xa3;" horiz-adv-x="1163" 
d="M90 0v256h135v390h-112v195h112v88q0 105 23 189t62.5 139.5t95 93t117.5 54t132 16.5q119 0 227.5 -52.5t180.5 -147.5l-142 -184q-47 59 -107.5 92t-119.5 33q-39 0 -70 -11.5t-57.5 -38t-41 -78t-14.5 -125.5v-68h314v-195h-310v-390h591v-256h-1016z" />
    <glyph glyph-name="currency" unicode="&#xa4;" horiz-adv-x="1051" 
d="M899 793q0 -107 -57 -197l162 -164l-120 -122l-164 164q-91 -55 -198 -55q-106 0 -197 56l-164 -163l-122 122l164 164q-54 91 -54 195q0 106 55 196l-165 165l122 122l165 -163q90 57 197 57t197 -57l164 165l121 -123l-163 -163q57 -92 57 -199zM524 607
q77 1 132.5 56.5t57.5 133.5q-1 52 -27 95.5t-69.5 69t-94.5 25.5q-51 -1 -94.5 -26.5t-69.5 -69t-26 -94.5q1 -78 56.5 -133.5t134.5 -56.5z" />
    <glyph glyph-name="yen" unicode="&#xa5;" horiz-adv-x="1220" 
d="M1208 1404l-308 -554h153v-135h-227l-58 -103h285v-135h-298v-477h-291v477h-314v135h301l-57 103h-244v135h169l-307 555h333l263 -533h4l261 533z" />
    <glyph glyph-name="brokenbar" unicode="&#xa6;" horiz-adv-x="650" 
d="M215 788v721h220v-721h-220zM215 -234v721h220v-721h-220z" />
    <glyph glyph-name="section" unicode="&#xa7;" horiz-adv-x="1126" 
d="M873 288q57 -44 85.5 -102.5t28.5 -141.5q0 -165 -115.5 -261.5t-306.5 -96.5q-270 0 -461 197l156 187q70 -72 149.5 -107t151.5 -35q61 0 100 30.5t39 80.5t-39 79t-147 70q-58 22 -95 37.5t-85 38t-77.5 42t-61.5 47t-50 56.5t-29.5 65.5t-11.5 78.5q0 91 39 159.5
t113 110.5q-108 88 -108 235q0 152 109.5 251t293.5 99q72 0 150.5 -20.5t150 -57t127.5 -83.5l-152 -187q-141 101 -262 101q-62 0 -97 -27.5t-35 -70.5q0 -46 35.5 -72.5t136.5 -68.5q192 -79 243 -107q114 -62 151 -143q25 -54 25 -129q0 -78 -39.5 -144.5t-111.5 -110.5
zM368 602q0 -53 47 -90.5t175 -86.5l71 -28q24 6 43 17.5t31 26.5t18 32t6 35q0 54 -44.5 87.5t-184.5 88.5l-61 24q-50 -11 -75.5 -40.5t-25.5 -65.5z" />
    <glyph glyph-name="dieresis" unicode="&#xa8;" horiz-adv-x="1071" 
d="M322 1098q-70 0 -118.5 48t-48.5 116q0 44 22 81.5t60.5 59.5t84.5 22q68 0 117 -48t49 -115q0 -68 -49 -116t-117 -48zM751 1100q-45 0 -83 22t-60 59t-22 81q0 43 22 80.5t60 59.5t83 22q44 0 81.5 -22t60 -59.5t22.5 -80.5q0 -67 -48.5 -114.5t-115.5 -47.5z" />
    <glyph glyph-name="copyright" unicode="&#xa9;" horiz-adv-x="1470" 
d="M733 1q-107 0 -206 33.5t-177.5 94t-137.5 141t-91 179t-32 202.5q0 130 50.5 249.5t136.5 207.5t206.5 140.5t254.5 52.5q107 0 205.5 -33.5t177.5 -94t137.5 -141t90.5 -179t32 -202.5q0 -129 -50.5 -248.5t-136 -208t-206 -141t-254.5 -52.5zM734 172q66 0 128 17.5
t114 48.5t95.5 75.5t73.5 97t46.5 114t16.5 126.5q0 98 -36.5 186t-99 152t-150 102t-185.5 38q-100 0 -188.5 -38t-151 -103t-99 -153.5t-36.5 -185.5q0 -78 23 -150.5t66 -131.5t100.5 -103t130.5 -68t152 -24zM754 314q-69 0 -130 21.5t-108 62t-74 105t-27 144.5
q0 94 38.5 169t116.5 121t184 46q47 0 92 -12.5t90.5 -42t81.5 -72.5l-112 -96q-13 16 -29.5 29t-35.5 24t-41.5 17t-45.5 6q-78 0 -128 -51t-50 -138q0 -82 48.5 -134.5t129.5 -52.5q44 0 85 20.5t67 53.5l112 -96q-46 -56 -113 -90t-151 -34z" />
    <glyph glyph-name="ordfeminine" unicode="&#xaa;" horiz-adv-x="789" 
d="M534 1406h185v-601h-185v65h-3q-68 -78 -188 -78q-129 0 -208.5 87t-79.5 226t77.5 226t199.5 87q57 0 109.5 -23.5t90.5 -68.5h2v80zM390 968q60 0 99.5 38t39.5 99t-39.5 100t-98.5 39q-40 0 -73 -17.5t-52 -49t-19 -72.5q0 -61 40.5 -99t102.5 -38z" />
    <glyph glyph-name="guillemotleft" unicode="&#xab;" horiz-adv-x="1048" 
d="M578 79h-260l-241 426l245 434h259l-248 -434zM999 79h-260l-241 426l245 434h259l-248 -434z" />
    <glyph glyph-name="logicalnot" unicode="&#xac;" horiz-adv-x="1130" 
d="M797 300v332h-697v230h931v-562h-234z" />
    <glyph glyph-name="registered" unicode="&#xae;" horiz-adv-x="1481" 
d="M741 1309q134 0 255 -52.5t207 -141t136.5 -209t50.5 -252.5q0 -131 -50.5 -251.5t-137 -209t-208 -141t-256.5 -52.5q-90 0 -174.5 24t-155.5 66.5t-130.5 103t-101 132t-64.5 156t-23 172.5q0 105 32.5 204t92 180t139.5 142t180 95t208 34zM738 171q100 0 189 38.5
t152 103.5t100 154t37 187t-36.5 187.5t-99.5 154t-151.5 103t-187.5 38.5q-100 0 -189.5 -38.5t-152.5 -104t-100 -155t-37 -187.5t36.5 -187t99.5 -153.5t152 -102.5t188 -38zM997 763q0 -149 -125 -199l157 -237h-174l-139 217h-61v-217h-149v663h257q117 0 175.5 -62
t58.5 -165zM656 854v-176h73q52 0 81.5 24t29.5 64q0 19 -7 35t-20.5 28t-34 18.5t-46.5 6.5h-76z" />
    <glyph glyph-name="macron" unicode="&#xaf;" horiz-adv-x="908" 
d="M143 1151v214h623v-214h-623z" />
    <glyph glyph-name="degree" unicode="&#xb0;" horiz-adv-x="793" 
d="M395 901q-119 0 -204.5 84t-85.5 201q0 76 40.5 142.5t107.5 105t142 38.5q76 0 143.5 -38.5t108 -105.5t40.5 -145q0 -115 -86.5 -198.5t-205.5 -83.5zM396 1063q52 0 87.5 35.5t35.5 86.5q0 52 -36.5 89t-86.5 37t-86.5 -37.5t-36.5 -88.5t35.5 -86.5t87.5 -35.5z" />
    <glyph glyph-name="plusminus" unicode="&#xb1;" horiz-adv-x="1239" 
d="M486 362v367h-367v234h367v369h237v-369h368v-234h-368v-367h-237zM148 -6v234h972v-234h-972z" />
    <glyph glyph-name="uni00B2" unicode="&#xb2;" horiz-adv-x="698" 
d="M351 1082h293v-190h-594l-3 140l264 263q60 60 85 97.5t25 75.5q0 39 -26 62.5t-67 23.5q-34 0 -70.5 -18.5t-62.5 -57.5l-155 111q42 70 122 115t184 45q58 0 110 -18t92 -50t64 -81t24 -107q0 -79 -30 -140t-119 -142l-136 -125v-4z" />
    <glyph glyph-name="uni00B3" unicode="&#xb3;" horiz-adv-x="713" 
d="M534 1325q130 -60 130 -201q0 -113 -85 -180t-222 -67q-119 0 -207 56.5t-121 143.5l189 76q15 -48 44.5 -70t79.5 -22q48 0 76 25t28 67q0 41 -32.5 66t-89.5 25h-58v155h72q44 0 71.5 22.5t27.5 56.5q0 38 -26 62t-70 24q-76 0 -104 -72l-174 93q29 72 105.5 118
t174.5 46q127 0 210 -61.5t83 -170.5q0 -121 -102 -187v-5z" />
    <glyph glyph-name="acute" unicode="&#xb4;" horiz-adv-x="1021" 
d="M290 1096l232 301l281 1l-254 -302h-259z" />
    <glyph glyph-name="uni00B5" unicode="&#xb5;" horiz-adv-x="1191" 
d="M798 1000h268v-1000h-247l-14 125h-4q-53 -68 -123 -105t-149 -37q-95 0 -149 47l-3 -3q19 -105 19 -226v-206h-268v1405h268v-513q0 -136 48.5 -200t143.5 -64q92 0 151 73.5t59 203.5v500z" />
    <glyph glyph-name="paragraph" unicode="&#xb6;" horiz-adv-x="1101" 
d="M776 -311v1513h-128v-1202h-164v611q-186 13 -297.5 111.5t-111.5 267.5q0 175 119.5 279.5t328.5 104.5h411v-1685h-158z" />
    <glyph glyph-name="periodcentered" unicode="&#xb7;" horiz-adv-x="565" 
d="M288 335q-70 0 -118.5 47.5t-48.5 115.5t48.5 116t118.5 48q68 0 116.5 -48.5t48.5 -115.5t-48.5 -115t-116.5 -48z" />
    <glyph glyph-name="cedilla" unicode="&#xb8;" horiz-adv-x="757" 
d="M379 -64q91 -4 139.5 -46t48.5 -119q0 -74 -61.5 -118t-189.5 -44q-63 0 -125 12v120q40 -14 105 -14q25 0 46 5t36.5 19t15.5 34q0 29 -44.5 47.5t-123.5 18.5v76l42 85h147l-38 -73z" />
    <glyph glyph-name="uni00B9" unicode="&#xb9;" horiz-adv-x="581" 
d="M261 892v584l-129 -90l-103 161l279 188h162v-843h-209z" />
    <glyph glyph-name="ordmasculine" unicode="&#xba;" horiz-adv-x="787" 
d="M382 793q-144 0 -235.5 88t-91.5 225t91.5 224.5t235.5 87.5q145 0 237.5 -87t92.5 -225t-92.5 -225.5t-237.5 -87.5zM382 967q57 0 95.5 39.5t38.5 99.5q0 62 -37.5 101t-96.5 39q-58 0 -94.5 -39.5t-36.5 -100.5q0 -60 37 -99.5t94 -39.5z" />
    <glyph glyph-name="guillemotright" unicode="&#xbb;" horiz-adv-x="1046" 
d="M49 79l245 426l-248 434h259l245 -434l-241 -426h-260zM470 79l245 426l-248 434h259l245 -434l-241 -426h-260z" />
    <glyph glyph-name="onequarter" unicode="&#xbc;" horiz-adv-x="1672" 
d="M614 -48l-202 87l645 1446l201 -87zM261 612v584l-129 -90l-103 161l279 188h162v-843h-209zM1311 0v129h-343v126l388 588h164v-535h112v-179h-112v-129h-209zM1173 295h155v241z" />
    <glyph glyph-name="onehalf" unicode="&#xbd;" horiz-adv-x="1742" 
d="M1057 1485l201 -87l-644 -1446l-202 87zM470 612h-209v584l-129 -90l-103 161l279 188h162v-843zM1395 190h293v-190h-594l-3 140l264 263q60 60 85 97.5t25 75.5q0 26 -12 45.5t-33 30t-48 10.5q-34 0 -70.5 -18.5t-62.5 -57.5l-155 111q42 70 122 115t184 45
q58 0 110 -18t92 -50t64 -81t24 -107q0 -31 -3.5 -56t-13 -52.5t-26 -53.5t-43 -56t-63.5 -64l-136 -125v-4z" />
    <glyph glyph-name="threequarters" unicode="&#xbe;" horiz-adv-x="1758" 
d="M1143 1485l201 -87l-644 -1446l-202 87zM664 844q0 -113 -85 -180t-222 -67q-119 0 -207 56.5t-121 143.5l189 76q10 -32 26 -52t40 -30t58 -10q48 0 76 25t28 67q0 41 -32.5 66t-89.5 25h-58v155h72q29 0 52 10.5t35 28.5t12 40q0 38 -26 62t-70 24q-76 0 -104 -72
l-174 93q29 72 105.5 118t174.5 46q127 0 210 -61.5t83 -170.5q0 -121 -102 -187v-5q130 -60 130 -201zM1606 308h112v-179h-112v-129h-209v129h-343v126l388 588h164v-535zM1414 295v241l-155 -241h155z" />
    <glyph glyph-name="questiondown" unicode="&#xbf;" horiz-adv-x="925" 
d="M545 1016q70 0 118.5 -47.5t48.5 -115.5t-48.5 -116t-118.5 -48q-68 0 -116.5 48.5t-48.5 115.5t48.5 115t116.5 48zM669 526l1 -102q0 -24 -4.5 -47t-10 -41t-18.5 -41t-21.5 -36t-28 -36t-28.5 -33t-32.5 -34.5t-30.5 -32.5q-30 -32 -49 -54t-40.5 -53t-31.5 -63
t-10 -65q0 -75 45 -117t119 -42q58 0 113.5 29.5t93.5 80.5l191 -177q-70 -87 -181.5 -137.5t-238.5 -50.5q-88 0 -165 25t-137.5 73t-95.5 125.5t-35 175.5q0 57 14.5 109t42.5 96.5t56 77.5t68 71q13 12 40 37t40 37t33 33t29.5 35.5t17.5 33t9 36.5l7 87h238z" />
    <glyph glyph-name="Agrave" unicode="&#xc0;" horiz-adv-x="1430" 
d="M833 1605h-259l-253 302l281 -1zM1095 0l-99 291h-558l-99 -291h-301l539 1455h278l541 -1455h-301zM521 537h391l-195 571h-2z" />
    <glyph glyph-name="Aacute" unicode="&#xc1;" horiz-adv-x="1430" 
d="M1112 1907l-254 -302h-259l232 301zM1095 0l-99 291h-558l-99 -291h-301l539 1455h278l541 -1455h-301zM521 537h391l-195 571h-2z" />
    <glyph glyph-name="Acircumflex" unicode="&#xc2;" horiz-adv-x="1430" 
d="M711 1755l-102 -154h-245l227 306h237l239 -306h-247l-103 154h-6zM1095 0l-99 291h-558l-99 -291h-301l539 1455h278l541 -1455h-301zM521 537h391l-195 571h-2z" />
    <glyph glyph-name="Atilde" unicode="&#xc3;" horiz-adv-x="1430" 
d="M593 1701q-72 0 -115 -102l-160 69q33 108 96.5 173t149.5 65q39 0 75 -10t52.5 -18.5t48.5 -27.5q2 -1 6 -4q23 -14 35 -21t32 -13.5t38 -6.5q36 0 66 26.5t50 73.5l157 -52q-32 -118 -94.5 -187t-145.5 -69q-50 0 -91.5 16t-87.5 45q-19 11 -29.5 16.5t-26 13t-29 10.5
t-27.5 3zM1095 0l-99 291h-558l-99 -291h-301l539 1455h278l541 -1455h-301zM521 537h391l-195 571h-2z" />
    <glyph glyph-name="Adieresis" unicode="&#xc4;" horiz-adv-x="1430" 
d="M500 1607q-70 0 -118.5 48t-48.5 116q0 67 49 115t118 48q68 0 117 -48t49 -115q0 -45 -22.5 -82.5t-61 -59.5t-82.5 -22zM929 1609q-45 0 -83 22t-60 59t-22 81q0 66 48.5 114t116.5 48q44 0 82 -22t60 -59.5t22 -80.5q0 -67 -48.5 -114.5t-115.5 -47.5zM1095 0l-99 291
h-558l-99 -291h-301l539 1455h278l541 -1455h-301zM521 537h391l-195 571h-2z" />
    <glyph glyph-name="Aring" unicode="&#xc5;" horiz-adv-x="1430" 
d="M715 1558q-91 0 -155.5 61t-64.5 153q0 89 62.5 151.5t157.5 62.5q93 0 157.5 -61t64.5 -153q0 -58 -27.5 -107t-79 -78t-115.5 -29zM715 1851q-32 0 -54.5 -23t-22.5 -54q0 -32 22.5 -54t54.5 -22t54.5 22.5t22.5 54.5q0 31 -22.5 53.5t-54.5 22.5zM1095 0l-99 291h-558
l-99 -291h-301l539 1455h278l541 -1455h-301zM521 537h391l-195 571h-2z" />
    <glyph glyph-name="AE" unicode="&#xc6;" horiz-adv-x="1957" 
d="M1172 257h689v-257h-973v291h-428l-144 -291h-303l728 1455h1079v-258h-648v-348h527v-253h-527v-339zM581 537h307v614h-4z" />
    <glyph glyph-name="Ccedilla" unicode="&#xc7;" horiz-adv-x="1486" 
d="M842 258q109 0 205 50t163 134l211 -181q-99 -123 -242.5 -197.5t-321.5 -78.5l-24 -46l2 -3q91 -4 139.5 -46t48.5 -119q0 -74 -61.5 -118t-189.5 -44q-63 0 -125 12v120q40 -14 105 -14q40 0 69 14t29 44q0 29 -44.5 47.5t-123.5 18.5v76l31 63v4q-129 19 -239.5 75.5
t-194 146.5t-131 220.5t-47.5 286.5q0 125 31 237.5t93.5 205.5t150 161.5t207 106.5t259.5 38q103 0 203 -28t199.5 -92t176.5 -159l-211 -180q-68 82 -164 133.5t-204 51.5q-63 0 -120.5 -15t-106 -43.5t-88.5 -70t-67.5 -94t-42.5 -116.5t-15 -136q0 -134 55.5 -240
t156 -165.5t228.5 -59.5z" />
    <glyph glyph-name="Egrave" unicode="&#xc8;" horiz-adv-x="1228" 
d="M606 1604l-253 302l281 -1l231 -301h-259zM159 0v1455h930v-258h-646v-349h518v-254h-518v-337h689v-257h-973z" />
    <glyph glyph-name="Eacute" unicode="&#xc9;" horiz-adv-x="1228" 
d="M420 1604l232 301l281 1l-254 -302h-259zM159 0v1455h930v-258h-646v-349h518v-254h-518v-337h689v-257h-973z" />
    <glyph glyph-name="Ecircumflex" unicode="&#xca;" horiz-adv-x="1228" 
d="M632 1754l-102 -154h-245l227 306h237l239 -306h-247l-103 154h-6zM443 257h689v-257h-973v1455h930v-258h-646v-349h518v-254h-518v-337z" />
    <glyph glyph-name="Edieresis" unicode="&#xcb;" horiz-adv-x="1228" 
d="M421 1606q-70 0 -118.5 48t-48.5 116q0 67 49 115t118 48q44 0 82.5 -22t61 -59.5t22.5 -81.5q0 -68 -49 -116t-117 -48zM850 1608q-68 0 -116.5 47.5t-48.5 114.5q0 43 22 80.5t60 59.5t83 22q44 0 81.5 -22t60 -59.5t22.5 -80.5q0 -67 -48.5 -114.5t-115.5 -47.5z
M159 0v1455h930v-258h-646v-349h518v-254h-518v-337h689v-257h-973z" />
    <glyph glyph-name="Igrave" unicode="&#xcc;" horiz-adv-x="628" 
d="M187 1604l-253 302l281 -1l231 -301h-259zM169 0v1455h290v-1455h-290z" />
    <glyph glyph-name="Iacute" unicode="&#xcd;" horiz-adv-x="629" 
d="M194 1604l232 301l281 1l-254 -302h-259zM169 0v1455h290v-1455h-290z" />
    <glyph glyph-name="Icircumflex" unicode="&#xce;" horiz-adv-x="628" 
d="M307 1754l-102 -154h-245l227 306h237l239 -306h-247l-103 154h-6zM169 0v1455h290v-1455h-290z" />
    <glyph glyph-name="Idieresis" unicode="&#xcf;" horiz-adv-x="628" 
d="M96 1606q-70 0 -118.5 48t-48.5 116q0 67 49 115t118 48q44 0 82.5 -22t61 -59.5t22.5 -81.5q0 -45 -22.5 -82.5t-61 -59.5t-82.5 -22zM525 1608q-68 0 -116.5 47.5t-48.5 114.5q0 32 13 62t35 52t53 35t64 13q67 0 115.5 -48.5t48.5 -113.5q0 -67 -48.5 -114.5
t-115.5 -47.5zM169 0v1455h290v-1455h-290z" />
    <glyph glyph-name="Eth" unicode="&#xd0;" horiz-adv-x="1496" 
d="M641 1455q170 0 311.5 -54t239 -149.5t151 -231t53.5 -295.5t-51.5 -294t-147 -229.5t-236.5 -148.5t-314 -53h-487v598h-110v241h110v616h481zM629 257q139 0 246 61.5t164.5 167.5t57.5 239q0 135 -57.5 243t-160.5 168.5t-232 60.5h-203v-358h226v-241h-226v-341h185z
" />
    <glyph glyph-name="Ntilde" unicode="&#xd1;" horiz-adv-x="1546" 
d="M653 1701q-72 0 -115 -102l-160 69q33 108 96.5 173t149.5 65q39 0 75 -10t52.5 -18.5t48.5 -27.5q27 -17 38 -23t32.5 -14t40.5 -8q36 0 66 26.5t50 73.5l157 -52q-32 -118 -94.5 -187t-145.5 -69q-35 0 -70 10t-57.5 21.5t-51.5 29.5q-19 11 -29.5 16.5t-26 13
t-29 10.5t-27.5 3zM1098 1455h288v-1455h-295l-640 964h-4v-964h-287v1455h287l647 -983h4v983z" />
    <glyph glyph-name="Ograve" unicode="&#xd2;" horiz-adv-x="1682" 
d="M729 1605l-253 302l281 -1l231 -301h-259zM842 -17q-162 0 -301 56t-235.5 154.5t-151 236.5t-54.5 298t54.5 298t151 236t235.5 154t301 56q159 0 295.5 -54.5t234.5 -151t154 -235.5t56 -303t-56 -303.5t-154 -236t-234.5 -151t-295.5 -54.5zM843 251q93 0 174.5 36.5
t140 99t92 151.5t33.5 190q0 135 -57.5 244t-158 170t-224.5 61q-128 0 -230 -63.5t-157.5 -172t-55.5 -239.5q0 -132 55.5 -240.5t157.5 -172.5t230 -64z" />
    <glyph glyph-name="Oacute" unicode="&#xd3;" horiz-adv-x="1682" 
d="M723 1605l232 301l281 1l-254 -302h-259zM842 -17q-162 0 -301 56t-235.5 154.5t-151 236.5t-54.5 298t54.5 298t151 236t235.5 154t301 56q159 0 295.5 -54.5t234.5 -151t154 -235.5t56 -303t-56 -303.5t-154 -236t-234.5 -151t-295.5 -54.5zM843 251q93 0 174.5 36.5
t140 99t92 151.5t33.5 190q0 135 -57.5 244t-158 170t-224.5 61q-128 0 -230 -63.5t-157.5 -172t-55.5 -239.5q0 -132 55.5 -240.5t157.5 -172.5t230 -64z" />
    <glyph glyph-name="Ocircumflex" unicode="&#xd4;" horiz-adv-x="1682" 
d="M839 1755l-102 -154h-245l227 306h237l239 -306h-247l-103 154h-6zM842 1472q159 0 295.5 -54.5t234.5 -151t154 -235.5t56 -303t-56 -303.5t-154 -236t-234.5 -151t-295.5 -54.5q-163 0 -301.5 56t-235 154.5t-151 236.5t-54.5 298t54.5 298t151 236t235.5 154t301 56z
M843 251q93 0 174.5 36.5t140 99t92 151.5t33.5 190q0 135 -57.5 244t-158 170t-224.5 61q-128 0 -230 -63.5t-157.5 -172t-55.5 -239.5q0 -132 55.5 -240.5t157.5 -172.5t230 -64z" />
    <glyph glyph-name="Otilde" unicode="&#xd5;" horiz-adv-x="1682" 
d="M1012 1597q-50 0 -91.5 16t-87.5 45q-15 9 -23 13.5t-21.5 11.5t-23 10t-21.5 5.5t-23 2.5q-72 0 -115 -102l-160 69q33 108 96.5 173t149.5 65q39 0 75 -10t52.5 -18.5t48.5 -27.5q2 -1 6 -4q17 -10 26 -15.5t24 -12.5t28 -10t27 -3q36 0 66 26.5t50 73.5l157 -52
q-32 -118 -94.5 -187t-145.5 -69zM842 -17q-162 0 -301 56t-235.5 154t-151 236.5t-54.5 298.5t54.5 298t151 236t235.5 154t301 56q159 0 295.5 -54.5t234.5 -151t154 -235.5t56 -303t-56 -303.5t-154 -236t-234.5 -151t-295.5 -54.5zM843 251q93 0 174.5 36t140 99t92 152
t33.5 190q0 135 -57.5 244t-158 170t-224.5 61q-128 0 -230 -63.5t-157.5 -172t-55.5 -239.5q0 -132 55.5 -240.5t157.5 -172.5t230 -64z" />
    <glyph glyph-name="Odieresis" unicode="&#xd6;" horiz-adv-x="1682" 
d="M628 1607q-70 0 -118.5 48t-48.5 116q0 67 49 115t118 48q68 0 117 -48t49 -115q0 -45 -22.5 -82.5t-61 -59.5t-82.5 -22zM1057 1609q-45 0 -83 22t-60 59t-22 81q0 66 48.5 114t116.5 48q44 0 82 -22t60 -59.5t22 -80.5q0 -67 -48.5 -114.5t-115.5 -47.5zM842 -17
q-162 0 -301 56t-235.5 154t-151 236.5t-54.5 298.5t54.5 298t151 236t235.5 154t301 56q159 0 295.5 -54.5t234.5 -151t154 -235.5t56 -303t-56 -303.5t-154 -236t-234.5 -151t-295.5 -54.5zM843 251q93 0 174.5 36t140 99t92 152t33.5 190q0 135 -57.5 244t-158 170
t-224.5 61q-128 0 -230 -63.5t-157.5 -172t-55.5 -239.5q0 -132 55.5 -240.5t157.5 -172.5t230 -64z" />
    <glyph glyph-name="multiply" unicode="&#xd7;" horiz-adv-x="1080" 
d="M260 124l-164 165l280 280l-280 279l164 163l278 -279l281 281l165 -165l-281 -282l280 -280l-163 -162l-280 279z" />
    <glyph glyph-name="Oslash" unicode="&#xd8;" horiz-adv-x="1682" 
d="M1593 1387l-166 -182q155 -196 155 -477q0 -164 -56 -303.5t-154 -236t-234.5 -151t-295.5 -54.5q-242 0 -426 120l-160 -175l-138 129l157 170q-84 99 -129.5 226.5t-45.5 274.5q0 160 54.5 298t151 236t235.5 154t301 56q261 0 450 -138l164 178zM400 728
q0 -157 78 -279l619 673q-113 81 -254 81q-128 0 -230 -63.5t-157.5 -172t-55.5 -239.5zM1283 728q0 139 -62 253l-610 -665q105 -65 232 -65q124 0 224.5 61.5t158 171t57.5 244.5z" />
    <glyph glyph-name="Ugrave" unicode="&#xd9;" horiz-adv-x="1461" 
d="M637 1605l-253 302l281 -1l231 -301h-259zM728 -17q-131 0 -239.5 41.5t-185.5 119t-119.5 194.5t-42.5 264v853h289v-834q0 -106 34 -188.5t102.5 -131t161.5 -48.5q135 0 219 98.5t84 269.5v834h288v-853q0 -189 -69.5 -328t-203 -215t-318.5 -76z" />
    <glyph glyph-name="Uacute" unicode="&#xda;" horiz-adv-x="1461" 
d="M567 1605l232 301l281 1l-254 -302h-259zM728 -17q-131 0 -239.5 41.5t-185.5 119t-119.5 194.5t-42.5 264v853h289v-834q0 -106 34 -188.5t102.5 -131t161.5 -48.5q135 0 219 98.5t84 269.5v834h288v-853q0 -189 -69.5 -328t-203 -215t-318.5 -76z" />
    <glyph glyph-name="Ucircumflex" unicode="&#xdb;" horiz-adv-x="1461" 
d="M725 1755l-102 -154h-245l227 306h237l239 -306h-247l-103 154h-6zM1031 1455h288v-853q0 -189 -69.5 -328t-203 -215t-318.5 -76q-131 0 -239.5 41.5t-185.5 119t-119.5 194.5t-42.5 264v853h289v-834q0 -106 34 -188.5t102.5 -131t161.5 -48.5q135 0 219 98.5t84 269.5
v834z" />
    <glyph glyph-name="Udieresis" unicode="&#xdc;" horiz-adv-x="1461" 
d="M514 1607q-70 0 -118.5 48t-48.5 116q0 67 49 115t118 48q68 0 117 -48t49 -115q0 -68 -49 -116t-117 -48zM943 1609q-45 0 -83 22t-60 59t-22 81q0 43 22 80.5t60 59.5t83 22q44 0 81.5 -22t60 -59.5t22.5 -80.5q0 -67 -48.5 -114.5t-115.5 -47.5zM728 -17
q-131 0 -239.5 41.5t-185.5 119t-119.5 194.5t-42.5 264v853h289v-834q0 -106 34 -188.5t102.5 -131t161.5 -48.5q135 0 219 98.5t84 269.5v834h288v-853q0 -189 -69.5 -328t-203 -215t-318.5 -76z" />
    <glyph glyph-name="Yacute" unicode="&#xdd;" horiz-adv-x="1295" 
d="M1009 1907l-254 -302h-259l232 301zM942 1455h333l-484 -816v-639h-291v639l-481 816h330l296 -531h4z" />
    <glyph glyph-name="Thorn" unicode="&#xde;" horiz-adv-x="1323" 
d="M160 0v1455h284v-258h297q129 0 227 -36t158 -102t90 -153t30 -194q0 -153 -67 -259.5t-185.5 -157t-280.5 -50.5h-269v-245h-284zM444 500h232q132 0 201.5 59.5t69.5 159.5q0 103 -67 162.5t-192 59.5h-244v-441z" />
    <glyph glyph-name="germandbls" unicode="&#xdf;" horiz-adv-x="1306" 
d="M994 864q114 -56 179 -165.5t65 -244.5q0 -216 -125.5 -343.5t-334.5 -127.5h-197v238h132q109 0 180 69t71 174q0 52 -19 98t-53.5 80.5t-87 55t-114.5 20.5h-82v216h69q50 0 88.5 13.5t61 33.5t36.5 46t19 48.5t5 44.5q0 70 -57.5 119.5t-162.5 49.5
q-127 0 -194.5 -66.5t-67.5 -217.5v-1005h-268v993q0 178 62.5 297.5t178 177t282.5 57.5q119 0 213.5 -30.5t154 -83t91 -120t31.5 -145.5q0 -29 -4.5 -57t-15.5 -59t-28.5 -59t-45 -55.5t-62.5 -48.5v-3z" />
    <glyph glyph-name="agrave" unicode="&#xe0;" horiz-adv-x="1244" 
d="M794 1139h-259l-253 302l281 -1zM849 1000h268v-1000h-255v121h-5q-107 -138 -299 -138q-82 0 -156 23.5t-132.5 68.5t-101.5 107.5t-66 143t-23 171.5q0 112 36 209t98.5 165t150 107t186.5 39q183 0 295 -130h4v113zM607 223q107 0 180 76t73 197q0 120 -71.5 200
t-180.5 80q-72 0 -130 -34t-92.5 -98t-34.5 -148q0 -121 71.5 -197t184.5 -76z" />
    <glyph glyph-name="aacute" unicode="&#xe1;" horiz-adv-x="1244" 
d="M969 1441l-254 -302h-259l232 301zM849 1000h268v-1000h-255v121h-5q-107 -138 -299 -138q-82 0 -156 23.5t-132.5 68.5t-101.5 107.5t-66 143t-23 171.5q0 112 36 209t98.5 165t150 107t186.5 39q183 0 295 -130h4v113zM607 223q107 0 180 76t73 197q0 120 -71.5 200
t-180.5 80q-72 0 -130 -34t-92.5 -98t-34.5 -148q0 -121 71.5 -197t184.5 -76z" />
    <glyph glyph-name="acircumflex" unicode="&#xe2;" horiz-adv-x="1244" 
d="M613 1289l-102 -154h-245l227 306h237l239 -306h-247l-103 154h-6zM849 1000h268v-1000h-255v121h-5q-107 -138 -299 -138q-82 0 -156 23.5t-132.5 68.5t-101.5 107.5t-66 143t-23 171.5q0 112 36 209t98.5 165t150 107t186.5 39q183 0 295 -130h4v113zM607 223
q107 0 180 76t73 197q0 120 -71.5 200t-180.5 80q-72 0 -130 -34t-92.5 -98t-34.5 -148q0 -121 71.5 -197t184.5 -76z" />
    <glyph glyph-name="atilde" unicode="&#xe3;" horiz-adv-x="1244" 
d="M495 1235q-72 0 -115 -102l-160 69q33 108 96.5 173t149.5 65q39 0 75 -10t52.5 -18.5t48.5 -27.5q27 -17 38 -23t32.5 -14t40.5 -8q36 0 66 26.5t50 73.5l157 -52q-21 -77 -55 -134t-81.5 -89.5t-103.5 -32.5q-50 0 -91.5 16t-87.5 45q-25 15 -38.5 22t-34.5 14t-39 7z
M849 1000h268v-1000h-255v121h-5q-107 -138 -299 -138q-82 0 -156 23.5t-132.5 68.5t-101.5 107.5t-66 143t-23 171.5q0 112 36 209t98.5 165t150 107t186.5 39q183 0 295 -130h4v113zM607 223q107 0 180 76t73 197q0 59 -19 111t-52.5 89t-80 58.5t-100.5 21.5
q-110 0 -183.5 -77t-73.5 -203q0 -121 71.5 -197t184.5 -76z" />
    <glyph glyph-name="adieresis" unicode="&#xe4;" horiz-adv-x="1244" 
d="M402 1141q-70 0 -118.5 48t-48.5 116q0 67 49 115t118 48q68 0 117 -48t49 -115q0 -68 -49 -116t-117 -48zM831 1143q-68 0 -116.5 47.5t-48.5 114.5q0 66 48.5 114t116.5 48q67 0 115.5 -48.5t48.5 -113.5q0 -67 -48.5 -114.5t-115.5 -47.5zM849 1000h268v-1000h-255
v121h-5q-107 -138 -299 -138q-103 0 -191.5 37t-152 103.5t-99.5 163t-36 210.5q0 112 36 209t98.5 165t150 107t186.5 39q183 0 295 -130h4v113zM607 223q107 0 180 76t73 197q0 120 -71.5 200t-180.5 80q-110 0 -183.5 -77t-73.5 -203q0 -121 71.5 -197t184.5 -76z" />
    <glyph glyph-name="aring" unicode="&#xe5;" horiz-adv-x="1244" 
d="M617 1092q-60 0 -110 27.5t-80 76.5t-30 110q0 58 27.5 107t78.5 78t114 29q46 0 86.5 -16t70.5 -44t47.5 -68t17.5 -86q0 -58 -27.5 -107t-79 -78t-115.5 -29zM617 1385q-32 0 -54.5 -23t-22.5 -54q0 -32 22.5 -54t54.5 -22t54.5 22.5t22.5 54.5q0 9 -2 17.5t-6 15.5
t-9 14t-11.5 12t-14.5 9t-16.5 6t-17.5 2zM849 1000h268v-1000h-255v121h-5q-107 -138 -299 -138q-82 0 -156 23.5t-132.5 68.5t-101.5 107.5t-66 143t-23 171.5q0 112 36 209t98.5 165t150 107t186.5 39q183 0 295 -130h4v113zM607 223q107 0 180 76t73 197q0 59 -19 111
t-52.5 89t-80 58.5t-100.5 21.5q-110 0 -183.5 -77t-73.5 -203q0 -121 71.5 -197t184.5 -76z" />
    <glyph glyph-name="ae" unicode="&#xe6;" horiz-adv-x="1624" 
d="M1569 509q0 -23 -3 -56t-5 -40l-655 -2q22 -88 84.5 -139t153.5 -51q40 0 79 15.5t67.5 38.5t53.5 53l185 -156q-68 -85 -172 -137t-229 -52q-103 0 -189.5 38.5t-146.5 107.5h-5q-56 -64 -148 -105t-207 -41q-94 0 -165.5 23.5t-116 65.5t-66.5 97t-22 122
q0 148 100.5 231t300.5 84h179v15q0 94 -36 131.5t-110 37.5q-130 0 -257 -66l-107 199q57 32 161.5 63t219.5 31q68 0 120.5 -12.5t97 -43.5t74.5 -80h5q122 136 317 136q127 0 228 -65.5t157.5 -181.5t56.5 -261zM1115 781q-76 0 -131 -46t-77 -129h397q-21 81 -70.5 128
t-118.5 47zM461 195q75 0 128 48.5t53 98.5v77l-151 -1q-81 -1 -124.5 -28.5t-43.5 -82.5q0 -50 36 -81t102 -31z" />
    <glyph glyph-name="ccedilla" unicode="&#xe7;" horiz-adv-x="1088" 
d="M627 -16l-23 -45l2 -3q91 -4 139.5 -46t48.5 -119q0 -74 -61.5 -118t-189.5 -44q-63 0 -125 12v120q40 -14 105 -14q40 0 69 14t29 44q0 29 -44.5 47.5t-123.5 18.5v76l31 63v3q-119 23 -210 91.5t-142 176t-51 238.5q0 152 67 270t187 183t273 65q123 0 237 -49.5
t188 -142.5l-181 -156q-92 107 -233 107q-119 0 -192.5 -76.5t-73.5 -198.5q0 -123 74.5 -200t193.5 -77q74 0 133.5 28.5t98.5 72.5l184 -162q-64 -75 -170.5 -124t-239.5 -55z" />
    <glyph glyph-name="egrave" unicode="&#xe8;" horiz-adv-x="1146" 
d="M772 1139h-259l-253 302l281 -1zM1068 509q0 -71 -7 -96h-701q24 -89 91.5 -140t163.5 -52q145 -1 239 113l174 -162q-68 -86 -178 -137.5t-254 -51.5q-146 0 -263 63.5t-184.5 182.5t-67.5 272q0 112 38 208.5t103.5 164t157.5 105.5t197 38q145 0 257 -65.5t173 -181
t61 -261.5zM586 781q-83 0 -142.5 -45t-82.5 -130h441q-21 82 -76 128.5t-140 46.5z" />
    <glyph glyph-name="eacute" unicode="&#xe9;" horiz-adv-x="1146" 
d="M967 1441l-254 -302h-259l232 301zM1068 509q0 -71 -7 -96h-701q24 -89 91.5 -140t163.5 -52q145 -1 239 113l174 -162q-68 -86 -178 -137.5t-254 -51.5q-146 0 -263 63.5t-184.5 182.5t-67.5 272q0 112 38 208.5t103.5 164t157.5 105.5t197 38q145 0 257 -65.5t173 -181
t61 -261.5zM586 781q-83 0 -142.5 -45t-82.5 -130h441q-21 82 -76 128.5t-140 46.5z" />
    <glyph glyph-name="ecircumflex" unicode="&#xea;" horiz-adv-x="1146" 
d="M586 1289l-102 -154h-245l227 306h237l239 -306h-247l-103 154h-6zM1068 509q0 -71 -7 -96h-701q24 -89 91.5 -140t163.5 -52q145 -1 239 113l174 -162q-68 -86 -178 -137.5t-254 -51.5q-146 0 -263 63.5t-184.5 182.5t-67.5 272q0 112 37.5 208.5t103.5 164t158 105.5
t197 38q145 0 257 -65.5t173 -181t61 -261.5zM586 781q-83 0 -142.5 -45t-82.5 -130h441q-21 82 -76 128.5t-140 46.5z" />
    <glyph glyph-name="edieresis" unicode="&#xeb;" horiz-adv-x="1146" 
d="M375 1141q-70 0 -118.5 48t-48.5 116q0 67 49 115t118 48q68 0 117 -48t49 -115q0 -68 -49 -116t-117 -48zM804 1143q-68 0 -116.5 47.5t-48.5 114.5q0 26 8.5 50.5t23.5 44.5t35.5 35t45.5 23.5t52 8.5q44 0 81.5 -22t60 -59.5t22.5 -80.5q0 -44 -22.5 -81.5t-60 -59
t-81.5 -21.5zM1068 509q0 -71 -7 -96h-701q24 -89 91.5 -140t163.5 -52q145 -1 239 113l174 -162q-68 -86 -178 -137.5t-254 -51.5q-146 0 -263 63.5t-184.5 182.5t-67.5 272q0 112 38 208.5t103.5 164t157.5 105.5t197 38q145 0 257 -65.5t173 -181t61 -261.5zM586 781
q-83 0 -142.5 -45t-82.5 -130h441q-21 82 -76 128.5t-140 46.5z" />
    <glyph glyph-name="igrave" unicode="&#xec;" horiz-adv-x="564" 
d="M152 1139l-177 302l281 -1l154 -301h-258zM148 0v1000h268v-1000h-268z" />
    <glyph glyph-name="iacute" unicode="&#xed;" horiz-adv-x="565" 
d="M160 1139l232 301l281 1l-254 -302h-259zM148 0v1000h268v-1000h-268z" />
    <glyph glyph-name="icircumflex" unicode="&#xee;" horiz-adv-x="564" 
d="M277 1289l-102 -154h-245l227 306h237l239 -306h-247l-103 154h-6zM148 0v1000h268v-1000h-268z" />
    <glyph glyph-name="idieresis" unicode="&#xef;" horiz-adv-x="564" 
d="M93 1141q-66 0 -114 48t-48 116q0 67 48 115t114 48q68 0 117 -48t49 -115q0 -45 -22.5 -82.5t-61 -59.5t-82.5 -22zM469 1143q-68 0 -116.5 47.5t-48.5 114.5q0 32 13 62t35 52t53 35t64 13q63 0 110.5 -48.5t47.5 -113.5q0 -66 -47.5 -114t-110.5 -48zM148 0v1000h268
v-1000h-268z" />
    <glyph glyph-name="eth" unicode="&#xf0;" horiz-adv-x="1213" 
d="M1130 522v-3q0 -157 -67 -279t-188.5 -189.5t-276.5 -67.5q-144 0 -262 63t-186 174.5t-68 248.5q0 111 37.5 203t102 154t152 96t186.5 34q97 0 205 -44l1 3q-85 146 -217 249l-136 -105l-114 131l94 74q-73 39 -155 66l116 188q126 -43 232 -102l141 111l115 -138
l-100 -77q185 -144 286.5 -345t101.5 -445zM605 223q109 0 180.5 75.5t71.5 189.5q0 108 -72 179t-183 71q-105 0 -176.5 -73.5t-71.5 -176.5q0 -114 71.5 -189.5t179.5 -75.5z" />
    <glyph glyph-name="ntilde" unicode="&#xf1;" horiz-adv-x="1212" 
d="M492 1235q-72 0 -115 -102l-160 69q33 108 96.5 173t149.5 65q20 0 38.5 -2t35.5 -7t28.5 -9t28 -12.5t22.5 -12t23 -13.5q27 -17 38 -23t32.5 -14t40.5 -8q24 0 46 12.5t39.5 34.5t30.5 53l157 -52q-21 -77 -55 -134t-81.5 -89.5t-103.5 -32.5q-50 0 -91.5 16t-87.5 45
q-25 15 -38.5 22t-34.5 14t-39 7zM728 1017q83 0 147.5 -23.5t114 -72.5t75.5 -132t26 -196v-594h-268v527q0 138 -47 194t-145 56q-104 0 -165.5 -71t-61.5 -202v-503h-268v1000h268v-129h3q61 71 144.5 108.5t176.5 37.5z" />
    <glyph glyph-name="ograve" unicode="&#xf2;" horiz-adv-x="1225" 
d="M516 1139l-253 302l281 -1l231 -301h-259zM613 -17q-94 0 -177 25t-147.5 71t-111.5 109.5t-71.5 142.5t-24.5 168q0 111 38.5 207t107.5 164.5t169 107.5t217 39q115 0 214 -38t169 -105.5t109.5 -164t39.5 -210.5q0 -151 -68 -269t-189 -182.5t-275 -64.5zM613 223
q110 0 185 78t75 198q0 122 -74 199.5t-186 77.5q-116 0 -188.5 -78.5t-72.5 -198.5q0 -117 73.5 -196.5t187.5 -79.5z" />
    <glyph glyph-name="oacute" unicode="&#xf3;" horiz-adv-x="1225" 
d="M481 1139l232 301l281 1l-254 -302h-259zM613 -17q-94 0 -177 25t-147.5 71t-111.5 109.5t-71.5 142.5t-24.5 168q0 111 38.5 207t107.5 164.5t169 107.5t217 39q115 0 214 -38t169 -105.5t109.5 -164t39.5 -210.5q0 -151 -68 -269t-189 -182.5t-275 -64.5zM613 223
q110 0 185 78t75 198q0 122 -74 199.5t-186 77.5q-33 0 -63.5 -7t-56.5 -20.5t-48 -32t-39 -42t-29.5 -51t-18.5 -59t-6 -65.5q0 -117 73.5 -196.5t187.5 -79.5z" />
    <glyph glyph-name="ocircumflex" unicode="&#xf4;" horiz-adv-x="1225" 
d="M609 1289l-102 -154h-245l227 306h237l239 -306h-247l-103 154h-6zM613 1017q154 0 275 -65t189 -183.5t68 -269.5t-68 -269t-189 -182.5t-275 -64.5q-78 0 -149.5 17.5t-130 50t-106 79t-79.5 103.5t-49.5 124.5t-17.5 141.5q0 111 38.5 207t107.5 164.5t169 107.5
t217 39zM613 223q110 0 185 78t75 198q0 122 -74 199.5t-186 77.5q-77 0 -136.5 -36t-92 -99t-32.5 -142q0 -117 73.5 -196.5t187.5 -79.5z" />
    <glyph glyph-name="otilde" unicode="&#xf5;" horiz-adv-x="1225" 
d="M782 1131q-50 0 -91.5 16t-87.5 45q-25 15 -38.5 22t-34.5 14t-39 7q-72 0 -115 -102l-160 69q33 108 96.5 173t149.5 65q39 0 75 -10t52.5 -18.5t48.5 -27.5q27 -17 38 -23t32.5 -14t40.5 -8q24 0 46 12.5t39.5 34.5t30.5 53l157 -52q-32 -118 -94.5 -187t-145.5 -69z
M613 -17q-94 0 -177 25t-147.5 71t-111.5 109.5t-71.5 142.5t-24.5 168q0 111 38.5 207t107.5 164.5t169 107.5t217 39q115 0 214 -38t169 -105.5t109.5 -164t39.5 -210.5q0 -151 -68 -269t-189 -182.5t-275 -64.5zM613 223q110 0 185 78t75 198q0 122 -74 199.5t-186 77.5
q-116 0 -188.5 -78.5t-72.5 -198.5q0 -117 73.5 -196.5t187.5 -79.5z" />
    <glyph glyph-name="odieresis" unicode="&#xf6;" horiz-adv-x="1225" 
d="M398 1141q-70 0 -118.5 48t-48.5 116q0 67 49 115t118 48q68 0 117 -48t49 -115q0 -68 -49 -116t-117 -48zM827 1143q-45 0 -83 22t-60 59t-22 81q0 66 48.5 114t116.5 48q44 0 81.5 -22t60 -59.5t22.5 -80.5q0 -44 -22.5 -81.5t-60 -59t-81.5 -21.5zM613 -17
q-94 0 -177 25t-147.5 71t-111.5 109.5t-71.5 142.5t-24.5 168q0 111 38.5 207t107.5 164.5t169 107.5t217 39q115 0 214 -38t169 -105.5t109.5 -164t39.5 -210.5q0 -151 -68 -269t-189 -182.5t-275 -64.5zM613 223q110 0 185 78t75 198q0 122 -74 199.5t-186 77.5
q-116 0 -188.5 -78.5t-72.5 -198.5q0 -117 73.5 -196.5t187.5 -79.5z" />
    <glyph glyph-name="divide" unicode="&#xf7;" horiz-adv-x="1170" 
d="M587 811q-67 0 -114 46.5t-47 112.5q0 65 47 111.5t114 46.5q66 0 113.5 -46.5t47.5 -111.5q0 -66 -47.5 -112.5t-113.5 -46.5zM111 450v234h972v-234h-972zM587 -7q-44 0 -81 21t-58.5 58t-21.5 80q0 65 47 111.5t114 46.5q66 0 113.5 -46.5t47.5 -111.5
q0 -66 -47.5 -112.5t-113.5 -46.5z" />
    <glyph glyph-name="oslash" unicode="&#xf8;" horiz-adv-x="1225" 
d="M1147 944l-109 -118q107 -135 107 -327q0 -151 -68 -269t-189 -182.5t-275 -64.5q-164 0 -290 73l-105 -113l-118 110l99 107q-118 140 -118 339q0 111 38.5 207t107.5 164.5t169 107.5t217 39q174 0 306 -84l111 120zM352 499q0 -76 33 -139l357 383q-60 33 -129 33
q-116 0 -188.5 -78.5t-72.5 -198.5zM873 499q0 65 -24 124l-348 -375q52 -25 112 -25q110 0 185 78t75 198z" />
    <glyph glyph-name="ugrave" unicode="&#xf9;" horiz-adv-x="1182" 
d="M764 1139h-259l-253 302l281 -1zM787 1000h268v-1000h-268v122h-4q-58 -68 -134.5 -103.5t-162.5 -35.5q-84 0 -149.5 22.5t-115.5 70.5t-76.5 129t-26.5 193v602h268v-532q0 -135 41.5 -189.5t137.5 -54.5q94 0 158 76t64 215v485z" />
    <glyph glyph-name="uacute" unicode="&#xfa;" horiz-adv-x="1182" 
d="M965 1441l-254 -302h-259l232 301zM787 1000h268v-1000h-268v122h-4q-58 -68 -134.5 -103.5t-162.5 -35.5q-84 0 -149 22.5t-115.5 70.5t-77 129t-26.5 193v602h268v-532q0 -135 41.5 -189.5t137.5 -54.5q94 0 158 76t64 215v485z" />
    <glyph glyph-name="ucircumflex" unicode="&#xfb;" horiz-adv-x="1182" 
d="M585 1289l-102 -154h-245l227 306h237l239 -306h-247l-103 154h-6zM787 1000h268v-1000h-268v122h-4q-58 -68 -134.5 -103.5t-162.5 -35.5q-84 0 -149.5 22.5t-115.5 70.5t-76.5 129t-26.5 193v602h268v-532q0 -135 41.5 -189.5t137.5 -54.5q94 0 158 76t64 215v485z" />
    <glyph glyph-name="udieresis" unicode="&#xfc;" horiz-adv-x="1182" 
d="M374 1141q-46 0 -84.5 22t-60.5 59.5t-22 82.5q0 67 49 115t118 48q68 0 117 -48t49 -115q0 -68 -49 -116t-117 -48zM803 1143q-68 0 -116.5 47.5t-48.5 114.5q0 26 8.5 50.5t23.5 44.5t35.5 35t45.5 23.5t52 8.5q67 0 115.5 -48.5t48.5 -113.5q0 -33 -13 -63
t-35.5 -51.5t-52.5 -34.5t-63 -13zM787 1000h268v-1000h-268v122h-4q-58 -68 -134.5 -103.5t-162.5 -35.5q-84 0 -149 22.5t-115.5 70.5t-77 129t-26.5 193v602h268v-532q0 -135 41.5 -189.5t137.5 -54.5q94 0 158 76t64 215v485z" />
    <glyph glyph-name="yacute" unicode="&#xfd;" horiz-adv-x="1104" 
d="M906 1441l-254 -302h-259l232 301zM791 1000h278l-539 -1405h-274l178 467l-400 938h280l245 -619h3z" />
    <glyph glyph-name="thorn" unicode="&#xfe;" horiz-adv-x="1264" 
d="M711 1017q99 0 186.5 -39t150 -107t98.5 -165t36 -209q0 -114 -36 -210.5t-99.5 -163t-152 -103.5t-191.5 -37q-188 0 -295 129h-4v-517h-268v1913h268v-623h4q112 132 303 132zM654 223q113 0 184.5 76t71.5 197q0 126 -73 203t-183 77q-76 0 -135.5 -36.5t-92.5 -100.5
t-33 -143q0 -80 34.5 -143t94 -96.5t132.5 -33.5z" />
    <glyph glyph-name="ydieresis" unicode="&#xff;" horiz-adv-x="1104" 
d="M339 1141q-46 0 -84.5 22t-60.5 59.5t-22 82.5q0 67 49 115t118 48q68 0 117 -48t49 -115q0 -68 -49 -116t-117 -48zM768 1143q-68 0 -116.5 47.5t-48.5 114.5q0 66 48.5 114t116.5 48q44 0 81.5 -22t60 -59.5t22.5 -80.5q0 -67 -48.5 -114.5t-115.5 -47.5zM791 1000h278
l-539 -1405h-274l178 467l-400 938h280l245 -619h3z" />
    <glyph glyph-name="Amacron" unicode="&#x100;" horiz-adv-x="1430" 
d="M1028 1874v-214h-623v214h623zM1095 0l-99 291h-558l-99 -291h-301l539 1455h278l541 -1455h-301zM521 537h391l-195 571h-2z" />
    <glyph glyph-name="amacron" unicode="&#x101;" horiz-adv-x="1244" 
d="M930 1408v-214h-623v214h623zM849 1000h268v-1000h-255v121h-5q-107 -138 -299 -138q-103 0 -191.5 37t-152 103.5t-99.5 163t-36 210.5q0 112 36 209t98.5 165t150 107t186.5 39q183 0 295 -130h4v113zM607 223q107 0 180 76t73 197q0 120 -71.5 200t-180.5 80
q-110 0 -183.5 -77t-73.5 -203q0 -121 71.5 -197t184.5 -76z" />
    <glyph glyph-name="Abreve" unicode="&#x102;" horiz-adv-x="1430" 
d="M716 1594q-87 0 -159 35t-120 106t-55 167h202q2 -27 11.5 -50.5t26 -41t41 -27.5t53.5 -10q55 0 91.5 35t39.5 94h203q-11 -135 -101 -221.5t-233 -86.5zM1095 0l-99 291h-558l-99 -291h-301l539 1455h278l541 -1455h-301zM521 537h391l-195 571h-2z" />
    <glyph glyph-name="abreve" unicode="&#x103;" horiz-adv-x="1244" 
d="M618 1128q-87 0 -159 35t-120 106t-55 167h202q4 -56 39 -92.5t93 -36.5q55 0 91.5 35t39.5 94h203q-11 -135 -101 -221.5t-233 -86.5zM849 1000h268v-1000h-255v121h-5q-107 -138 -299 -138q-103 0 -191.5 37t-152 103.5t-99.5 163t-36 210.5q0 112 36 209t98.5 165
t150 107t186.5 39q183 0 295 -130h4v113zM607 223q107 0 180 76t73 197q0 59 -19 111t-52.5 89t-80.5 58.5t-100 21.5q-110 0 -183.5 -77t-73.5 -203q0 -121 71.5 -197t184.5 -76z" />
    <glyph glyph-name="Aogonek" unicode="&#x104;" horiz-adv-x="1430" 
d="M1254 -231q9 0 17 0.5t14 0.5t11.5 1t9 2t8.5 2.5t7 2t7 2.5t7 3l13 -145q-56 -25 -149 -25q-107 0 -169.5 51.5t-62.5 135.5q0 51 33 106.5t94 96.5l-98 288h-558l-99 -291h-301l539 1455h278l541 -1455h-59q-50 -9 -89 -32.5t-58.5 -54t-19.5 -61.5q0 -26 9.5 -44.5
t28.5 -28.5t46 -10zM521 537h391l-195 571h-2z" />
    <glyph glyph-name="aogonek" unicode="&#x105;" horiz-adv-x="1244" 
d="M1089 0q-75 -13 -121 -56t-46 -92q0 -26 9.5 -44.5t28.5 -28.5t46 -10q11 0 19.5 0.5t15.5 1t11.5 1t10.5 2.5l8 2q1 1 7.5 3.5t8.5 3.5l13 -145q-56 -25 -149 -25q-107 0 -169.5 51.5t-62.5 135.5q0 54 37 113t106 100v108h-5q-107 -138 -299 -138q-103 0 -191.5 37
t-152 103.5t-99.5 163t-36 210.5q0 112 36 209t98.5 165t150 107t186.5 39q183 0 295 -130h4v113h268v-1000h-28zM607 223q107 0 180 76t73 197q0 120 -71.5 200t-180.5 80q-72 0 -130 -34t-92.5 -98t-34.5 -148q0 -121 71.5 -197t184.5 -76z" />
    <glyph glyph-name="Cacute" unicode="&#x106;" horiz-adv-x="1486" 
d="M696 1605l232 301l281 1l-254 -302h-259zM842 -15q-120 0 -230 30t-203 92t-161.5 148.5t-107.5 206.5t-39 261q0 125 31 237.5t93.5 205.5t150 161.5t207 106.5t259.5 38q103 0 203 -28t199.5 -92t176.5 -159l-211 -180q-68 82 -164 133.5t-204 51.5q-54 0 -104 -11
t-94 -32.5t-81.5 -52t-67 -70.5t-50.5 -87.5t-32 -103.5t-11 -118q0 -134 55.5 -240t156 -165.5t228.5 -59.5q109 0 205 50t163 134l211 -181q-100 -125 -248 -200.5t-331 -75.5z" />
    <glyph glyph-name="cacute" unicode="&#x107;" horiz-adv-x="1088" 
d="M457 1139l232 301l281 1l-254 -302h-259zM595 -17q-147 0 -264 64.5t-183.5 182.5t-66.5 269q0 152 67 270t187 183t273 65q123 0 237 -49.5t188 -142.5l-181 -156q-92 107 -233 107q-119 0 -192.5 -76.5t-73.5 -198.5q0 -123 74.5 -200t193.5 -77q74 0 133.5 28.5
t98.5 72.5l184 -162q-69 -80 -183.5 -130t-258.5 -50z" />
    <glyph glyph-name="Ccircumflex" unicode="&#x108;" horiz-adv-x="1486" 
d="M834 1755l-102 -154h-245l227 306h237l239 -306h-247l-103 154h-6zM842 258q73 0 143 24t125.5 64.5t99.5 95.5l211 -181q-100 -125 -248 -200.5t-331 -75.5q-120 0 -230 30t-203 91.5t-161.5 148.5t-107.5 207t-39 261q0 125 31 237.5t93.5 205.5t150 161.5t207 106.5
t259.5 38q103 0 203 -28t199.5 -92t176.5 -159l-211 -180q-68 82 -164 133.5t-204 51.5q-63 0 -120.5 -15t-106 -43.5t-88.5 -70t-67.5 -94t-42.5 -116.5t-15 -136q0 -134 55.5 -240t156 -165.5t228.5 -59.5z" />
    <glyph glyph-name="ccircumflex" unicode="&#x109;" horiz-adv-x="1088" 
d="M603 1289l-102 -154h-245l227 306h237l239 -306h-247l-103 154h-6zM853 325l184 -162q-69 -80 -183.5 -130t-258.5 -50q-147 0 -264 64.5t-183.5 182.5t-66.5 269q0 152 66.5 270t187 183t273.5 65q123 0 237 -49.5t188 -142.5l-181 -156q-92 107 -233 107
q-59 0 -109 -20.5t-84.5 -56.5t-53.5 -87t-19 -111q0 -123 74.5 -200t193.5 -77q74 0 133.5 28.5t98.5 72.5z" />
    <glyph glyph-name="Cdotaccent" unicode="&#x10a;" horiz-adv-x="1486" 
d="M839 1607q-45 0 -83.5 22t-60.5 59.5t-22 82.5q0 67 48.5 115t117.5 48q68 0 117 -48t49 -115q0 -68 -49 -116t-117 -48zM842 -15q-120 0 -230 30t-203 92t-161.5 148.5t-107.5 206.5t-39 261q0 125 31 237.5t93.5 205.5t150 161.5t207 106.5t259.5 38q103 0 203 -28
t199.5 -92t176.5 -159l-211 -180q-68 82 -164.5 133.5t-203.5 51.5q-63 0 -120.5 -15t-106 -43.5t-88.5 -70t-67.5 -93.5t-42.5 -116.5t-15 -136.5q0 -134 55.5 -240t156 -165.5t228.5 -59.5q109 0 205 50t163 134l211 -181q-100 -125 -248 -200.5t-331 -75.5z" />
    <glyph glyph-name="cdotaccent" unicode="&#x10b;" horiz-adv-x="1088" 
d="M608 1141q-45 0 -83.5 22t-60.5 59.5t-22 82.5q0 67 48.5 115t117.5 48q68 0 117 -48t49 -115q0 -68 -49 -116t-117 -48zM595 -17q-147 0 -264 64.5t-183.5 182.5t-66.5 269q0 152 67 270t187 183t273 65q123 0 237 -49.5t188 -142.5l-181 -156q-92 107 -233 107
q-59 0 -109 -20.5t-84.5 -56.5t-53.5 -87t-19 -111q0 -123 74.5 -200t193.5 -77q74 0 133.5 28.5t98.5 72.5l184 -162q-69 -80 -183.5 -130t-258.5 -50z" />
    <glyph glyph-name="Ccaron" unicode="&#x10c;" horiz-adv-x="1486" 
d="M956 1601h-237l-232 306h246l102 -154h6l103 154h246zM842 258q109 0 205 50t163 134l211 -181q-100 -125 -248 -200.5t-331 -75.5q-120 0 -230 30t-203 91.5t-161.5 148.5t-107.5 207t-39 261q0 125 31 237.5t93.5 205.5t150 161.5t207 106.5t259.5 38q103 0 203 -28
t199.5 -92t176.5 -159l-211 -180q-68 82 -164 133.5t-204 51.5q-63 0 -120.5 -15t-106 -43.5t-88.5 -70t-67.5 -94t-42.5 -116.5t-15 -136q0 -134 55.5 -240t156 -165.5t228.5 -59.5z" />
    <glyph glyph-name="ccaron" unicode="&#x10d;" horiz-adv-x="1088" 
d="M725 1135h-237l-232 306h246l102 -154h6l103 154h246zM853 325l184 -162q-69 -80 -183.5 -130t-258.5 -50q-147 0 -264 64.5t-183.5 182.5t-66.5 269q0 152 67 270t187 183t273 65q123 0 237 -49.5t188 -142.5l-181 -156q-92 107 -233 107q-59 0 -109 -20.5t-84.5 -56.5
t-53.5 -87t-19 -111q0 -123 74.5 -200t193.5 -77q74 0 133.5 28.5t98.5 72.5z" />
    <glyph glyph-name="Dcaron" unicode="&#x10e;" horiz-adv-x="1496" 
d="M851 1600h-237l-232 306h246l102 -154h6l103 154h246zM641 1455q170 0 311.5 -54t239 -149.5t151 -231t53.5 -295.5t-51.5 -294t-147 -229.5t-236.5 -148.5t-314 -53h-487v1455h481zM629 257q104 0 192 36t148.5 98.5t94 148.5t33.5 185q0 135 -57.5 243t-160.5 168.5
t-232 60.5h-203v-940h185z" />
    <glyph glyph-name="dcaron" unicode="&#x10f;" horiz-adv-x="1369" 
d="M1305 1611h256l-131 -423h-189zM858 887v621h268v-1508h-255v121h-6q-109 -138 -306 -138q-82 0 -156 23.5t-132.5 68.5t-101.5 107.5t-66 143t-23 171.5q0 112 36 209t98.5 165t150 107t186.5 39q189 0 302 -130h5zM608 223q112 0 188 76t76 197t-74.5 200.5
t-188.5 79.5q-110 0 -183.5 -77t-73.5 -203q0 -121 71.5 -197t184.5 -76z" />
    <glyph glyph-name="Dcroat" unicode="&#x110;" horiz-adv-x="1496" 
d="M641 1455q170 0 311.5 -54t239 -149.5t151 -231t53.5 -295.5t-51.5 -294t-147 -229.5t-236.5 -148.5t-314 -53h-487v598h-110v241h110v616h481zM629 257q139 0 246 61.5t164.5 167.5t57.5 239q0 135 -57.5 243t-160.5 168.5t-232 60.5h-203v-358h226v-241h-226v-341h185z
" />
    <glyph glyph-name="dcroat" unicode="&#x111;" horiz-adv-x="1248" 
d="M1247 1306v-171h-121v-1135h-255v121h-6q-109 -138 -306 -138q-59 0 -114 12t-102.5 36t-88.5 57t-73 77t-54.5 95t-34.5 111.5t-12 125.5q0 112 36 209t98.5 165t150 107t186.5 39q189 0 302 -130h5v248h-203v171h203v202h268v-202h121zM608 223q73 0 133 33.5
t95.5 96.5t35.5 143q0 121 -74.5 200.5t-188.5 79.5q-110 0 -183.5 -77t-73.5 -203q0 -121 71.5 -197t184.5 -76z" />
    <glyph glyph-name="Emacron" unicode="&#x112;" horiz-adv-x="1228" 
d="M326 1659v214h623v-214h-623zM159 0v1455h930v-258h-646v-349h518v-254h-518v-337h689v-257h-973z" />
    <glyph glyph-name="emacron" unicode="&#x113;" horiz-adv-x="1146" 
d="M903 1408v-214h-623v214h623zM1068 509q0 -71 -7 -96h-701q24 -89 91.5 -140t163.5 -52q145 -1 239 113l174 -162q-68 -86 -178 -137.5t-254 -51.5q-146 0 -263 63.5t-184.5 182.5t-67.5 272q0 112 37.5 208.5t103.5 164t158 105.5t197 38q145 0 257 -65.5t173 -181
t61 -261.5zM586 781q-83 0 -142.5 -45t-82.5 -130h441q-21 82 -76 128.5t-140 46.5z" />
    <glyph glyph-name="Ebreve" unicode="&#x114;" horiz-adv-x="1228" 
d="M637 1593q-87 0 -159 35t-120 106t-55 167h202q2 -27 11.5 -50.5t26 -41t41 -27.5t53.5 -10q56 0 92 35t39 94h203q-5 -66 -31 -122.5t-68 -97.5t-102.5 -64.5t-132.5 -23.5zM159 0v1455h930v-258h-646v-349h518v-254h-518v-337h689v-257h-973z" />
    <glyph glyph-name="ebreve" unicode="&#x115;" horiz-adv-x="1146" 
d="M591 1128q-87 0 -159 35t-120 106t-55 167h202q4 -56 39 -92.5t93 -36.5q55 0 91.5 35t39.5 94h203q-7 -88 -48.5 -157.5t-116 -110t-169.5 -40.5zM1068 509q0 -71 -7 -96h-701q24 -89 91.5 -140t163.5 -52q145 -1 239 113l174 -162q-68 -86 -178 -137.5t-254 -51.5
q-146 0 -263 63.5t-184.5 182.5t-67.5 272q0 112 37.5 208.5t103.5 164t158 105.5t197 38q144 0 256.5 -65.5t173.5 -181t61 -261.5zM586 781q-84 0 -143 -45t-82 -130h441q-21 82 -76 128.5t-140 46.5z" />
    <glyph glyph-name="Edotaccent" unicode="&#x116;" horiz-adv-x="1228" 
d="M637 1606q-69 0 -117.5 48t-48.5 116q0 67 48.5 115t117.5 48q68 0 117 -48t49 -115q0 -68 -49 -116t-117 -48zM159 0v1455h930v-258h-646v-349h518v-254h-518v-337h689v-257h-973z" />
    <glyph glyph-name="edotaccent" unicode="&#x117;" horiz-adv-x="1146" 
d="M591 1141q-69 0 -117.5 48t-48.5 116q0 67 48.5 115t117.5 48q68 0 117 -48t49 -115q0 -68 -49 -116t-117 -48zM1068 509q0 -71 -7 -96h-701q24 -89 91.5 -140t163.5 -52q145 -1 239 113l174 -162q-68 -86 -178 -137.5t-254 -51.5q-146 0 -263 63.5t-184.5 182.5
t-67.5 272q0 112 38 208.5t103.5 164t157.5 105.5t197 38q145 0 257 -65.5t173 -181t61 -261.5zM586 781q-83 0 -142.5 -45t-82.5 -130h441q-21 82 -76 128.5t-140 46.5z" />
    <glyph glyph-name="Eogonek" unicode="&#x118;" horiz-adv-x="1228" 
d="M1109 0q-75 -13 -121 -56t-46 -92q0 -39 22 -61t62 -22q11 0 19.5 0.5t15.5 1t11.5 1t10.5 2.5l7 2q2 1 8.5 3.5t8.5 3.5l13 -145q-56 -25 -149 -25q-71 0 -124 23.5t-80.5 66t-27.5 97.5q0 49 30.5 102.5t88.5 94.5v3h-699v1455h930v-258h-646v-349h518v-254h-518v-337
h689v-257h-23z" />
    <glyph glyph-name="eogonek" unicode="&#x119;" horiz-adv-x="1146" 
d="M1068 509q0 -71 -7 -96h-701q24 -89 91.5 -140t163.5 -52q145 -1 239 113l174 -162q-95 -122 -257 -166q-76 -27 -120.5 -65t-44.5 -84q0 -23 10 -40.5t29 -27.5t46 -10q12 0 22 0.5t16 1t13.5 2.5t9.5 2.5t10.5 4t9.5 3.5l13 -150q-56 -25 -149 -25q-58 0 -104 13.5
t-76.5 38.5t-47 59t-16.5 76q0 45 26 94t75 89v4q-183 32 -297.5 169.5t-114.5 339.5q0 112 38 208.5t103.5 164t157.5 105.5t197 38q145 0 257 -65.5t173 -181t61 -261.5zM586 781q-83 0 -142.5 -45t-82.5 -130h441q-21 82 -76 128.5t-140 46.5z" />
    <glyph glyph-name="Ecaron" unicode="&#x11a;" horiz-adv-x="1228" 
d="M754 1600h-237l-232 306h246l102 -154h6l103 154h246zM443 257h689v-257h-973v1455h930v-258h-646v-349h518v-254h-518v-337z" />
    <glyph glyph-name="ecaron" unicode="&#x11b;" horiz-adv-x="1146" 
d="M708 1135h-237l-232 306h246l102 -154h6l103 154h246zM1068 509q0 -71 -7 -96h-701q24 -89 91.5 -140t163.5 -52q145 -1 239 113l174 -162q-68 -86 -178 -137.5t-254 -51.5q-146 0 -263 63.5t-184.5 182.5t-67.5 272q0 112 38 208.5t103.5 164t157.5 105.5t197 38
q145 0 257 -65.5t173 -181t61 -261.5zM586 781q-83 0 -142.5 -45t-82.5 -130h441q-21 82 -76 128.5t-140 46.5z" />
    <glyph glyph-name="Gcircumflex" unicode="&#x11c;" horiz-adv-x="1542" 
d="M813 1754l-102 -154h-245l227 306h237l239 -306h-247l-103 154h-6zM811 793h605v-627q-101 -82 -254.5 -131t-318.5 -49q-157 0 -292.5 50.5t-235.5 143.5t-157 233.5t-57 311.5q0 159 51 296t143.5 237t230.5 157t305 57q161 0 315 -63.5t263 -185.5l-204 -173
q-156 151 -374 151q-90 0 -168 -33t-136.5 -93t-92 -150.5t-33.5 -199.5q0 -100 31 -187t87 -151t140 -101t184 -37q162 0 295 83v214h-327v247z" />
    <glyph glyph-name="gcircumflex" unicode="&#x11d;" horiz-adv-x="1239" 
d="M603 1289l-102 -154h-245l227 306h237l239 -306h-247l-103 154h-6zM845 1000h268v-885q0 -96 -17 -176t-56 -147.5t-99 -114.5t-148.5 -73t-201.5 -26q-234 0 -410 101l62 226q82 -45 159 -69t166 -24q135 0 209 63t74 159v101h-5q-111 -117 -291 -117q-137 0 -245.5 62
t-170 174.5t-61.5 255.5q0 145 59.5 261t165.5 181t238 65q86 0 163.5 -30.5t135.5 -89.5h5v103zM604 261q111 0 182 73t71 186t-72.5 183t-180.5 70q-112 0 -183 -71t-71 -184q0 -47 12.5 -87.5t35.5 -71.5t54.5 -53t70 -33.5t81.5 -11.5z" />
    <glyph glyph-name="Gbreve" unicode="&#x11e;" horiz-adv-x="1542" 
d="M818 1593q-87 0 -159 35t-120 106t-55 167h202q2 -27 11.5 -50.5t26 -41t41 -27.5t53.5 -10q56 0 92 35t39 94h203q-11 -135 -101 -221.5t-233 -86.5zM843 -14q-157 0 -292.5 50.5t-235.5 143.5t-157 233.5t-57 311.5q0 159 51 296t143.5 237t230.5 157t305 57
q161 0 315 -63.5t263 -185.5l-204 -173q-156 151 -374 151q-90 0 -168 -33t-136.5 -93t-92 -150.5t-33.5 -199.5q0 -100 31 -187t87 -151t140 -101t184 -37q162 0 295 83v214h-327v247h605v-627q-101 -82 -254.5 -131t-318.5 -49z" />
    <glyph glyph-name="gbreve" unicode="&#x11f;" horiz-adv-x="1239" 
d="M608 1128q-87 0 -159 35t-120 106t-55 167h202q4 -56 39 -92.5t93 -36.5q56 0 92 35t39 94h203q-11 -135 -101 -221.5t-233 -86.5zM845 1000h268v-885q0 -96 -17 -176t-56 -147.5t-99 -114.5t-148.5 -73t-201.5 -26q-234 0 -410 101l62 226q82 -45 159 -69t166 -24
q135 0 209 63t74 159v101h-5q-111 -117 -291 -117q-137 0 -245.5 62t-170 174.5t-61.5 255.5q0 145 59.5 261t165.5 181t238 65q86 0 163.5 -30.5t135.5 -89.5h5v103zM604 261q111 0 182 73t71 186t-72.5 183t-180.5 70q-112 0 -183 -71t-71 -184q0 -47 12.5 -87.5
t35.5 -71.5t54.5 -53t70 -33.5t81.5 -11.5z" />
    <glyph glyph-name="Gdotaccent" unicode="&#x120;" horiz-adv-x="1542" 
d="M818 1606q-69 0 -117.5 48t-48.5 116q0 67 48.5 115t117.5 48q45 0 83 -22t60.5 -59.5t22.5 -81.5q0 -68 -49 -116t-117 -48zM843 -14q-157 0 -292.5 50.5t-235.5 143.5t-157 233.5t-57 311.5q0 159 51 296t143.5 237t230.5 157t305 57q161 0 315 -63.5t263 -185.5
l-204 -173q-156 151 -374 151q-90 0 -168 -33t-136.5 -93t-92 -150.5t-33.5 -199.5q0 -100 31 -187t87 -151t140 -101t184 -37q162 0 295 83v214h-327v247h605v-627q-101 -82 -254.5 -131t-318.5 -49z" />
    <glyph glyph-name="gdotaccent" unicode="&#x121;" horiz-adv-x="1239" 
d="M608 1141q-45 0 -83.5 22t-60.5 59.5t-22 82.5q0 67 48.5 115t117.5 48q68 0 117 -48t49 -115q0 -68 -49 -116t-117 -48zM845 1000h268v-885q0 -96 -17 -176t-56 -147.5t-99 -114.5t-148.5 -73t-201.5 -26q-234 0 -410 101l62 226q54 -29 100 -48.5t105 -32t120 -12.5
q135 0 209 63t74 159v101h-5q-111 -117 -291 -117q-137 0 -245.5 62t-170 174.5t-61.5 255.5q0 145 59.5 261t165.5 181t238 65q86 0 163.5 -30.5t135.5 -89.5h5v103zM604 261q111 0 182 73t71 186t-72.5 183t-180.5 70q-112 0 -183 -71t-71 -184q0 -47 12.5 -87.5
t35.5 -71.5t54.5 -53t70 -33.5t81.5 -11.5z" />
    <glyph glyph-name="Gcommaaccent" unicode="&#x122;" horiz-adv-x="1542" 
d="M843 -14q-157 0 -292.5 50.5t-235.5 143.5t-157 233.5t-57 311.5q0 159 51 296t143.5 237t230.5 157t305 57q161 0 315 -63.5t263 -185.5l-204 -173q-156 151 -374 151q-90 0 -168 -33t-136.5 -93t-92 -150.5t-33.5 -199.5q0 -134 53 -241.5t154.5 -171t234.5 -63.5
q162 0 295 83v214h-327v247h605v-627q-101 -82 -254.5 -131t-318.5 -49zM657 -451l-56 151q61 18 86.5 43.5t25.5 70.5q0 29 -12 78h231q9 -39 9 -92q0 -124 -78.5 -190t-205.5 -61z" />
    <glyph glyph-name="gcommaaccent" unicode="&#x123;" horiz-adv-x="1239" 
d="M731 1151h-231q-9 39 -9 92q0 124 78.5 190t205.5 61l56 -151q-61 -18 -86.5 -43.5t-25.5 -70.5q0 -29 12 -78zM845 1000h268v-885q0 -96 -17 -176t-56 -147.5t-99 -114.5t-148.5 -73t-201.5 -26q-234 0 -410 101l62 226q82 -45 159 -69t166 -24q135 0 209 63t74 159v101
h-5q-111 -117 -291 -117q-137 0 -245.5 62t-170 174.5t-61.5 255.5q0 145 59.5 261t165.5 181t238 65q86 0 163.5 -30.5t135.5 -89.5h5v103zM604 261q111 0 182 73t71 186t-72.5 183t-180.5 70q-112 0 -183 -71t-71 -184q0 -47 12.5 -87.5t35.5 -71.5t54.5 -53t70 -33.5
t81.5 -11.5z" />
    <glyph glyph-name="Hcircumflex" unicode="&#x124;" horiz-adv-x="1493" 
d="M748 1755l-102 -154h-245l227 306h237l239 -306h-247l-103 154h-6zM1044 1455h290v-1455h-290v568h-595v-568h-289v1455h289v-630h595v630z" />
    <glyph glyph-name="hcircumflex" unicode="&#x125;" horiz-adv-x="1222" 
d="M511 1778l-102 -154h-245l227 306h237l239 -306h-247l-103 154h-6zM733 1017q84 0 149.5 -22.5t115.5 -70.5t77 -129.5t27 -193.5v-602h-269v534q0 133 -47.5 188t-147.5 55q-110 0 -172 -68.5t-62 -200.5v-507h-268v1508h268v-629h4q61 68 144.5 103t180.5 35z" />
    <glyph glyph-name="Hbar" unicode="&#x126;" horiz-adv-x="1498" 
d="M1436 1228v-169h-100v-1059h-290v568h-595v-568h-289v1059h-99v169h99v227h289v-227h595v227h290v-227h100zM1046 825v234h-595v-234h595z" />
    <glyph glyph-name="hbar" unicode="&#x127;" horiz-adv-x="1222" 
d="M733 1017q84 0 149.5 -22.5t115.5 -70.5t77 -129.5t27 -193.5v-602h-269v534q0 133 -47.5 188t-147.5 55q-110 0 -172 -68.5t-62 -200.5v-507h-268v1135h-124v171h124v202h268v-202h200v-171h-200v-256h4q61 68 144.5 103t180.5 35z" />
    <glyph glyph-name="Itilde" unicode="&#x128;" horiz-adv-x="628" 
d="M480 1596q-35 0 -70 10t-57.5 21.5t-51.5 29.5q-25 15 -38.5 22t-34.5 14t-39 7q-72 0 -115 -102l-160 69q22 70 55.5 122.5t83 84t107.5 31.5q39 0 75 -10t52.5 -18.5t48.5 -27.5q2 -1 6 -4q23 -14 35 -21t32 -13.5t38 -6.5q36 0 66 26.5t50 73.5l157 -52
q-32 -118 -94.5 -187t-145.5 -69zM169 0v1455h290v-1455h-290z" />
    <glyph glyph-name="itilde" unicode="&#x129;" horiz-adv-x="564" 
d="M451 1131q-50 0 -91.5 16t-87.5 45q-8 5 -25 16t-24.5 15t-21 8t-27.5 4q-26 0 -51.5 -27t-45.5 -75l-160 69q33 107 92 172.5t132 65.5q16 0 30 -1.5t25.5 -3.5t23 -6t19.5 -7t18.5 -9t16.5 -9.5t17 -10t16 -9.5q24 -15 37 -22.5t34 -15t40 -7.5q24 0 46 12.5t39 34.5
t30 53l158 -52q-32 -117 -94.5 -186.5t-145.5 -69.5zM148 0v1000h268v-1000h-268z" />
    <glyph glyph-name="Imacron" unicode="&#x12a;" horiz-adv-x="628" 
d="M1 1659v214h623v-214h-623zM169 0v1455h290v-1455h-290z" />
    <glyph glyph-name="imacron" unicode="&#x12b;" horiz-adv-x="564" 
d="M-29 1194v214h623v-214h-623zM148 0v1000h268v-1000h-268z" />
    <glyph glyph-name="Ibreve" unicode="&#x12c;" horiz-adv-x="628" 
d="M312 1593q-87 0 -159 35t-120 106t-55 167h202q1 -22 7.5 -41t18 -35.5t27 -28t35.5 -18t44 -6.5q56 0 92 35t39 94h203q-7 -88 -48.5 -157.5t-116 -110t-169.5 -40.5zM169 0v1455h290v-1455h-290z" />
    <glyph glyph-name="ibreve" unicode="&#x12d;" horiz-adv-x="564" 
d="M282 1128q-122 0 -204.5 81.5t-93.5 226.5h199q4 -58 28.5 -93.5t70.5 -35.5q42 0 68.5 34.5t29.5 94.5h199q-10 -137 -88 -222.5t-209 -85.5zM148 0v1000h268v-1000h-268z" />
    <glyph glyph-name="Iogonek" unicode="&#x12e;" horiz-adv-x="628" 
d="M412 0q-75 -13 -121 -56t-46 -92q0 -39 22 -61t62 -22q9 0 17 0.5t14 0.5t11.5 1t9 2t8.5 2.5t7 2t7 2.5t7 3l13 -145q-56 -25 -149 -25q-107 0 -169.5 51.5t-62.5 135.5q0 51 33 106.5t94 96.5v1452h290v-1455h-47z" />
    <glyph glyph-name="iogonek" unicode="&#x12f;" horiz-adv-x="564" 
d="M282 1141q-45 0 -83.5 22t-60.5 59.5t-22 82.5q0 67 48.5 115t117.5 48q68 0 117 -48t49 -115q0 -68 -49 -116t-117 -48zM148 3v997h268v-1000h-26q-75 -13 -121 -56t-46 -92q0 -39 22 -61t62 -22q9 0 17 0.5t14 0.5t11.5 1t9 2t8.5 2.5t7 2t7 2.5t7 3l13 -145
q-56 -25 -149 -25q-107 0 -169.5 51.5t-62.5 135.5q0 51 33 106.5t95 96.5z" />
    <glyph glyph-name="Idotaccent" unicode="&#x130;" horiz-adv-x="628" 
d="M312 1606q-69 0 -117.5 48t-48.5 116q0 67 48.5 115t117.5 48q68 0 117 -48t49 -115q0 -68 -49 -116t-117 -48zM169 0v1455h290v-1455h-290z" />
    <glyph glyph-name="dotlessi" unicode="&#x131;" horiz-adv-x="564" 
d="M148 0v1000h268v-1000h-268z" />
    <glyph glyph-name="IJ" unicode="&#x132;" horiz-adv-x="1664" 
d="M169 0v1455h290v-1455h-290zM1076 -14q-113 0 -220 48.5t-179 141.5l164 203q41 -54 99.5 -89.5t116.5 -35.5q177 0 177 253v948h289v-943q0 -124 -24.5 -218.5t-76.5 -164.5t-139 -106.5t-207 -36.5z" />
    <glyph glyph-name="ij" unicode="&#x133;" horiz-adv-x="1091" 
d="M828 1147q-69 0 -117.5 48t-48.5 116q0 67 48.5 115t117.5 48q68 0 117 -48t49 -115q0 -68 -49 -116t-117 -48zM282 1141q-45 0 -83.5 22t-60.5 59.5t-22 82.5q0 67 48.5 115t117.5 48q68 0 117 -48t49 -115q0 -68 -49 -116t-117 -48zM148 0v1000h268v-1000h-268z
M670 -422q-45 0 -79.5 3.5t-65 11.5t-64.5 21l45 223q44 -25 89 -25q49 0 75.5 35t26.5 104v1049h268v-1060q0 -176 -79.5 -269t-215.5 -93z" />
    <glyph glyph-name="Jcircumflex" unicode="&#x134;" horiz-adv-x="1036" 
d="M747 1755l-102 -154h-245l227 306h237l239 -306h-247l-103 154h-6zM606 507v948h289v-943q0 -70 -7.5 -130.5t-24 -114.5t-41.5 -97.5t-61 -78t-81.5 -57.5t-104 -35.5t-127.5 -12.5q-113 0 -220 48.5t-179 141.5l164 203q41 -54 99.5 -89.5t116.5 -35.5q177 0 177 253z
" />
    <glyph glyph-name="jcircumflex" unicode="&#x135;" horiz-adv-x="527" 
d="M259 1295l-102 -154h-245l227 306h237l239 -306h-247l-103 154h-6zM133 -49v1049h268v-1060q0 -176 -79.5 -269t-215.5 -93q-66 0 -112.5 8t-96.5 28l45 223q44 -25 89 -25q49 0 75.5 35t26.5 104z" />
    <glyph glyph-name="Kcommaaccent" unicode="&#x136;" horiz-adv-x="1364" 
d="M780 813l554 -813h-355l-388 583h-3l-141 -169v-414h-287v1455h287v-641h2l503 641h364zM578 -108h231q9 -39 9 -92q0 -124 -78.5 -190t-205.5 -61l-56 151q61 18 86.5 43.5t25.5 70.5q0 29 -12 78z" />
    <glyph glyph-name="kcommaaccent" unicode="&#x137;" horiz-adv-x="1104" 
d="M725 602l359 -602h-299l-238 398h-3l-141 -159v-239h-268v1508h268v-911h4l357 403h314zM458 -108h231q9 -39 9 -92q0 -124 -78.5 -190t-205.5 -61l-56 151q61 18 86.5 43.5t25.5 70.5q0 28 -12 78z" />
    <glyph glyph-name="kgreenlandic" unicode="&#x138;" horiz-adv-x="1106" 
d="M547 398h-3l-141 -159v-239h-268v1000h268v-406h2l359 406h315l-354 -398l361 -602h-300z" />
    <glyph glyph-name="Lacute" unicode="&#x139;" horiz-adv-x="1159" 
d="M380 1605l232 301l281 1l-254 -302h-259zM160 0v1455h288v-1198h647v-257h-935z" />
    <glyph glyph-name="lacute" unicode="&#x13a;" horiz-adv-x="563" 
d="M151 1633l232 301l281 1l-254 -302h-259zM148 0v1508h268v-1508h-268z" />
    <glyph glyph-name="Lcommaaccent" unicode="&#x13b;" horiz-adv-x="1159" 
d="M160 0v1455h288v-1198h647v-257h-935zM460 -451l-56 151q61 18 86.5 43.5t25.5 70.5q0 29 -12 78h231q9 -39 9 -92q0 -124 -78.5 -190t-205.5 -61z" />
    <glyph glyph-name="lcommaaccent" unicode="&#x13c;" horiz-adv-x="563" 
d="M148 0v1508h268v-1508h-268zM117 -451l-56 151q61 18 86.5 43.5t25.5 70.5q0 28 -12 78h231q9 -39 9 -92q0 -124 -78.5 -190t-205.5 -61z" />
    <glyph glyph-name="Lcaron" unicode="&#x13d;" horiz-adv-x="1159" 
d="M673 1188l64 423h256l-131 -423h-189zM160 0v1455h288v-1198h647v-257h-935z" />
    <glyph glyph-name="lcaron" unicode="&#x13e;" horiz-adv-x="656" 
d="M529 1188l64 423h255l-130 -423h-189zM148 0v1508h268v-1508h-268z" />
    <glyph glyph-name="Ldot" unicode="&#x13f;" horiz-adv-x="1159" 
d="M160 0v1455h288v-1198h647v-257h-935zM884 534q-34 0 -65 13t-53.5 34.5t-35.5 52t-13 63.5q0 68 48.5 116t118.5 48q33 0 63.5 -13t53 -35t35.5 -52.5t13 -63.5q0 -67 -48.5 -115t-116.5 -48z" />
    <glyph glyph-name="ldot" unicode="&#x140;" horiz-adv-x="952" 
d="M148 0v1508h268v-1508h-268zM761 362q-70 0 -118.5 47.5t-48.5 115.5t48.5 116t118.5 48q68 0 116.5 -48.5t48.5 -115.5t-48.5 -115t-116.5 -48z" />
    <glyph glyph-name="Lslash" unicode="&#x141;" horiz-adv-x="1178" 
d="M467 257h647v-257h-935v546l-143 -68v234l143 68v675h288v-539l162 77v-235l-162 -76v-425z" />
    <glyph glyph-name="lslash" unicode="&#x142;" horiz-adv-x="619" 
d="M565 906v-242l-115 -55v-609h-268v482l-121 -57v241l121 58v784h268v-657z" />
    <glyph glyph-name="Nacute" unicode="&#x143;" horiz-adv-x="1546" 
d="M1072 1907l-254 -302h-259l232 301zM1098 1455h288v-1455h-295l-640 964h-4v-964h-287v1455h287l647 -983h4v983z" />
    <glyph glyph-name="nacute" unicode="&#x144;" horiz-adv-x="1212" 
d="M943 1441l-254 -302h-259l232 301zM728 1017q83 0 147.5 -23.5t114 -72.5t75.5 -132t26 -196v-594h-268v527q0 138 -47 194t-145 56q-104 0 -165.5 -71t-61.5 -202v-503h-268v1000h268v-129h3q61 71 144.5 108.5t176.5 37.5z" />
    <glyph glyph-name="Ncommaaccent" unicode="&#x145;" horiz-adv-x="1546" 
d="M1098 1455h288v-1455h-295l-640 964h-4v-964h-287v1455h287l647 -983h4v983zM651 -108h231q9 -39 9 -92q0 -124 -78.5 -190t-205.5 -61l-56 151q61 18 86.5 43.5t25.5 70.5q0 28 -12 78z" />
    <glyph glyph-name="ncommaaccent" unicode="&#x146;" horiz-adv-x="1212" 
d="M728 1017q83 0 147.5 -23.5t114 -72.5t75.5 -132t26 -196v-594h-268v527q0 138 -47 194t-145 56q-104 0 -165.5 -71t-61.5 -202v-503h-268v1000h268v-129h3q61 71 144.5 108.5t176.5 37.5zM484 -108h231q9 -39 9 -92q0 -83 -37 -141.5t-100.5 -86t-146.5 -23.5l-56 151
q61 18 86.5 43.5t25.5 70.5q0 29 -12 78z" />
    <glyph glyph-name="Ncaron" unicode="&#x147;" horiz-adv-x="1546" 
d="M893 1601h-237l-232 306h246l102 -154h6l103 154h246zM1098 1455h288v-1455h-295l-640 964h-4v-964h-287v1455h287l647 -983h4v983z" />
    <glyph glyph-name="ncaron" unicode="&#x148;" horiz-adv-x="1212" 
d="M732 1135h-237l-232 306h246l102 -154h6l103 154h246zM728 1017q83 0 147.5 -23.5t114 -72.5t75.5 -132t26 -196v-594h-268v527q0 138 -47 194t-145 56q-104 0 -165.5 -71t-61.5 -202v-503h-268v1000h268v-129h3q61 71 144.5 108.5t176.5 37.5z" />
    <glyph glyph-name="napostrophe" unicode="&#x149;" horiz-adv-x="1422" 
d="M-30 1012l64 443h255l-130 -443h-189zM938 1017q83 0 147.5 -23.5t114 -72.5t75.5 -132t26 -196v-594h-268v527q0 94 -23 150t-63.5 78t-105.5 22q-104 0 -165.5 -71t-61.5 -202v-503h-268v1000h268v-129h3q61 71 144.5 108.5t176.5 37.5z" />
    <glyph glyph-name="Eng" unicode="&#x14a;" horiz-adv-x="1546" 
d="M1099 1455h287v-1510q0 -178 -83 -272.5t-230 -94.5q-113 0 -210 36l45 213q44 -25 89 -25q47 0 74.5 38t27.5 101v47l-649 976h-4v-964h-286v1455h285l650 -984h4v984z" />
    <glyph glyph-name="eng" unicode="&#x14b;" horiz-adv-x="1176" 
d="M715 1017q78 0 139 -24t107 -73.5t70.5 -132.5t24.5 -195v-647q0 -176 -80 -271.5t-214 -95.5q-67 0 -113.5 8t-96.5 28l45 213q44 -25 89 -25q47 0 74.5 38t27.5 101v583q0 70 -9 117.5t-29.5 78t-52.5 43.5t-80 13q-89 0 -151 -73.5t-62 -202.5v-500h-268v1000h268
v-128h4q30 34 67.5 62t77.5 46t81.5 27.5t80.5 9.5z" />
    <glyph glyph-name="Omacron" unicode="&#x14c;" horiz-adv-x="1682" 
d="M533 1660v214h623v-214h-623zM842 -17q-163 0 -301.5 56t-235 154.5t-151 236.5t-54.5 298t54.5 298t151 236t235.5 154t301 56q159 0 295.5 -54.5t234.5 -151t154 -235.5t56 -303t-56 -303.5t-154 -236t-234.5 -151t-295.5 -54.5zM843 251q93 0 174.5 36.5t140 99
t92 151.5t33.5 190q0 135 -57.5 244t-158 170t-224.5 61q-128 0 -230 -63.5t-157.5 -172t-55.5 -239.5q0 -132 55.5 -240.5t157.5 -172.5t230 -64z" />
    <glyph glyph-name="omacron" unicode="&#x14d;" horiz-adv-x="1225" 
d="M303 1194v214h623v-214h-623zM613 -17q-94 0 -177 25t-147.5 71t-111.5 109.5t-71.5 142.5t-24.5 168q0 111 38.5 207t107.5 164.5t169 107.5t217 39q115 0 214 -38t169 -105.5t109.5 -164t39.5 -210.5q0 -151 -68 -269t-189 -182.5t-275 -64.5zM613 223q110 0 185 78
t75 198q0 122 -74 199.5t-186 77.5q-116 0 -188.5 -78.5t-72.5 -198.5q0 -117 73.5 -196.5t187.5 -79.5z" />
    <glyph glyph-name="Obreve" unicode="&#x14e;" horiz-adv-x="1682" 
d="M844 1594q-87 0 -159 35t-120 106t-55 167h202q2 -27 11.5 -50.5t26 -41t41 -27.5t53.5 -10q55 0 91.5 35t39.5 94h203q-11 -135 -101 -221.5t-233 -86.5zM842 -17q-163 0 -301.5 56t-235 154t-151 236.5t-54.5 298.5t54.5 298t151 236t235 154t301.5 56
q159 0 295.5 -54.5t234.5 -151t154 -235.5t56 -303t-56 -303.5t-154 -236t-234.5 -151t-295.5 -54.5zM843 251q93 0 174.5 36t140 99t92 152t33.5 190q0 135 -57.5 244t-158 170t-224.5 61q-128 0 -230 -63.5t-157.5 -172t-55.5 -239.5q0 -132 55.5 -240.5t157.5 -172.5
t230 -64z" />
    <glyph glyph-name="obreve" unicode="&#x14f;" horiz-adv-x="1225" 
d="M614 1128q-87 0 -159 35t-120 106t-55 167h202q4 -56 39 -92.5t93 -36.5q55 0 91.5 35t39.5 94h203q-11 -135 -101 -221.5t-233 -86.5zM613 -17q-94 0 -177 25t-147.5 71t-111.5 109.5t-71.5 142.5t-24.5 168q0 111 38.5 207t107.5 164.5t169 107.5t217 39q154 0 275 -65
t189 -183.5t68 -269.5t-68 -269t-189 -182.5t-275 -64.5zM613 223q110 0 185 78t75 198q0 122 -74 199.5t-186 77.5q-77 0 -136.5 -36t-92 -99t-32.5 -142q0 -117 73.5 -196.5t187.5 -79.5z" />
    <glyph glyph-name="Ohungarumlaut" unicode="&#x150;" horiz-adv-x="1682" 
d="M514 1605l231 301l269 1l-253 -302h-247zM932 1605l230 301l270 1l-254 -302h-246zM842 -17q-163 0 -301.5 56t-235 154.5t-151 236.5t-54.5 298t54.5 298t151 236t235.5 154t301 56q159 0 295.5 -54.5t234.5 -151t154 -235.5t56 -303t-56 -303.5t-154 -236t-234.5 -151
t-295.5 -54.5zM843 251q93 0 174.5 36.5t140 99t92 151.5t33.5 190q0 135 -57.5 244t-158 170t-224.5 61q-128 0 -230 -63.5t-157.5 -172t-55.5 -239.5q0 -132 55.5 -240.5t157.5 -172.5t230 -64z" />
    <glyph glyph-name="ohungarumlaut" unicode="&#x151;" horiz-adv-x="1225" 
d="M254 1139l231 301l269 1l-253 -302h-247zM672 1139l230 301l270 1l-254 -302h-246zM613 -17q-94 0 -177 25t-147.5 71t-111.5 109.5t-71.5 142.5t-24.5 168q0 111 38.5 207t107.5 164.5t169 107.5t217 39q154 0 275 -65t189 -183.5t68 -269.5t-68 -269t-189 -182.5
t-275 -64.5zM613 223q110 0 185 78t75 198q0 122 -74 199.5t-186 77.5q-116 0 -188.5 -78.5t-72.5 -198.5q0 -117 73.5 -196.5t187.5 -79.5z" />
    <glyph glyph-name="OE" unicode="&#x152;" horiz-adv-x="1969" 
d="M1185 257h688v-257h-1030q-163 0 -302 56t-235.5 153t-151 231.5t-54.5 287.5q0 154 54.5 288t151 231t235.5 152.5t302 55.5h989v-257h-647v-352h525v-250h-525v-339zM843 268l66 1v918h-66q-124 0 -226 -59.5t-160 -165t-58 -234.5q0 -128 58 -234t160 -166.5
t226 -59.5z" />
    <glyph glyph-name="oe" unicode="&#x153;" horiz-adv-x="1658" 
d="M1603 509q0 -51 -7 -98h-601q18 -89 69.5 -139.5t132.5 -50.5q55 0 102.5 30t78.5 77l184 -156q-40 -55 -96.5 -97t-130.5 -67t-155 -25q-102 0 -188.5 38.5t-148.5 110.5h-5q-60 -71 -142.5 -110t-178.5 -39q-100 0 -185.5 38.5t-144.5 106.5t-92 163.5t-33 207.5
q0 111 35.5 208t97.5 164.5t148 106.5t184 39q61 0 117.5 -17.5t105 -50t87.5 -79.5h6q62 70 146.5 108.5t185.5 38.5q123 0 221 -65.5t152.5 -181.5t54.5 -261zM1170 781q-68 0 -112.5 -44.5t-61.5 -127.5h345q-17 81 -61 126.5t-110 45.5zM519 223q82 0 139 78t57 198
q0 81 -24 144t-67.5 98t-97.5 35q-79 0 -135.5 -79.5t-56.5 -197.5q0 -120 51.5 -198t133.5 -78z" />
    <glyph glyph-name="Racute" unicode="&#x154;" horiz-adv-x="1346" 
d="M956 1907l-254 -302h-259l232 301zM1278 0h-341l-326 498h-167v-498h-284v1455h550q128 0 226.5 -36t159 -102t91 -153t30.5 -194q0 -114 -36.5 -202.5t-102 -146.5t-159.5 -89v-4zM444 1199v-447h202q131 0 202 60.5t71 163.5t-68.5 163t-192.5 60h-214z" />
    <glyph glyph-name="racute" unicode="&#x155;" horiz-adv-x="768" 
d="M755 1441l-254 -302h-259l232 301zM407 853q57 79 135 121.5t167 42.5q15 0 21 -1v-294q-40 3 -71 3q-120 0 -187.5 -73t-67.5 -188v-464h-268v1000h268v-147h3z" />
    <glyph glyph-name="Rcommaaccent" unicode="&#x156;" horiz-adv-x="1346" 
d="M919 528l359 -528h-341l-326 498h-167v-498h-284v1455h550q129 0 227 -36t158.5 -102t91 -153t30.5 -194q0 -114 -36.5 -202.5t-102 -146.5t-159.5 -89v-4zM444 1199v-447h202q87 0 149 28t93 78t31 118q0 103 -68.5 163t-192.5 60h-214zM552 -108h231q9 -38 9 -92
q0 -124 -78.5 -190t-205.5 -61l-56 151q61 18 86.5 43.5t25.5 70.5q0 28 -12 78z" />
    <glyph glyph-name="rcommaaccent" unicode="&#x157;" horiz-adv-x="768" 
d="M709 1017q15 0 21 -1v-294q-40 3 -71 3q-120 0 -187.5 -73t-67.5 -188v-464h-268v1000h268v-147h3q57 79 135 121.5t167 42.5zM153 -108h231q9 -39 9 -92q0 -124 -78.5 -190t-205.5 -61l-56 151q21 6 36.5 12.5t28.5 14.5t21.5 16.5t14.5 19.5t8.5 23.5t2.5 27.5
q0 29 -12 78z" />
    <glyph glyph-name="Rcaron" unicode="&#x158;" horiz-adv-x="1346" 
d="M777 1601h-237l-232 306h246l102 -154h6l103 154h246zM1278 0h-341l-326 498h-167v-498h-284v1455h550q129 0 227 -36t158.5 -102t91 -153t30.5 -194q0 -114 -36.5 -202.5t-102 -146.5t-159.5 -89v-4zM444 1199v-447h202q131 0 202 60.5t71 163.5t-68.5 163t-192.5 60
h-214z" />
    <glyph glyph-name="rcaron" unicode="&#x159;" horiz-adv-x="768" 
d="M576 1135h-237l-232 306h246l102 -154h6l103 154h246zM407 853q57 79 135 121.5t167 42.5q15 0 21 -1v-294q-40 3 -71 3q-120 0 -187.5 -73t-67.5 -188v-464h-268v1000h268v-147h3z" />
    <glyph glyph-name="Sacute" unicode="&#x15a;" horiz-adv-x="1196" 
d="M449 1605l232 301l281 1l-254 -302h-259zM597 -17q-145 0 -281.5 57t-248.5 172l173 213q27 -31 57 -57t60.5 -46t62 -35t62.5 -24.5t61 -14.5t59 -5q51 0 91 11.5t65.5 32t39 48.5t13.5 62q0 32 -10 57t-27.5 44t-51 37.5t-69.5 33t-95 34.5q-53 19 -94 35t-89 40.5
t-83 49t-69.5 59t-56 73t-35 89t-13.5 107.5q0 115 62 210t169 149.5t236 56.5q264 3 490 -183l-166 -217q-175 143 -317 143q-77 0 -125.5 -39t-49.5 -107q0 -27 10 -49t27 -39.5t50.5 -36t67 -33t90.5 -36.5q182 -71 241 -103q136 -74 181 -183q28 -68 28 -158
q0 -92 -31 -168.5t-82 -127t-118.5 -86t-138.5 -51t-145 -15.5z" />
    <glyph glyph-name="sacute" unicode="&#x15b;" horiz-adv-x="917" 
d="M299 1139l232 301l281 1l-254 -302h-259zM459 -17q-238 0 -405 147l130 185q125 -117 277 -117q57 0 90 23t33 60q0 33 -39 55t-143 56q-55 18 -96.5 36t-83 46t-68.5 61t-43.5 79.5t-16.5 102.5q0 89 47.5 157.5t129 105.5t183.5 37q105 0 193 -30t173 -96l-130 -196
q-56 53 -118.5 79.5t-120.5 26.5q-38 0 -68 -19.5t-30 -55.5q0 -20 18 -38.5t49 -34t83 -35.5q166 -61 222 -97q97 -60 116 -160q6 -30 6 -67q0 -139 -99.5 -225t-288.5 -86z" />
    <glyph glyph-name="Scircumflex" unicode="&#x15c;" horiz-adv-x="1196" 
d="M591 1755l-102 -154h-245l227 306h237l239 -306h-247l-103 154h-6zM662 875q182 -71 241 -103q136 -74 181 -183q28 -68 28 -158q0 -92 -31 -168.5t-82 -127t-118.5 -86t-138.5 -51t-145 -15.5q-145 0 -281.5 57t-248.5 172l173 213q40 -46 86.5 -81t93 -57t92.5 -33
t90 -11q51 0 91 11.5t65.5 32t39 48.5t13.5 62q0 32 -10 57t-27.5 44t-51 37.5t-69.5 33t-95 34.5q-53 19 -94 35t-89 40.5t-83 49t-69.5 59t-56 73t-35 89t-13.5 107.5q0 115 62 210t169 149.5t236 56.5q264 3 490 -183l-166 -217q-175 143 -317 143q-77 0 -125.5 -39
t-49.5 -107q0 -27 10 -49t27 -39.5t50.5 -36t67 -33t90.5 -36.5z" />
    <glyph glyph-name="scircumflex" unicode="&#x15d;" horiz-adv-x="917" 
d="M464 1289l-102 -154h-245l227 306h237l239 -306h-247l-103 154h-6zM503 618q166 -61 222 -97q97 -60 116 -160q6 -30 6 -67q0 -139 -99.5 -225t-288.5 -86q-238 0 -405 147l130 185q125 -117 277 -117q57 0 90 23t33 60q0 14 -7 25.5t-19.5 21.5t-36 20.5t-50.5 20
t-69 23.5q-55 18 -96.5 36t-83 46t-68.5 61t-43.5 79.5t-16.5 102.5q0 89 47.5 157.5t129 105.5t183.5 37q105 0 193 -30t173 -96l-130 -196q-56 53 -118.5 79.5t-120.5 26.5q-38 0 -68 -19.5t-30 -55.5q0 -30 35.5 -54t114.5 -54z" />
    <glyph glyph-name="Scedilla" unicode="&#x15e;" horiz-adv-x="1196" 
d="M627 -16l-23 -45l2 -3q91 -4 139.5 -46t48.5 -119q0 -74 -61.5 -118t-189.5 -44q-63 0 -125 12v120q40 -14 105 -14q40 0 69 14t29 44q0 29 -44.5 47.5t-123.5 18.5v76l32 65q-241 37 -418 220l173 213q40 -46 86.5 -81t93 -57t92.5 -33t90 -11q51 0 91 11.5t65.5 32
t39 48.5t13.5 62q0 32 -10 57t-27.5 44t-51 37.5t-69.5 33t-95 34.5q-53 19 -94 35t-89 40.5t-83 49t-69.5 59t-56 73t-35 89t-13.5 107.5q0 115 62 210t169 149.5t236 56.5q264 3 490 -183l-166 -217q-175 143 -317 143q-77 0 -125.5 -39t-49.5 -107q0 -27 10 -49t27 -39.5
t50.5 -36t67 -33t90.5 -36.5q182 -71 241 -103q136 -74 181 -183q28 -68 28 -158q0 -88 -28.5 -162t-75.5 -124.5t-110.5 -86.5t-131 -53.5t-139.5 -20.5z" />
    <glyph glyph-name="scedilla" unicode="&#x15f;" horiz-adv-x="917" 
d="M479 -17l-23 -44l2 -3q91 -4 139.5 -46t48.5 -119q0 -36 -14.5 -65t-44 -51t-78.5 -34t-114 -12q-63 0 -125 12v120q40 -14 105 -14q25 0 46 5.5t36.5 19t15.5 33.5q0 29 -44.5 47.5t-123.5 18.5v76l33 66q-163 30 -284 137l130 185q125 -117 277 -117q57 0 90 23t33 60
q0 17 -9.5 30.5t-33.5 27t-55 25t-84 28.5q-55 18 -96.5 36t-83 46t-68.5 61t-43.5 79.5t-16.5 102.5q0 89 47.5 157.5t129 105.5t183.5 37q105 0 193 -30t173 -96l-130 -196q-56 53 -118.5 79.5t-120.5 26.5q-38 0 -68 -19.5t-30 -55.5q0 -21 18 -39t49 -33.5t83 -35.5
q166 -61 222 -97q97 -60 116 -160q6 -30 6 -67t-7.5 -71t-22.5 -64.5t-37 -57t-52.5 -47.5t-67.5 -36.5t-83 -24.5t-98 -10z" />
    <glyph glyph-name="Scaron" unicode="&#x160;" horiz-adv-x="1196" 
d="M713 1601h-237l-232 306h246l102 -154h6l103 154h246zM662 875q182 -71 241 -103q136 -74 181 -183q28 -68 28 -158q0 -92 -31 -168.5t-82 -127t-118.5 -86t-138.5 -51t-145 -15.5q-145 0 -281.5 57t-248.5 172l173 213q40 -46 86.5 -81t93 -57t92.5 -33t90 -11
q51 0 91 11.5t65.5 32t39 48.5t13.5 62q0 32 -10 57t-27.5 44t-51 37.5t-69.5 33t-95 34.5q-53 19 -94 35t-89 40.5t-83 49t-69.5 59t-56 73t-35 89t-13.5 107.5q0 115 62 210t169 149.5t236 56.5q264 3 490 -183l-166 -217q-175 143 -317 143q-50 0 -89.5 -17t-62.5 -50.5
t-23 -78.5q0 -27 10 -49t27 -39.5t50.5 -36t67 -33t90.5 -36.5z" />
    <glyph glyph-name="scaron" unicode="&#x161;" horiz-adv-x="917" 
d="M586 1135h-237l-232 306h246l102 -154h6l103 154h246zM503 618q166 -61 222 -97q97 -60 116 -160q6 -30 6 -67q0 -139 -99.5 -225t-288.5 -86q-238 0 -405 147l130 185q125 -117 277 -117q57 0 90 23t33 60q0 23 -20 40.5t-55.5 32.5t-106.5 38q-55 18 -96.5 36t-83 46
t-68.5 61t-43.5 79.5t-16.5 102.5q0 89 47.5 157.5t129 105.5t183.5 37q105 0 193 -30t173 -96l-130 -196q-56 53 -118.5 79.5t-120.5 26.5q-38 0 -68 -19.5t-30 -55.5q0 -21 18 -39t49 -33.5t83 -35.5z" />
    <glyph glyph-name="uni0162" unicode="&#x162;" horiz-adv-x="1210" 
d="M632 0l-32 -61l2 -3q60 -2 102 -21.5t64 -56t22 -87.5q0 -74 -61.5 -118t-189.5 -44q-63 0 -125 12v120q40 -14 105 -14q40 0 69 14t29 44q0 29 -44.5 47.5t-123.5 18.5v76l36 73h-24v1197h-401v258h1091v-258h-403v-1197h-116z" />
    <glyph glyph-name="uni0163" unicode="&#x163;" horiz-adv-x="764" 
d="M432 -64q91 -4 139.5 -46t48.5 -119q0 -74 -61.5 -118t-189.5 -44q-63 0 -125 12v120q40 -14 105 -14q25 0 46 5.5t36.5 19t15.5 33.5q0 29 -44.5 47.5t-123.5 18.5v76l40 81q-76 34 -117 111.5t-41 196.5v462h-118v222h118v327l268 29v-356h272v-222h-272v-425
q0 -66 20.5 -97t67.5 -31q58 0 126 35l69 -214q-57 -31 -113.5 -46.5t-145.5 -16.5l-23 -44z" />
    <glyph glyph-name="Tcaron" unicode="&#x164;" horiz-adv-x="1210" 
d="M720 1601h-237l-232 306h246l102 -154h6l103 154h246zM60 1455h1091v-258h-403v-1197h-287v1197h-401v258z" />
    <glyph glyph-name="tcaron" unicode="&#x165;" horiz-adv-x="764" 
d="M522 1188l64 423h256l-131 -423h-189zM447 -17q-133 0 -209.5 84.5t-76.5 248.5v462h-118v222h118v327l268 29v-356h272v-222h-272v-425q0 -66 20.5 -97t67.5 -31q57 0 126 35l69 -214q-57 -31 -115 -47t-150 -16z" />
    <glyph glyph-name="Tbar" unicode="&#x166;" horiz-adv-x="1210" 
d="M1151 1197h-403v-356h240v-227h-240v-614h-287v614h-230v227h230v356h-401v258h1091v-258z" />
    <glyph glyph-name="tbar" unicode="&#x167;" horiz-adv-x="764" 
d="M643 260l69 -214q-57 -31 -115 -47t-150 -16q-133 0 -209.5 84.5t-76.5 248.5v136h-102v170h102v156h-118v222h118v327l268 29v-356h272v-222h-272v-156h222v-170h-222v-99q0 -66 20.5 -97t67.5 -31q58 0 126 35z" />
    <glyph glyph-name="Utilde" unicode="&#x168;" horiz-adv-x="1461" 
d="M898 1597q-50 0 -91.5 16t-87.5 45q-19 11 -29.5 16.5t-26 13t-29 10.5t-27.5 3q-72 0 -115 -102l-160 69q33 108 96.5 173t149.5 65q39 0 75 -10t52.5 -18.5t48.5 -27.5q27 -17 38 -23t32.5 -14t40.5 -8q36 0 66 26.5t50 73.5l157 -52q-32 -118 -94.5 -187t-145.5 -69z
M728 -17q-131 0 -239.5 41.5t-185.5 119t-119.5 194.5t-42.5 264v853h289v-834q0 -106 34 -188.5t102.5 -131t161.5 -48.5q135 0 219 98.5t84 269.5v834h288v-853q0 -189 -69.5 -328t-203 -215t-318.5 -76z" />
    <glyph glyph-name="utilde" unicode="&#x169;" horiz-adv-x="1182" 
d="M467 1235q-72 0 -115 -102l-160 69q33 108 96.5 173t149.5 65q39 0 75 -10t52.5 -18.5t48.5 -27.5q27 -17 38 -23t32.5 -14t40.5 -8q24 0 46 12.5t39.5 34.5t30.5 53l157 -52q-32 -118 -94.5 -187t-145.5 -69q-50 0 -91.5 16t-87.5 45q-25 15 -38.5 22t-34.5 14t-39 7z
M787 1000h268v-1000h-268v122h-4q-58 -68 -134.5 -103.5t-162.5 -35.5q-84 0 -149 22.5t-115.5 70.5t-77 129t-26.5 193v602h268v-532q0 -135 41.5 -189.5t137.5 -54.5q94 0 158 76t64 215v485z" />
    <glyph glyph-name="Umacron" unicode="&#x16a;" horiz-adv-x="1461" 
d="M419 1660v214h623v-214h-623zM728 -17q-131 0 -239.5 41.5t-185.5 119t-119.5 194.5t-42.5 264v853h289v-834q0 -106 34 -188.5t102.5 -131t161.5 -48.5q135 0 219 98.5t84 269.5v834h288v-853q0 -189 -69.5 -328t-203 -215t-318.5 -76z" />
    <glyph glyph-name="umacron" unicode="&#x16b;" horiz-adv-x="1182" 
d="M902 1408v-214h-623v214h623zM787 1000h268v-1000h-268v122h-4q-58 -68 -134.5 -103.5t-162.5 -35.5q-84 0 -149 22.5t-115.5 70.5t-77 129t-26.5 193v602h268v-532q0 -135 41.5 -189.5t137.5 -54.5q94 0 158 76t64 215v485z" />
    <glyph glyph-name="Ubreve" unicode="&#x16c;" horiz-adv-x="1461" 
d="M730 1594q-87 0 -159 35t-120 106t-55 167h202q1 -22 7.5 -41t18 -35.5t27 -28t35.5 -18t44 -6.5q36 0 65 15.5t46.5 45t19.5 68.5h203q-11 -135 -101 -221.5t-233 -86.5zM728 -17q-131 0 -239.5 41.5t-185.5 119t-119.5 194.5t-42.5 264v853h289v-834q0 -106 34 -188.5
t102.5 -131t161.5 -48.5q135 0 219 98.5t84 269.5v834h288v-853q0 -189 -69.5 -328t-203 -215t-318.5 -76z" />
    <glyph glyph-name="ubreve" unicode="&#x16d;" horiz-adv-x="1182" 
d="M590 1128q-87 0 -159 35t-120 106t-55 167h202q4 -56 39 -92.5t93 -36.5q55 0 91.5 35t39.5 94h203q-11 -135 -101 -221.5t-233 -86.5zM787 1000h268v-1000h-268v122h-4q-58 -68 -134.5 -103.5t-162.5 -35.5q-84 0 -149.5 22.5t-115.5 70.5t-76.5 129t-26.5 193v602h268
v-532q0 -135 41.5 -189.5t137.5 -54.5q94 0 158 76t64 215v485z" />
    <glyph glyph-name="Uring" unicode="&#x16e;" horiz-adv-x="1461" 
d="M729 1558q-91 0 -155.5 61t-64.5 153q0 89 62.5 151.5t157.5 62.5q93 0 157.5 -61t64.5 -153q0 -90 -62.5 -152t-159.5 -62zM729 1698q32 0 54.5 22.5t22.5 54.5q0 31 -22.5 53.5t-54.5 22.5t-54.5 -23t-22.5 -54q0 -32 22.5 -54t54.5 -22zM728 -17q-131 0 -239.5 41.5
t-185.5 119t-119.5 194.5t-42.5 264v853h289v-834q0 -106 34 -188.5t102.5 -131t161.5 -48.5q135 0 219 98.5t84 269.5v834h288v-853q0 -189 -69.5 -328t-203 -215t-318.5 -76z" />
    <glyph glyph-name="uring" unicode="&#x16f;" horiz-adv-x="1182" 
d="M589 1092q-91 0 -155.5 61t-64.5 153q0 89 62.5 151.5t157.5 62.5q93 0 157.5 -61t64.5 -153q0 -90 -62.5 -152t-159.5 -62zM589 1385q-32 0 -54.5 -23t-22.5 -54q0 -32 22.5 -54t54.5 -22t54.5 22.5t22.5 54.5q0 9 -2 17.5t-6 15.5t-9 14t-11.5 12t-14.5 9t-16.5 6
t-17.5 2zM787 1000h268v-1000h-268v122h-4q-58 -68 -134.5 -103.5t-162.5 -35.5q-84 0 -149 22.5t-115.5 70.5t-77 129t-26.5 193v602h268v-532q0 -135 41.5 -189.5t137.5 -54.5q94 0 158 76t64 215v485z" />
    <glyph glyph-name="Uhungarumlaut" unicode="&#x170;" horiz-adv-x="1461" 
d="M377 1605l231 301l269 1l-253 -302h-247zM795 1605l230 301l270 1l-254 -302h-246zM728 -17q-131 0 -239.5 41.5t-185.5 119t-119.5 194.5t-42.5 264v853h289v-834q0 -106 34 -188.5t102.5 -131t161.5 -48.5q135 0 219 98.5t84 269.5v834h288v-853q0 -189 -69.5 -328
t-203 -215t-318.5 -76z" />
    <glyph glyph-name="uhungarumlaut" unicode="&#x171;" horiz-adv-x="1183" 
d="M741 1441l-253 -302h-247l231 301zM905 1139h-246l230 301l270 1zM787 515v485h268v-1000h-268v122h-4q-58 -68 -134.5 -103.5t-162.5 -35.5q-84 0 -149 22.5t-115.5 70.5t-77 129t-26.5 193v602h268v-532q0 -135 41.5 -189.5t137.5 -54.5q94 0 158 76t64 215z" />
    <glyph glyph-name="Uogonek" unicode="&#x172;" horiz-adv-x="1461" 
d="M1031 1455h288v-853q0 -236 -108 -392.5t-306 -205.5q-77 -25 -120 -64t-43 -85q0 -38 22 -59.5t62 -21.5q11 0 19.5 0.5t15.5 1t11.5 1t10.5 2.5l8 2q1 1 7.5 3.5t8.5 3.5l13 -145q-56 -25 -149 -25q-107 0 -169.5 51.5t-62.5 135.5q0 44 25 92t72 88v3
q-229 28 -362 188t-133 426v853h289v-834q0 -106 34 -188.5t102.5 -131t161.5 -48.5q135 0 219 98.5t84 269.5v834z" />
    <glyph glyph-name="uogonek" unicode="&#x173;" horiz-adv-x="1182" 
d="M1029 0q-75 -13 -121 -56t-46 -92q0 -39 22 -61t62 -22q11 0 19.5 0.5t15.5 1t11.5 1t10.5 2.5l8 2q1 1 7.5 3.5t8.5 3.5l13 -145q-56 -25 -149 -25q-107 0 -169.5 51.5t-62.5 135.5q0 51 33 106.5t95 96.5v119h-4q-58 -68 -134.5 -103.5t-162.5 -35.5q-84 0 -149 22.5
t-115.5 70.5t-77 129t-26.5 193v602h268v-532q0 -135 41.5 -189.5t137.5 -54.5q94 0 158 76t64 215v485h268v-1000h-26z" />
    <glyph glyph-name="Wcircumflex" unicode="&#x174;" horiz-adv-x="2116" 
d="M1055 1755l-102 -154h-245l227 306h237l239 -306h-247l-103 154h-6zM1755 1455h307l-458 -1455h-267l-274 1035h-3l-283 -1035h-266l-458 1455h307l283 -984h4l259 984h305l257 -984h4z" />
    <glyph glyph-name="wcircumflex" unicode="&#x175;" horiz-adv-x="1581" 
d="M785 1289l-102 -154h-245l227 306h237l239 -306h-247l-103 154h-6zM1272 1000h269l-341 -1000h-231l-178 617h-3l-176 -617h-230l-341 1000h269l194 -608h3l175 608h216l177 -608h3z" />
    <glyph glyph-name="Ycircumflex" unicode="&#x176;" horiz-adv-x="1295" 
d="M645 1755l-102 -154h-245l227 306h237l239 -306h-247l-103 154h-6zM942 1455h333l-484 -816v-639h-291v639l-481 816h330l296 -531h4z" />
    <glyph glyph-name="ycircumflex" unicode="&#x177;" horiz-adv-x="1104" 
d="M550 1289l-102 -154h-245l227 306h237l239 -306h-247l-103 154h-6zM791 1000h278l-539 -1405h-274l178 467l-400 938h280l245 -619h3z" />
    <glyph glyph-name="Ydieresis" unicode="&#x178;" horiz-adv-x="1295" 
d="M434 1607q-70 0 -118.5 48t-48.5 116q0 67 49 115t118 48q68 0 117 -48t49 -115q0 -45 -22.5 -82.5t-61 -59.5t-82.5 -22zM863 1609q-45 0 -83 22t-60 59t-22 81q0 43 22 80.5t60 59.5t83 22q44 0 81.5 -22t60 -59.5t22.5 -80.5q0 -67 -48.5 -114.5t-115.5 -47.5z
M942 1455h333l-484 -816v-639h-291v639l-481 816h330l296 -531h4z" />
    <glyph glyph-name="Zacute" unicode="&#x179;" horiz-adv-x="1277" 
d="M931 1907l-254 -302h-259l232 301zM473 257h694v-257h-1062v225l678 965v7h-650v258h1032v-220l-692 -971v-7z" />
    <glyph glyph-name="zacute" unicode="&#x17a;" horiz-adv-x="996" 
d="M798 1441l-254 -302h-259l232 301zM918 820l-488 -594v-6h477v-220h-832v183l482 595v3h-446v219h807v-180z" />
    <glyph glyph-name="Zdotaccent" unicode="&#x17b;" horiz-adv-x="1277" 
d="M635 1607q-45 0 -83.5 22t-60.5 59.5t-22 82.5q0 67 48.5 115t117.5 48q45 0 83 -22t60.5 -59.5t22.5 -81.5q0 -68 -49 -116t-117 -48zM473 257h694v-257h-1062v225l678 965v7h-650v258h1032v-220l-692 -971v-7z" />
    <glyph glyph-name="zdotaccent" unicode="&#x17c;" horiz-adv-x="996" 
d="M502 1141q-45 0 -83.5 22t-60.5 59.5t-22 82.5q0 67 48.5 115t117.5 48q68 0 117 -48t49 -115q0 -68 -49 -116t-117 -48zM918 820l-488 -594v-6h477v-220h-832v183l482 595v3h-446v219h807v-180z" />
    <glyph glyph-name="Zcaron" unicode="&#x17d;" horiz-adv-x="1277" 
d="M752 1601h-237l-232 306h246l102 -154h6l103 154h246zM473 257h694v-257h-1062v225l678 965v7h-650v258h1032v-220l-692 -971v-7z" />
    <glyph glyph-name="zcaron" unicode="&#x17e;" horiz-adv-x="996" 
d="M619 1135h-237l-232 306h246l102 -154h6l103 154h246zM918 820l-488 -594v-6h477v-220h-832v183l482 595v3h-446v219h807v-180z" />
    <glyph glyph-name="longs" unicode="&#x17f;" horiz-adv-x="705" 
d="M173 0v778h-106v222h106v172q0 115 37.5 194.5t107.5 119t169 39.5q56 0 110.5 -12.5t88.5 -27.5t60 -32l-54 -210q-90 44 -150 44q-101 0 -101 -135v-1152h-268z" />
    <glyph glyph-name="uni018F" unicode="&#x18f;" horiz-adv-x="1485" 
d="M703 1472q149 0 275 -54t215.5 -151.5t140 -237.5t50.5 -307q0 -161 -49 -298.5t-134.5 -234.5t-206.5 -151.5t-261 -54.5q-136 0 -253 49t-202.5 139t-134 226t-48.5 302q0 64 7 101h984q-19 187 -120.5 296t-258.5 109q-163 0 -308 -81l-135 238q200 110 439 110z
M722 253q129 0 221.5 80.5t127.5 222.5h-688q22 -137 115.5 -220t223.5 -83z" />
    <glyph glyph-name="florin" unicode="&#x192;" horiz-adv-x="1124" 
d="M218 -315q-112 0 -189 27t-110 60l94 182q77 -33 154 -33q67 0 106 41t52 137l82 639h-154l32 223h154l28 214q45 350 375 350q109 0 186.5 -28t112.5 -60l-95 -182q-84 33 -155 33q-67 0 -106 -41t-51 -138l-18 -148h272l-31 -223h-273l-91 -703q-24 -176 -116 -263
t-259 -87z" />
    <glyph glyph-name="uni019D" unicode="&#x19d;" horiz-adv-x="1546" 
d="M1098 1455h288v-1455h-295l-640 964h-4v-1019q0 -178 -83 -272.5t-230 -94.5q-113 0 -210 36l45 213q44 -25 89 -25q47 0 74.5 38t27.5 101v1514h287l647 -983h4v983z" />
    <glyph glyph-name="Ohorn" unicode="&#x1a0;" horiz-adv-x="1766" 
d="M1489 1587h251v-151q0 -140 -59 -232.5t-170 -128.5l-2 -4q73 -155 73 -343q0 -164 -56 -303.5t-154 -236t-234.5 -151t-295.5 -54.5q-162 0 -301 56t-235.5 154.5t-151 236.5t-54.5 298t54.5 298t151 236t235.5 154t301 56q177 0 325 -66t248 -187q21 11 35.5 28.5
t22 35.5t11.5 47.5t4.5 51t0.5 60.5v145zM843 251q93 0 174.5 36.5t140 99t92 151.5t33.5 190q0 135 -57.5 244t-158 170t-224.5 61q-128 0 -230 -63.5t-157.5 -172t-55.5 -239.5q0 -132 55.5 -240.5t157.5 -172.5t230 -64z" />
    <glyph glyph-name="ohorn" unicode="&#x1a1;" horiz-adv-x="1399" 
d="M1128 1159h251v-151q0 -146 -64 -240t-185 -126l-1 -3q16 -70 16 -140q0 -151 -68 -269t-189 -182.5t-275 -64.5q-94 0 -177 25t-147.5 71t-111.5 109.5t-71.5 142.5t-24.5 168q0 111 38.5 207t107.5 164.5t169 107.5t217 39q145 0 261.5 -58.5t186.5 -163.5q19 11 32 29
t20 35.5t10.5 46t4 50t0.5 58.5v145zM613 223q110 0 185 78t75 198q0 122 -74 199.5t-186 77.5q-116 0 -188.5 -78.5t-72.5 -198.5q0 -117 73.5 -196.5t187.5 -79.5z" />
    <glyph glyph-name="Uhorn" unicode="&#x1af;" horiz-adv-x="1672" 
d="M1448 1587h251v-151q0 -183 -99.5 -282.5t-280.5 -100.5v-451q0 -189 -69.5 -328t-203 -215t-318.5 -76q-131 0 -239.5 41.5t-185.5 119t-119.5 194.5t-42.5 264v853h289v-834q0 -106 34 -188.5t102.5 -131t161.5 -48.5q135 0 219 98.5t84 269.5v834h288v-254
q27 5 47 14.5t33.5 20.5t23 30t14.5 35t7.5 43t3 46t0.5 52v145z" />
    <glyph glyph-name="uhorn" unicode="&#x1b0;" horiz-adv-x="1438" 
d="M1168 1159h251v-151q0 -179 -95 -278.5t-269 -103.5v-626h-268v122h-4q-39 -46 -86.5 -77t-100.5 -46.5t-110 -15.5q-84 0 -149 22.5t-115.5 70t-77 129t-26.5 193.5v602h268v-532q0 -135 41.5 -189.5t137.5 -54.5q94 0 158 76t64 215v485h268v-223q27 7 46.5 18
t31.5 29.5t19.5 35.5t10.5 46t4 50t1 58v145z" />
    <glyph glyph-name="Gcaron" unicode="&#x1e6;" horiz-adv-x="1542" 
d="M936 1600h-237l-232 306h246l102 -154h6l103 154h246zM811 793h605v-627q-101 -82 -254.5 -131t-318.5 -49q-157 0 -292.5 50.5t-235.5 143.5t-157 233.5t-57 311.5q0 159 51 296t143.5 237t230.5 157t305 57q161 0 315 -63.5t263 -185.5l-204 -173q-156 151 -374 151
q-90 0 -168 -33t-136.5 -93t-92 -150.5t-33.5 -199.5q0 -100 31 -187t87 -151t140 -101t184 -37q162 0 295 83v214h-327v247z" />
    <glyph glyph-name="gcaron" unicode="&#x1e7;" horiz-adv-x="1239" 
d="M726 1135h-237l-232 306h246l102 -154h6l103 154h246zM845 1000h268v-885q0 -96 -17 -176t-56 -147.5t-99 -114.5t-148.5 -73t-201.5 -26q-234 0 -410 101l62 226q54 -29 100 -48.5t105 -32t120 -12.5q135 0 209 63t74 159v101h-5q-111 -117 -291 -117q-137 0 -245.5 62
t-170 174.5t-61.5 255.5q0 145 59.5 261t165.5 181t238 65q86 0 163.5 -30.5t135.5 -89.5h5v103zM604 261q111 0 182 73t71 186t-72.5 183t-180.5 70q-112 0 -183 -71t-71 -184q0 -47 12.5 -87.5t35.5 -71.5t54.5 -53t70 -33.5t81.5 -11.5z" />
    <glyph glyph-name="uni01EA" unicode="&#x1ea;" horiz-adv-x="1682" 
d="M967 -8q-61 -18 -97 -57.5t-36 -82.5q0 -25 9.5 -44t28.5 -29t46 -10q11 0 19.5 0.5t15.5 1t11.5 1t10.5 2.5l8 2q1 1 7.5 3.5t8.5 3.5l13 -145q-56 -25 -149 -25q-107 0 -169.5 51.5t-62.5 135.5q0 46 27 96t78 91v2q-189 23 -333.5 123t-223.5 260t-79 356
q0 160 54.5 298t151 236t235 154t301.5 56q159 0 295.5 -54.5t234.5 -151t154 -235.5t56 -303q0 -148 -45.5 -276t-126.5 -222.5t-194.5 -156t-248.5 -81.5zM400 728q0 -132 55.5 -240.5t157.5 -172.5t230 -64q124 0 224.5 61.5t158 171t57.5 244.5t-57.5 244t-158 170
t-224.5 61q-128 0 -230 -63.5t-157.5 -172t-55.5 -239.5z" />
    <glyph glyph-name="uni01EB" unicode="&#x1eb;" horiz-adv-x="1225" 
d="M690 -12q-55 -21 -87 -58.5t-32 -77.5q0 -39 22 -61t62 -22q11 0 19.5 0.5t15.5 1t11.5 1t10.5 2.5l8 2q1 1 7.5 3.5t8.5 3.5l13 -145q-56 -25 -149 -25q-107 0 -169.5 51.5t-62.5 135.5q0 48 29 100t84 93v3q-121 26 -211.5 96t-139.5 175.5t-49 231.5q0 111 38.5 207
t107.5 164.5t169 107.5t217 39q115 0 214 -38t169 -105.5t109.5 -164.5t39.5 -210q0 -209 -125.5 -348.5t-329.5 -162.5zM352 499q0 -117 73.5 -196.5t187.5 -79.5q110 0 185 78t75 198q0 122 -74 199.5t-186 77.5q-77 0 -136.5 -36t-92 -99t-32.5 -142z" />
    <glyph glyph-name="Aringacute" unicode="&#x1fa;" horiz-adv-x="1430" 
d="M716 1558q-60 0 -110 27.5t-80 76.5t-30 110q0 89 62.5 151.5t157.5 62.5q89 0 153 -56l122 93l286 2l-340 -270q-4 -55 -32.5 -99.5t-78 -71t-110.5 -26.5zM716 1851q-32 0 -54.5 -23t-22.5 -54q0 -32 22.5 -54t54.5 -22t54.5 22.5t22.5 54.5q0 31 -22.5 53.5
t-54.5 22.5zM1095 0l-99 291h-558l-99 -291h-301l539 1455h278l541 -1455h-301zM521 537h391l-195 571h-2z" />
    <glyph glyph-name="aringacute" unicode="&#x1fb;" horiz-adv-x="1244" 
d="M617 1092q-91 0 -155.5 61t-64.5 153q0 58 27.5 107t78.5 78t114 29q86 0 147 -52l132 99l286 1l-343 -271q-3 -57 -31 -103.5t-78 -74t-113 -27.5zM617 1385q-32 0 -54.5 -23t-22.5 -54q0 -32 22.5 -54t54.5 -22t54.5 22.5t22.5 54.5q0 9 -2 17.5t-6 15.5t-9 14
t-11.5 12t-14.5 9t-16.5 6t-17.5 2zM849 887v113h268v-1000h-255v121h-5q-107 -138 -299 -138q-103 0 -191.5 37t-152 103.5t-99.5 163t-36 210.5q0 112 36 209t98.5 165t150 107t186.5 39q183 0 295 -130h4zM607 223q107 0 180 76t73 197q0 59 -19 111t-52.5 89t-80 58.5
t-100.5 21.5q-110 0 -183.5 -77t-73.5 -203q0 -121 71.5 -197t184.5 -76z" />
    <glyph glyph-name="AEacute" unicode="&#x1fc;" horiz-adv-x="1957" 
d="M1331 1907l-254 -302h-259l232 301zM1172 257h689v-257h-973v291h-428l-144 -291h-303l728 1455h1079v-258h-648v-348h527v-253h-527v-339zM581 537h307v614h-4z" />
    <glyph glyph-name="aeacute" unicode="&#x1fd;" horiz-adv-x="1624" 
d="M1194 1423l-254 -302h-259l232 301zM1569 509q0 -23 -3 -56t-5 -40l-655 -2q22 -88 84.5 -139t153.5 -51q40 0 79 15.5t67.5 38.5t53.5 53l185 -156q-68 -85 -172 -137t-229 -52q-103 0 -189.5 38.5t-146.5 107.5h-5q-56 -64 -148 -105t-207 -41q-94 0 -165.5 23.5
t-116 65.5t-66.5 97t-22 122q0 148 100.5 231t300.5 84h179v15q0 94 -36 131.5t-110 37.5q-130 0 -257 -66l-107 199q57 32 161.5 63t219.5 31q68 0 120.5 -12.5t97 -43.5t74.5 -80h5q122 136 317 136q127 0 228 -65.5t157.5 -181.5t56.5 -261zM1115 781q-76 0 -131 -46
t-77 -129h397q-21 81 -70.5 128t-118.5 47zM461 195q75 0 128 48.5t53 98.5v77l-151 -1q-81 -1 -124.5 -28.5t-43.5 -82.5q0 -50 36 -81t102 -31z" />
    <glyph glyph-name="Oslashacute" unicode="&#x1fe;" horiz-adv-x="1682" 
d="M1217 1906l-254 -302h-259l232 301zM1593 1387l-166 -182q155 -196 155 -477q0 -164 -56 -303.5t-154 -236t-234.5 -151t-295.5 -54.5q-242 0 -426 120l-160 -175l-138 129l157 170q-84 99 -129.5 226.5t-45.5 274.5q0 160 54.5 298t151 236t235 154t301.5 56
q261 0 450 -138l164 178zM400 728q0 -157 78 -279l619 673q-113 81 -254 81q-128 0 -230 -63.5t-157.5 -172t-55.5 -239.5zM1283 728q0 139 -62 253l-610 -665q105 -65 232 -65q124 0 224.5 61.5t158 171t57.5 244.5z" />
    <glyph glyph-name="oslashacute" unicode="&#x1ff;" horiz-adv-x="1225" 
d="M988 1441l-254 -302h-259l232 301zM1147 944l-109 -118q107 -135 107 -327q0 -151 -68 -269t-189 -182.5t-275 -64.5q-164 0 -290 73l-105 -113l-118 110l99 107q-118 140 -118 339q0 111 38.5 207t107.5 164.5t169 107.5t217 39q174 0 306 -84l111 120zM352 499
q0 -76 33 -139l357 383q-60 33 -129 33q-116 0 -188.5 -78.5t-72.5 -198.5zM873 499q0 65 -24 124l-348 -375q52 -25 112 -25q110 0 185 78t75 198z" />
    <glyph glyph-name="Scommaaccent" unicode="&#x218;" horiz-adv-x="1196" 
d="M597 -17q-145 0 -281.5 57t-248.5 172l173 213q40 -46 86.5 -81t93 -57t92.5 -33t90 -11q68 0 115.5 20t70.5 54t23 80q0 32 -10 57t-27.5 44t-51 37.5t-69.5 33t-95 34.5q-53 19 -94 35t-89 40.5t-83 49t-69.5 59t-56 73t-35 89t-13.5 107.5q0 115 62 210t169 149.5
t236 56.5q264 3 490 -183l-166 -217q-175 143 -317 143q-77 0 -125.5 -39t-49.5 -107q0 -27 10 -49t27 -39.5t50.5 -36t67 -33t90.5 -36.5q182 -71 241 -103q136 -74 181 -183q28 -68 28 -158q0 -92 -31 -168.5t-82 -127t-118.5 -86t-138.5 -51t-145 -15.5zM446 -451
l-56 151q61 18 86.5 43.5t25.5 70.5q0 29 -12 78h231q9 -39 9 -92q0 -124 -78.5 -190t-205.5 -61z" />
    <glyph glyph-name="scommaaccent" unicode="&#x219;" horiz-adv-x="917" 
d="M459 -17q-238 0 -405 147l130 185q125 -117 277 -117q57 0 90 23t33 60q0 23 -20 40.5t-55.5 32.5t-106.5 38q-45 15 -80.5 30t-72.5 35.5t-63.5 45.5t-48 56t-32.5 71t-11 87q0 89 47.5 157.5t129 105.5t183.5 37q105 0 193 -30t173 -96l-130 -196q-56 53 -118.5 79.5
t-120.5 26.5q-38 0 -68 -19.5t-30 -55.5q0 -30 35.5 -54t114.5 -54q166 -61 222 -97q97 -60 116 -160q6 -30 6 -67q0 -139 -99.5 -225t-288.5 -86zM298 -451l-56 151q61 18 86.5 43.5t25.5 70.5q0 28 -12 78h231q9 -39 9 -92q0 -124 -78.5 -190t-205.5 -61z" />
    <glyph glyph-name="uni021A" unicode="&#x21a;" horiz-adv-x="1210" 
d="M461 0v1197h-401v258h1091v-258h-403v-1197h-287zM442 -451l-56 151q61 18 86.5 43.5t25.5 70.5q0 29 -12 78h231q9 -39 9 -92q0 -124 -78.5 -190t-205.5 -61z" />
    <glyph glyph-name="uni021B" unicode="&#x21b;" horiz-adv-x="764" 
d="M447 -17q-133 0 -209.5 84.5t-76.5 248.5v462h-118v222h118v327l268 29v-356h272v-222h-272v-425q0 -66 20.5 -97t67.5 -31q58 0 126 35l69 -214q-57 -31 -115 -47t-150 -16zM272 -451l-56 151q61 18 86.5 43.5t25.5 70.5q0 29 -12 78h231q9 -39 9 -92q0 -124 -78.5 -190
t-205.5 -61z" />
    <glyph glyph-name="uni0232" unicode="&#x232;" horiz-adv-x="1295" 
d="M963 1874v-214h-623v214h623zM942 1455h333l-484 -816v-639h-291v639l-481 816h330l296 -531h4z" />
    <glyph glyph-name="uni0233" unicode="&#x233;" horiz-adv-x="1104" 
d="M868 1408v-214h-623v214h623zM791 1000h278l-539 -1405h-274l178 467l-400 938h280l245 -619h3z" />
    <glyph glyph-name="uni0237" unicode="&#x237;" horiz-adv-x="527" 
d="M106 -422q-66 0 -112.5 8t-96.5 28l45 223q44 -25 89 -25q49 0 75.5 35t26.5 104v1049h268v-1060q0 -176 -79.5 -269t-215.5 -93z" />
    <glyph glyph-name="uni0259" unicode="&#x259;" horiz-adv-x="1146" 
d="M534 1017q112 0 209 -36t169 -101.5t113 -164t41 -217.5q0 -112 -37.5 -208.5t-103.5 -163.5t-157.5 -105t-197.5 -38q-145 0 -257 65t-173 180.5t-61 261.5q0 70 7 98h707q-24 96 -95.5 146t-176.5 50q-124 0 -252 -61l-106 200q180 94 371 94zM561 219q87 0 147.5 44.5
t83.5 128.5h-445q16 -82 73.5 -127.5t140.5 -45.5z" />
    <glyph glyph-name="uni0272" unicode="&#x272;" horiz-adv-x="1212" 
d="M728 1017q83 0 147.5 -23.5t114 -72.5t75.5 -132t26 -196v-594h-268v527q0 138 -47 194t-145 56q-104 0 -165.5 -71t-61.5 -202v-558q0 -176 -80 -271.5t-215 -95.5q-66 0 -113 8t-97 28l45 213q45 -25 89 -25q48 0 75.5 38t27.5 101v1059h268v-129h3q61 71 144.5 108.5
t176.5 37.5z" />
    <glyph glyph-name="circumflex" unicode="&#x2c6;" horiz-adv-x="967" 
d="M588 1092l-103 154h-6l-102 -154h-245l227 306h237l239 -306h-247z" />
    <glyph glyph-name="caron" unicode="&#x2c7;" horiz-adv-x="967" 
d="M589 1398h246l-234 -306h-237l-232 306h246l102 -154h6z" />
    <glyph glyph-name="breve" unicode="&#x2d8;" horiz-adv-x="944" 
d="M472 1085q-87 0 -159 35t-120 106t-55 167h202q4 -56 39 -92.5t93 -36.5q55 0 91.5 35t39.5 94h203q-11 -135 -101 -221.5t-233 -86.5z" />
    <glyph glyph-name="dotaccent" unicode="&#x2d9;" horiz-adv-x="1026" 
d="M513 1098q-69 0 -117.5 48t-48.5 116q0 67 48.5 115t117.5 48q68 0 117 -48t49 -115q0 -68 -49 -116t-117 -48z" />
    <glyph glyph-name="ring" unicode="&#x2da;" horiz-adv-x="942" 
d="M470 1050q-91 0 -155.5 61t-64.5 153q0 89 62.5 151.5t157.5 62.5q93 0 157.5 -61t64.5 -153q0 -90 -62.5 -152t-159.5 -62zM470 1190q32 0 54.5 22.5t22.5 54.5q0 31 -22.5 53.5t-54.5 22.5t-54.5 -23t-22.5 -54q0 -32 22.5 -54t54.5 -22z" />
    <glyph glyph-name="ogonek" unicode="&#x2db;" horiz-adv-x="969" 
d="M559 -387q-107 0 -169.5 51.5t-62.5 135.5q0 60 45.5 124.5t127.5 104.5l211 -27q-81 -10 -131 -54.5t-50 -95.5q0 -26 9.5 -44.5t28.5 -28.5t46 -10q11 0 19.5 0.5t15.5 1t11.5 1t10.5 2.5l8 2q1 1 7.5 3.5t8.5 3.5l13 -145q-56 -25 -149 -25z" />
    <glyph glyph-name="tilde" unicode="&#x2dc;" horiz-adv-x="1019" 
d="M672 1088q-35 0 -70 10t-57.5 21.5t-51.5 29.5q-25 15 -38.5 22t-34.5 14t-39 7q-72 0 -115 -102l-160 69q33 108 96.5 173t149.5 65q39 0 75 -10t52.5 -18.5t48.5 -27.5q27 -17 38 -23t32.5 -14t40.5 -8q73 0 116 100l157 -52q-32 -118 -94.5 -187t-145.5 -69z" />
    <glyph glyph-name="hungarumlaut" unicode="&#x2dd;" horiz-adv-x="1093" 
d="M95 1096l231 301l269 1l-253 -302h-247zM513 1096l230 301l270 1l-254 -302h-246z" />
    <glyph glyph-name="gravecomb" unicode="&#x300;" horiz-adv-x="0" 
d="M-30 1096l-253 302l281 -1l231 -301h-259z" />
    <glyph glyph-name="acutecomb" unicode="&#x301;" horiz-adv-x="0" 
d="M-216 1096l232 301l281 1l-254 -302h-259z" />
    <glyph glyph-name="uni0302" unicode="&#x302;" horiz-adv-x="0" 
d="M104 1092l-103 154h-6l-102 -154h-245l227 306h237l239 -306h-247z" />
    <glyph glyph-name="tildecomb" unicode="&#x303;" horiz-adv-x="0" 
d="M170 1088q-50 0 -91.5 16t-87.5 45q-25 15 -38.5 22t-34.5 14t-39 7q-72 0 -115 -102l-160 69q22 70 55.5 122.5t83 84t107.5 31.5q30 0 55.5 -4.5t49.5 -14.5t35.5 -16.5t35.5 -20.5q27 -17 38 -23t32.5 -14t40.5 -8q36 0 66 26.5t50 73.5l157 -52q-32 -118 -94.5 -187
t-145.5 -69z" />
    <glyph glyph-name="uni0304" unicode="&#x304;" horiz-adv-x="0" 
d="M-310 1151v214h623v-214h-623z" />
    <glyph glyph-name="uni0306" unicode="&#x306;" horiz-adv-x="0" 
d="M0 1085q-87 0 -159 35t-120 106t-55 167h202q4 -56 39 -92.5t93 -36.5q56 0 92 35t39 94h203q-11 -135 -101 -221.5t-233 -86.5z" />
    <glyph glyph-name="uni0307" unicode="&#x307;" horiz-adv-x="0" 
d="M0 1098q-34 0 -64.5 13t-53 35t-35.5 52t-13 64q0 67 48.5 115t117.5 48q45 0 83 -22t60.5 -59.5t22.5 -81.5q0 -68 -49 -116t-117 -48z" />
    <glyph glyph-name="uni0308" unicode="&#x308;" horiz-adv-x="0" 
d="M-216 1098q-34 0 -65 13t-53.5 35t-35.5 52t-13 64q0 44 22 81.5t60.5 59.5t84.5 22q44 0 82.5 -22t61 -59.5t22.5 -81.5q0 -68 -49 -116t-117 -48zM213 1100q-68 0 -116.5 47.5t-48.5 114.5q0 32 13 62t35 52t53 35t64 13q67 0 115.5 -48.5t48.5 -113.5
q0 -67 -48.5 -114.5t-115.5 -47.5z" />
    <glyph glyph-name="hookabovecomb" unicode="&#x309;" horiz-adv-x="0" 
d="M-71 1053q-19 18 -28.5 32t-9.5 30q0 11 7 22t19 19.5t27 17t31 16.5t31 17t27 18t19 20.5t7 23.5q0 39 -58 39q-36 0 -73.5 -17.5t-64.5 -43.5l-93 89q41 41 110 69t141 28q50 0 90.5 -12t66.5 -34t40 -51.5t14 -64.5q0 -63 -48 -105.5t-137 -59.5l-15 -50z" />
    <glyph glyph-name="uni030A" unicode="&#x30a;" horiz-adv-x="0" 
d="M-4 1050q-91 0 -155.5 61t-64.5 153q0 89 62.5 151.5t157.5 62.5q93 0 157.5 -61t64.5 -153q0 -90 -62.5 -152t-159.5 -62zM-4 1190q32 0 54.5 22.5t22.5 54.5q0 31 -22.5 53.5t-54.5 22.5q-21 0 -39 -10.5t-28 -28.5t-10 -38q0 -32 22.5 -54t54.5 -22z" />
    <glyph glyph-name="uni030B" unicode="&#x30b;" horiz-adv-x="0" 
d="M-328 1096l231 301l269 1l-253 -302h-247zM90 1096l230 301l270 1l-254 -302h-246z" />
    <glyph glyph-name="uni030C" unicode="&#x30c;" horiz-adv-x="0" 
d="M106 1398h246l-234 -306h-237l-232 306h246l102 -154h6z" />
    <glyph glyph-name="uni0312" unicode="&#x312;" horiz-adv-x="0" 
d="M167 1451l56 -151q-61 -18 -86.5 -43.5t-25.5 -70.5q0 -28 12 -78h-231q-9 39 -9 92q0 124 78.5 190t205.5 61z" />
    <glyph glyph-name="uni031B" unicode="&#x31b;" horiz-adv-x="0" 
d="M-46 922l-5 143q29 2 52.5 8t40 16.5t29 22t20 30t12 34t6.5 41t2.5 44t0.5 49.5v145h251v-151q0 -190 -107.5 -290t-301.5 -92z" />
    <glyph glyph-name="dotbelowcomb" unicode="&#x323;" horiz-adv-x="0" 
d="M0 -184q69 0 117.5 -48t48.5 -116q0 -67 -48.5 -115t-117.5 -48q-45 0 -83 22t-60.5 59.5t-22.5 81.5q0 68 49 116t117 48z" />
    <glyph glyph-name="uni0326" unicode="&#x326;" horiz-adv-x="0" 
d="M-167 -451l-56 151q61 18 86.5 43.5t25.5 70.5q0 29 -12 78h231q9 -39 9 -92q0 -124 -78.5 -190t-205.5 -61z" />
    <glyph glyph-name="uni0327" unicode="&#x327;" horiz-adv-x="0" 
d="M-9 -64q91 -4 139.5 -46t48.5 -119q0 -74 -61.5 -118t-189.5 -44q-63 0 -125 12v120q40 -14 105 -14q40 0 69 14t29 44q0 29 -44.5 47.5t-123.5 18.5v76l42 85h147l-38 -73z" />
    <glyph glyph-name="uni0328" unicode="&#x328;" horiz-adv-x="0" 
d="M-160 -387q-107 0 -169.5 51.5t-62.5 135.5q0 60 45.5 124.5t127.5 104.5l211 -27q-81 -10 -131 -54.5t-50 -95.5q0 -26 9.5 -44.5t28.5 -28.5t46 -10q11 0 19.5 0.5t15.5 1t11.5 1t10.5 2.5l8 2q1 1 7.5 3.5t8.5 3.5l13 -145q-56 -25 -149 -25z" />
    <glyph glyph-name="uni0335" unicode="&#x335;" horiz-adv-x="0" 
d="M-292 451v171h592v-171h-592z" />
    <glyph glyph-name="uni0374" unicode="&#x374;" horiz-adv-x="579" 
d="M70 964l101 530h268l-149 -530h-220z" />
    <glyph glyph-name="uni0375" unicode="&#x375;" horiz-adv-x="569" 
d="M130 -318l101 530h268l-149 -530h-220z" />
    <glyph glyph-name="uni037E" unicode="&#x37e;" horiz-adv-x="517" 
d="M249 688q-70 0 -118.5 47.5t-48.5 115.5t48.5 116t118.5 48q68 0 116.5 -48.5t48.5 -115.5t-48.5 -115t-116.5 -48zM52 -272l63 533h274l-142 -533h-195z" />
    <glyph glyph-name="tonos" unicode="&#x384;" horiz-adv-x="952" 
d="M289 1096l112 353h298l-166 -353h-244z" />
    <glyph glyph-name="dieresistonos" unicode="&#x385;" horiz-adv-x="1159" 
d="M424 1096l10 353h227l-57 -353h-180zM207 1098q-69 0 -118 48t-49 116q0 67 49 115t118 48q68 0 117 -48t49 -115q0 -68 -49 -116t-117 -48zM857 1100q-68 0 -116.5 47.5t-48.5 114.5q0 65 48.5 113.5t116.5 48.5q67 0 115.5 -48.5t48.5 -113.5q0 -67 -48.5 -114.5
t-115.5 -47.5z" />
    <glyph glyph-name="Alphatonos" unicode="&#x386;" horiz-adv-x="1430" 
d="M1095 0l-99 291h-558l-99 -291h-301l539 1455h278l541 -1455h-301zM384 1451l-199 -353h-241l145 353h295zM521 537h391l-195 571h-2z" />
    <glyph glyph-name="anoteleia" unicode="&#x387;" horiz-adv-x="550" 
d="M277 688q-70 0 -118.5 47.5t-48.5 115.5t48.5 116t118.5 48q68 0 116.5 -48.5t48.5 -115.5t-48.5 -115t-116.5 -48z" />
    <glyph glyph-name="Epsilontonos" unicode="&#x388;" horiz-adv-x="1228" 
d="M159 0v1455h930v-258h-646v-349h518v-254h-518v-337h689v-257h-973zM-394 1100l145 353h295l-199 -353h-241z" />
    <glyph glyph-name="Etatonos" unicode="&#x389;" horiz-adv-x="1493" 
d="M160 0v1455h289v-630h595v630h290v-1455h-290v568h-595v-568h-289zM-394 1100l145 353h295l-199 -353h-241z" />
    <glyph glyph-name="Iotatonos" unicode="&#x38a;" horiz-adv-x="628" 
d="M169 0v1455h290v-1455h-290zM-391 1100l145 353h295l-199 -353h-241z" />
    <glyph glyph-name="Omicrontonos" unicode="&#x38c;" horiz-adv-x="1682" 
d="M842 -17q-163 0 -301.5 56t-235 154t-151 236.5t-54.5 298.5t54.5 298t151 236t235.5 154t301 56q159 0 295.5 -54.5t234.5 -151t154 -235.5t56 -303t-56 -303.5t-154 -236t-234.5 -151t-295.5 -54.5zM-238 1100l145 353h295l-199 -353h-241zM843 251q93 0 174.5 36
t140 99t92 152t33.5 190q0 135 -57.5 244t-158 170t-224.5 61q-128 0 -230 -63.5t-157.5 -172t-55.5 -239.5q0 -132 55.5 -240.5t157.5 -172.5t230 -64z" />
    <glyph glyph-name="Upsilontonos" unicode="&#x38e;" horiz-adv-x="1295" 
d="M942 1455h333l-484 -816v-639h-291v639l-481 816h330l296 -531h4zM-494 1100l145 353h295l-199 -353h-241z" />
    <glyph glyph-name="Omegatonos" unicode="&#x38f;" horiz-adv-x="1564" 
d="M1210 260v-3h238v-257h-570v257q137 104 212 238t75 292q0 121 -47.5 216.5t-135 149t-200.5 53.5t-200.5 -54t-135 -149t-47.5 -216q0 -158 75.5 -292t212.5 -238v-257h-570v257h238v3q-122 104 -189 241.5t-67 296.5q0 144 49.5 268.5t138 214t216.5 140.5t279 51
t279 -51t216.5 -140.5t138 -214t49.5 -268.5q0 -158 -66.5 -295.5t-188.5 -242.5zM-132 1453h295l-199 -353h-241z" />
    <glyph glyph-name="iotadieresistonos" unicode="&#x390;" horiz-adv-x="607" 
d="M181 1139l10 353h227l-57 -353h-180zM-36 1141q-69 0 -118 48t-49 116q0 67 49 115t118 48q68 0 117 -48t49 -115q0 -68 -49 -116t-117 -48zM614 1143q-68 0 -116.5 47.5t-48.5 114.5q0 65 48.5 113.5t116.5 48.5q67 0 115.5 -48.5t48.5 -113.5q0 -44 -22.5 -81t-60 -59
t-81.5 -22zM399 -17q-258 0 -258 284v733h268v-678q0 -42 7 -63.5t20 -28.5t38 -7q42 0 90 14l29 -214q-104 -40 -194 -40z" />
    <glyph glyph-name="Alpha" unicode="&#x391;" horiz-adv-x="1430" 
d="M1095 0l-99 291h-558l-99 -291h-301l539 1455h278l541 -1455h-301zM521 537h391l-195 571h-2z" />
    <glyph glyph-name="Beta" unicode="&#x392;" horiz-adv-x="1319" 
d="M942 771q140 -35 216 -130.5t76 -238.5q0 -88 -29.5 -161t-87 -127t-148 -84t-207.5 -30h-602v1455h525q232 0 353.5 -91t121.5 -264q0 -68 -21 -128.5t-71 -114t-126 -82.5v-4zM443 1200v-341h206q60 0 108 17.5t79.5 57t31.5 97.5q0 52 -24 89t-78 58.5t-136 21.5h-187
zM675 253q78 0 135.5 20.5t90.5 62t33 102.5q0 88 -65.5 138.5t-190.5 50.5h-235v-374h232z" />
    <glyph glyph-name="Gamma" unicode="&#x393;" horiz-adv-x="1178" 
d="M160 0v1455h957v-257h-669v-1198h-288z" />
    <glyph glyph-name="uni0394" unicode="&#x394;" horiz-adv-x="1404" 
d="M845 1455l486 -1234v-221h-1259v220l485 1235h288zM394 257h611l-300 837h-6z" />
    <glyph glyph-name="Epsilon" unicode="&#x395;" horiz-adv-x="1228" 
d="M159 0v1455h930v-258h-646v-349h518v-254h-518v-337h689v-257h-973z" />
    <glyph glyph-name="Zeta" unicode="&#x396;" horiz-adv-x="1277" 
d="M473 257h694v-257h-1062v225l678 965v7h-650v258h1032v-220l-692 -971v-7z" />
    <glyph glyph-name="Eta" unicode="&#x397;" horiz-adv-x="1493" 
d="M160 0v1455h289v-630h595v630h290v-1455h-290v568h-595v-568h-289z" />
    <glyph glyph-name="Theta" unicode="&#x398;" horiz-adv-x="1698" 
d="M842 -17q-163 0 -301.5 56t-235 154t-151 236.5t-54.5 298.5t54.5 298t151 236t235.5 154t301 56q159 0 295.5 -54.5t234.5 -151t154 -235.5t56 -303t-56 -303.5t-154 -236t-234.5 -151t-295.5 -54.5zM843 251q93 0 174.5 36t140 99t92 152t33.5 190q0 135 -57.5 244
t-158 170t-224.5 61q-128 0 -230 -63.5t-157.5 -172t-55.5 -239.5q0 -132 55.5 -240.5t157.5 -172.5t230 -64zM576 593v250h547v-250h-547z" />
    <glyph glyph-name="Iota" unicode="&#x399;" horiz-adv-x="628" 
d="M169 0v1455h290v-1455h-290z" />
    <glyph glyph-name="Kappa" unicode="&#x39a;" horiz-adv-x="1364" 
d="M591 583h-3l-141 -169v-414h-287v1455h287v-641h2l503 641h364l-536 -642l554 -813h-355z" />
    <glyph glyph-name="Lambda" unicode="&#x39b;" horiz-adv-x="1392" 
d="M1043 0l-347 1051h-2l-347 -1051h-308l514 1455h283l516 -1455h-309z" />
    <glyph glyph-name="Mu" unicode="&#x39c;" horiz-adv-x="1795" 
d="M1345 1455h290v-1455h-286v904h-3l-355 -628h-187l-355 628h-3v-904h-286v1455h290l447 -828h4z" />
    <glyph glyph-name="Nu" unicode="&#x39d;" horiz-adv-x="1546" 
d="M1098 1455h288v-1455h-295l-640 964h-4v-964h-287v1455h287l647 -983h4v983z" />
    <glyph glyph-name="Xi" unicode="&#x39e;" horiz-adv-x="1302" 
d="M124 1192v263h1053v-263h-1053zM238 594v252h821v-252h-821zM110 0v263h1082v-263h-1082z" />
    <glyph glyph-name="Omicron" unicode="&#x39f;" horiz-adv-x="1682" 
d="M842 -17q-163 0 -301.5 56t-235 154t-151 236.5t-54.5 298.5t54.5 298t151 236t235.5 154t301 56q159 0 295.5 -54.5t234.5 -151t154 -235.5t56 -303t-56 -303.5t-154 -236t-234.5 -151t-295.5 -54.5zM843 251q93 0 174.5 36t140 99t92 152t33.5 190q0 135 -57.5 244
t-158 170t-224.5 61q-128 0 -230 -63.5t-157.5 -172t-55.5 -239.5q0 -132 55.5 -240.5t157.5 -172.5t230 -64z" />
    <glyph glyph-name="Pi" unicode="&#x3a0;" horiz-adv-x="1434" 
d="M160 0v1455h1115v-1455h-289v1197h-537v-1197h-289z" />
    <glyph glyph-name="Rho" unicode="&#x3a1;" horiz-adv-x="1278" 
d="M160 0v1455h538q129 0 227.5 -36t158.5 -102t90 -153t30 -194q0 -118 -38 -208t-108.5 -148t-168 -87t-218.5 -29h-227v-498h-284zM444 753h191q132 0 201.5 60t69.5 163t-67.5 163t-191.5 60h-203v-446z" />
    <glyph glyph-name="Sigma" unicode="&#x3a3;" horiz-adv-x="1208" 
d="M1128 1198h-642v-5l340 -464l-341 -468v-4h643v-257h-1031v201l382 528l-382 517v209h1031v-257z" />
    <glyph glyph-name="Tau" unicode="&#x3a4;" horiz-adv-x="1210" 
d="M461 0v1197h-401v258h1091v-258h-403v-1197h-287z" />
    <glyph glyph-name="Upsilon" unicode="&#x3a5;" horiz-adv-x="1295" 
d="M942 1455h333l-484 -816v-639h-291v639l-481 816h330l296 -531h4z" />
    <glyph glyph-name="Phi" unicode="&#x3a6;" horiz-adv-x="1683" 
d="M1601 732q0 -247 -161.5 -405.5t-450.5 -192.5v-134h-287v133q-292 32 -455.5 191.5t-163.5 407.5q0 252 164 420t455 203v124h287v-125q287 -36 449.5 -203.5t162.5 -418.5zM377 734q0 -139 87.5 -231.5t245.5 -120.5v722q-157 -31 -245 -129.5t-88 -240.5zM981 383
q155 28 240.5 120.5t85.5 230.5q0 141 -86 239.5t-240 129.5v-720z" />
    <glyph glyph-name="Chi" unicode="&#x3a7;" horiz-adv-x="1437" 
d="M1048 0l-327 509h-3l-329 -509h-336l476 730l-462 725h330l320 -501h5l319 501h329l-460 -724l475 -731h-337z" />
    <glyph glyph-name="Psi" unicode="&#x3a8;" horiz-adv-x="1634" 
d="M1239 1455h280l-1 -527q-1 -291 -143.5 -448t-416.5 -159v-321h-284v321q-270 2 -414.5 158.5t-143.5 448.5l1 527h281l-1 -495q-1 -197 65 -288t212 -97v880h284v-880q95 4 156 43.5t92.5 124t31.5 217.5z" />
    <glyph glyph-name="uni03A9" unicode="&#x3a9;" horiz-adv-x="1564" 
d="M1210 260v-3h238v-257h-570v257q137 104 212 238t75 292q0 121 -47.5 216.5t-135 149t-200.5 53.5t-200.5 -54t-135 -149t-47.5 -216q0 -158 75.5 -292t212.5 -238v-257h-570v257h238v3q-122 104 -189 241.5t-67 296.5q0 144 49.5 268.5t138 214t216.5 140.5t279 51
t279 -51t216.5 -140.5t138 -214t49.5 -268.5q0 -158 -66.5 -295.5t-188.5 -242.5z" />
    <glyph glyph-name="Iotadieresis" unicode="&#x3aa;" horiz-adv-x="628" 
d="M93 1607q-70 0 -118.5 48t-48.5 116q0 67 49 115t118 48q68 0 117 -48t49 -115q0 -45 -22.5 -82.5t-61 -59.5t-82.5 -22zM537 1609q-34 0 -64.5 13t-52.5 34.5t-35 51.5t-13 63q0 65 48.5 113.5t116.5 48.5q44 0 81.5 -22t60 -59.5t22.5 -80.5q0 -67 -48.5 -114.5
t-115.5 -47.5zM169 0v1455h290v-1455h-290z" />
    <glyph glyph-name="Upsilondieresis" unicode="&#x3ab;" horiz-adv-x="1295" 
d="M421 1607q-70 0 -118.5 48t-48.5 116q0 67 49 115t118 48q68 0 117 -48t49 -115q0 -68 -49 -116t-117 -48zM865 1609q-45 0 -83 22t-60 59t-22 81q0 65 48.5 113.5t116.5 48.5q44 0 81.5 -22t60 -59.5t22.5 -80.5q0 -67 -48.5 -114.5t-115.5 -47.5zM942 1455h333
l-484 -816v-639h-291v639l-481 816h330l296 -531h4z" />
    <glyph glyph-name="alphatonos" unicode="&#x3ac;" horiz-adv-x="1224" 
d="M902 1492l-166 -353h-244l112 353h298zM1173 232l29 -211q-87 -38 -176 -38q-167 0 -203 149h-3q-102 -149 -295 -149q-136 0 -238 65t-156 181.5t-54 267.5q0 112 34.5 209t94.5 165t145 107t183 39q204 0 305 -167h4l8 150h253l-56 -451v-220q0 -29 3 -48.5t10.5 -33.5
t20 -20t31.5 -6q27 0 60 11zM569.5 223q100.5 0 167 74t80.5 197v9q-2 127 -64.5 200t-167.5 73q-101 0 -168 -77t-67 -203q0 -121 59.5 -197t160 -76z" />
    <glyph glyph-name="epsilontonos" unicode="&#x3ad;" horiz-adv-x="1034" 
d="M809 1492l-166 -353h-244l112 353h298zM875 290l113 -187q-112 -72 -224.5 -96t-266.5 -24q-189 0 -298.5 76t-109.5 216q0 84 41.5 148t122.5 99q-65 37 -100 93t-35 117q0 130 101.5 206t292.5 79q280 2 457 -103l-101 -188q-159 62 -316 59q-167 -2 -167 -84
q0 -34 38 -60.5t117 -27.5h169v-206h-185q-80 0 -120 -30.5t-40 -67.5q0 -94 205 -94q177 0 306 75z" />
    <glyph glyph-name="etatonos" unicode="&#x3ae;" horiz-adv-x="1205" 
d="M894 1492l-166 -353h-244l112 353h298zM721 1017q173 0 267 -103.5t94 -323.5v-995h-268v928q0 132 -48 192.5t-141 60.5q-99 0 -159.5 -72.5t-60.5 -203.5v-500h-268v1000h268v-129h3q61 71 142 108.5t171 37.5z" />
    <glyph glyph-name="iotatonos" unicode="&#x3af;" horiz-adv-x="607" 
d="M157 1139l112 353h298l-166 -353h-244zM399 -17q-258 0 -258 284v733h268v-678q0 -42 7 -63.5t20 -28.5t38 -7q42 0 90 14l29 -214q-104 -40 -194 -40z" />
    <glyph glyph-name="upsilondieresistonos" unicode="&#x3b0;" horiz-adv-x="1155" 
d="M476 1139l10 353h227l-57 -353h-180zM259 1141q-69 0 -118 48t-49 116q0 67 49 115t118 48q68 0 117 -48t49 -115q0 -68 -49 -116t-117 -48zM909 1143q-68 0 -116.5 47.5t-48.5 114.5q0 42 22 79.5t60.5 60t82.5 22.5t82 -22t60 -59.5t22 -80.5q0 -33 -13 -63
t-35.5 -51.5t-52.5 -34.5t-63 -13zM577 -17q-104 0 -188 31.5t-145.5 93t-94.5 158.5t-33 222v512h268v-495q0 -141 52.5 -211.5t140.5 -70.5q92 0 143.5 69.5t51.5 212.5v495h268v-512q0 -249 -122.5 -377t-340.5 -128z" />
    <glyph glyph-name="alpha" unicode="&#x3b1;" horiz-adv-x="1224" 
d="M1173 232l29 -211q-87 -38 -176 -38q-167 0 -203 149h-3q-102 -149 -295 -149q-136 0 -238 65t-156 181.5t-54 267.5q0 112 34.5 209t94.5 165t145 107t183 39q204 0 305 -167h4l8 150h253l-56 -451v-220q0 -29 3 -48.5t10.5 -33.5t20 -20t31.5 -6q27 0 60 11zM569 223
q67 0 120 33.5t86 95t42 142.5v9q-2 127 -64.5 200t-167.5 73q-101 0 -168 -77t-67 -203q0 -121 59.5 -197t159.5 -76z" />
    <glyph glyph-name="beta" unicode="&#x3b2;" horiz-adv-x="1227" 
d="M917 819q109 -53 172 -152.5t63 -215.5q0 -216 -126.5 -342t-339.5 -126q-173 0 -276 102h-5v-490h-268v1407q0 130 35.5 230.5t99.5 164t151 96t193 32.5q108 0 196 -30.5t146 -83t89 -122.5t31 -150q0 -221 -161 -317v-3zM647 211q106 0 170.5 63t64.5 166
q0 99 -72 166.5t-197 67.5h-74v217h60q53 0 93.5 15t63.5 37t37.5 52t19 56.5t4.5 54.5q0 51 -20.5 91.5t-65 66t-107.5 25.5q-44 0 -81.5 -14.5t-69 -44t-50 -82.5t-18.5 -123v-563q0 -102 69 -176.5t173 -74.5z" />
    <glyph glyph-name="gamma" unicode="&#x3b3;" horiz-adv-x="1104" 
d="M1070 1000l-385 -1005q9 -36 15 -75t8.5 -85.5t3.5 -77t1.5 -86t0.5 -76.5h-262q0 14 -0.5 65t-1 73.5t-4 70.5t-9.5 81.5t-17.5 80.5t-28.5 91l-356 943h285l233 -685h4l228 685h285z" />
    <glyph glyph-name="delta" unicode="&#x3b4;" horiz-adv-x="1181" 
d="M814 955q45 -26 84 -56.5t79 -74t68 -92t46 -113t18 -134.5q0 -76 -17.5 -144t-50 -123t-78.5 -99.5t-102 -74t-122 -45.5t-138 -16q-153 0 -272 63.5t-185 179t-66 264.5t76 264t203 187q-146 113 -146 275q0 132 104.5 220t286.5 89q268 2 452 -106l-102 -204
q-154 79 -325 79q-69 0 -110 -20.5t-41 -64.5t37.5 -77t138.5 -87zM601 223q48 0 91 17t75.5 49.5t51.5 82t19 110.5q0 44 -12 83.5t-33 71t-51.5 60t-63.5 50t-74 42.5q-18 9 -52 29q-94 -51 -148 -136.5t-54 -191.5q0 -117 69.5 -192t181.5 -75z" />
    <glyph glyph-name="epsilon" unicode="&#x3b5;" horiz-adv-x="1034" 
d="M875 290l113 -187q-112 -72 -224.5 -96t-266.5 -24q-189 0 -298.5 76t-109.5 216q0 84 41.5 148t122.5 99q-65 37 -100 93t-35 117q0 130 101.5 206t292.5 79q280 2 457 -103l-101 -188q-159 62 -316 59q-167 -2 -167 -84q0 -34 38 -60.5t117 -27.5h169v-206h-185
q-80 0 -120 -30.5t-40 -67.5q0 -94 205 -94q177 0 306 75z" />
    <glyph glyph-name="zeta" unicode="&#x3b6;" horiz-adv-x="966" 
d="M964 1309q-127 -99 -235.5 -203.5t-195 -212t-136 -214.5t-50.5 -197q-1 -107 87 -167q52 -34 200 -85h1l1 -1h1h1l1 -1h1h1l1 -1h2l2 -1q95 -31 157.5 -65t97.5 -73.5t48.5 -81t13.5 -96.5q0 -69 -28 -140.5t-64 -122t-82 -97.5l-224 114q30 32 46.5 51t38 48t31 55
t9.5 52q0 33 -16 57t-66 49.5t-141 51.5q-40 12 -72.5 23.5t-69.5 28t-66.5 36.5t-59 45t-51 57.5t-38.5 70.5t-25.5 86.5t-8.5 103.5q3 352 521 799v3h-445v227h812v-199z" />
    <glyph glyph-name="eta" unicode="&#x3b7;" horiz-adv-x="1205" 
d="M721 1017q173 0 267 -103.5t94 -323.5v-995h-268v928q0 132 -48 192.5t-141 60.5q-99 0 -159.5 -72.5t-60.5 -203.5v-500h-268v1000h268v-129h3q61 71 142 108.5t171 37.5z" />
    <glyph glyph-name="theta" unicode="&#x3b8;" horiz-adv-x="1215" 
d="M607 1525q77 0 145 -20t127.5 -60.5t106.5 -104t80.5 -147.5t51.5 -195t18 -243q0 -133 -18 -247t-58.5 -211.5t-101 -166.5t-150 -108t-201.5 -39q-77 0 -144.5 19.5t-127 59t-106.5 103t-80.5 148t-51.5 196.5t-18 246q0 131 18 243.5t58.5 210.5t101 167.5t149.5 109
t201 39.5zM607 1288q-75 0 -129 -49.5t-85 -142t-41 -225.5h511q-14 200 -78 308.5t-178 108.5zM607 220q114 0 179 110.5t78 319.5h-513q8 -138 38 -233t85 -146t133 -51z" />
    <glyph glyph-name="iota" unicode="&#x3b9;" horiz-adv-x="607" 
d="M399 -17q-258 0 -258 284v733h268v-678q0 -42 7 -63.5t20 -28.5t38 -7q42 0 90 14l29 -214q-104 -40 -194 -40z" />
    <glyph glyph-name="kappa" unicode="&#x3ba;" horiz-adv-x="1190" 
d="M548 390h-4l-140 -143v-247h-268v1000h268v-413h2l408 413h331l-412 -419l436 -581h-323z" />
    <glyph glyph-name="lambda" unicode="&#x3bb;" horiz-adv-x="1142" 
d="M827 0l-226 669h-4l-268 -669h-288l431 1003l-54 145q-18 53 -42 84.5t-49.5 43.5t-58.5 12q-59 0 -120 -19l-35 217q113 39 222 39q123 0 200.5 -76.5t145.5 -255.5q188 -499 427 -1193h-281z" />
    <glyph glyph-name="uni03BC" unicode="&#x3bc;" horiz-adv-x="1191" 
d="M798 1000h268v-1000h-247l-14 125h-4q-53 -68 -123 -105t-149 -37q-95 0 -149 47l-3 -3q19 -105 19 -226v-206h-268v1405h268v-513q0 -136 48.5 -200t143.5 -64q92 0 151 73.5t59 203.5v500z" />
    <glyph glyph-name="nu" unicode="&#x3bd;" horiz-adv-x="1106" 
d="M786 1000h286l-393 -1000h-250l-394 1000h283l235 -672h3z" />
    <glyph glyph-name="xi" unicode="&#x3be;" horiz-adv-x="1022" 
d="M675 222q173 -64 242 -137t69 -179q0 -90 -53.5 -188.5t-121.5 -167.5l-223 114q126 137 126 209q0 45 -42.5 77.5t-148.5 69.5q-52 17 -92 33t-88 39t-83.5 47.5t-70.5 58t-57.5 71t-36 85.5t-13.5 103q0 106 64.5 202t178.5 153v5q-173 109 -173 311q0 80 26 147
t69.5 112.5t101 77t119.5 46t126 14.5q241 0 423 -106l-103 -212q-151 79 -295 79q-94 0 -146.5 -50.5t-52.5 -122.5q0 -103 90 -154t278 -51h108v-224h-229q-148 0 -230 -60.5t-82 -149.5q0 -35 14 -65t38 -53t66.5 -47t88 -43t113.5 -44z" />
    <glyph glyph-name="omicron" unicode="&#x3bf;" horiz-adv-x="1199" 
d="M599.5 -17q-151.5 0 -270 64.5t-185 182.5t-66.5 269q0 114 38.5 210.5t107.5 164t166 105.5t210 38q151 0 270 -65t185 -183t66 -270q0 -151 -66 -268.5t-185 -182.5t-270.5 -65zM599 223q69 0 126.5 35t90.5 98.5t33 142.5q0 80 -33 144t-90 98.5t-127 34.5
q-108 0 -179 -77.5t-71 -199.5q0 -120 72 -198t178 -78z" />
    <glyph glyph-name="pi" unicode="&#x3c0;" horiz-adv-x="1277" 
d="M1232 1000v-227h-161v-773h-267v773h-329v-773h-267v773h-156v227h1180z" />
    <glyph glyph-name="rho" unicode="&#x3c1;" horiz-adv-x="1229" 
d="M623 1017q111 0 209 -38.5t169 -106.5t112 -165t41 -210t-35.5 -209t-97.5 -163t-148.5 -104.5t-185.5 -37.5q-182 0 -295 108h-5v-496h-268v902q0 111 35 206.5t99 165t159.5 109t210.5 39.5zM624 223q112 0 185 77t73 196q0 123 -74.5 201.5t-184.5 78.5
q-52 0 -98 -21.5t-79 -58.5t-52 -89t-19 -111q0 -80 34 -143t90.5 -96.5t124.5 -33.5z" />
    <glyph glyph-name="uni03C2" unicode="&#x3c2;" horiz-adv-x="1045" 
d="M785 -451l-225 115q3 3 8 9q30 31 45 47.5t34.5 43.5t28 52t8.5 53q0 46 -36.5 77.5t-141.5 70.5q-53 20 -95 38.5t-89 45t-82 54.5t-68.5 67t-54.5 83.5t-34 101.5t-13 123q0 144 66.5 255t187.5 171.5t279 60.5q120 0 232.5 -49.5t186.5 -142.5l-181 -156
q-93 107 -231 107q-122 0 -195 -68.5t-73 -178.5q0 -56 20 -101t62 -81.5t98 -65t138 -58.5q87 -32 144.5 -65t91.5 -72.5t47.5 -82t13.5 -97.5q0 -46 -12 -92t-26.5 -78.5t-42 -72t-44 -59.5t-47.5 -55z" />
    <glyph glyph-name="sigma" unicode="&#x3c3;" horiz-adv-x="1233" 
d="M1201 776h-236v-4q145 -132 145 -318q0 -81 -24 -153.5t-69.5 -130.5t-108 -100t-143.5 -64.5t-172 -22.5q-148 0 -264 61.5t-182 177.5t-66 268q0 150 66 266t186.5 180t276.5 64h591v-224zM597 223q109 0 174.5 74.5t65.5 192.5q0 85 -35.5 158.5t-96.5 127.5h-93
q-114 0 -186.5 -80.5t-72.5 -205.5q0 -121 71.5 -194t172.5 -73z" />
    <glyph glyph-name="tau" unicode="&#x3c4;" horiz-adv-x="963" 
d="M589 -17q-287 0 -287 335v458h-266v224h873v-224h-338v-409q0 -54 9 -84t31.5 -45t63.5 -15q55 0 135 37l67 -213q-131 -64 -288 -64z" />
    <glyph glyph-name="upsilon" unicode="&#x3c5;" horiz-adv-x="1155" 
d="M577 -17q-104 0 -188 31.5t-145.5 93t-94.5 158.5t-33 222v512h268v-495q0 -141 52.5 -211.5t140.5 -70.5q92 0 143.5 69.5t51.5 212.5v495h268v-512q0 -249 -122.5 -377t-340.5 -128z" />
    <glyph glyph-name="phi" unicode="&#x3c6;" horiz-adv-x="1472" 
d="M1394 541q0 -112 -36.5 -209.5t-104 -171.5t-170.5 -118.5t-229 -48.5v-398h-266v398q-87 3 -164.5 28t-139.5 71t-106.5 108.5t-68.5 144t-24 174.5q0 156 46 274t136 234l258 -58q-82 -96 -127 -209t-45 -217q0 -134 62.5 -217.5t174.5 -100.5v358q0 208 97.5 321
t257.5 113q138 0 240.5 -62t155.5 -169.5t53 -244.5zM852 222q132 14 203.5 101.5t71.5 213.5q0 60 -17.5 115t-53.5 91.5t-82 36.5q-27 0 -48 -8.5t-33.5 -25t-21 -35t-12.5 -45t-5.5 -49t-1.5 -51.5v-344z" />
    <glyph glyph-name="chi" unicode="&#x3c7;" horiz-adv-x="1092" 
d="M1059 -178l31 -212q-76 -32 -163 -32q-55 0 -97 15t-75.5 48.5t-59.5 78t-53 110.5l-97 224h-3l-231 -459h-288l396 723l-179 357q-28 56 -55.5 80t-69.5 24q-17 0 -52 -7l-34 213q77 32 166 32q52 0 93 -15.5t73 -48t56.5 -73.5t50.5 -102l84 -201h3l215 423h287
l-376 -680l198 -400q14 -28 27 -47.5t28 -33t31 -19.5t34 -6q20 0 60 8z" />
    <glyph glyph-name="psi" unicode="&#x3c8;" horiz-adv-x="1485" 
d="M1113 1000h261v-518q0 -122 -37 -217t-103.5 -156t-156.5 -93t-200 -34v-387h-267v387q-111 2 -201 34t-157 92.5t-104 155.5t-37 218v518h261v-496q0 -68 18.5 -121t51.5 -86t76 -50.5t95 -19.5v1083h261v-1083q107 4 173 74t66 203v496z" />
    <glyph glyph-name="omega" unicode="&#x3c9;" horiz-adv-x="1555" 
d="M1289 1028q42 -53 71 -100.5t56.5 -114t41.5 -151t14 -186.5q0 -93 -21 -173t-57.5 -138t-86 -99.5t-107 -62t-119.5 -20.5q-216 0 -302 173h-4q-86 -173 -302 -173q-78 0 -148 33t-124.5 94t-86.5 156t-32 210q0 102 14 186.5t41.5 151t56.5 114t71 100.5l242 -48
q-64 -98 -108.5 -228.5t-44.5 -249.5q0 -136 42.5 -207t115.5 -71q62 0 102 73.5t40 202.5v249h246v-249q0 -129 40 -202.5t102 -73.5q73 0 115.5 71t42.5 207q0 119 -44.5 249.5t-108.5 228.5z" />
    <glyph glyph-name="iotadieresis" unicode="&#x3ca;" horiz-adv-x="607" 
d="M56 1141q-70 0 -118.5 48t-48.5 116q0 67 49 115t118 48q68 0 117 -48t49 -115q0 -45 -22.5 -82.5t-61 -59.5t-82.5 -22zM500 1143q-68 0 -116.5 47.5t-48.5 114.5q0 65 48.5 113.5t116.5 48.5q44 0 81.5 -22t60 -59.5t22.5 -80.5q0 -67 -48.5 -114.5t-115.5 -47.5z
M399 -17q-258 0 -258 284v733h268v-678q0 -42 7 -63.5t20 -28.5t38 -7q42 0 90 14l29 -214q-104 -40 -194 -40z" />
    <glyph glyph-name="upsilondieresis" unicode="&#x3cb;" horiz-adv-x="1155" 
d="M349 1141q-70 0 -118.5 48t-48.5 116q0 67 49 115t118 48q68 0 117 -48t49 -115q0 -45 -22.5 -82.5t-61 -59.5t-82.5 -22zM793 1143q-45 0 -83 22t-60 59t-22 81q0 65 48.5 113.5t116.5 48.5q44 0 81.5 -22t60 -59.5t22.5 -80.5q0 -44 -22.5 -81.5t-60 -59t-81.5 -21.5z
M577 -17q-104 0 -188 31.5t-145.5 93t-94.5 158.5t-33 222v512h268v-495q0 -141 52.5 -211.5t140.5 -70.5q92 0 143.5 69.5t51.5 212.5v495h268v-512q0 -249 -122.5 -377t-340.5 -128z" />
    <glyph glyph-name="omicrontonos" unicode="&#x3cc;" horiz-adv-x="1199" 
d="M478 1139l112 353h298l-166 -353h-244zM599.5 -17q-151.5 0 -270 64.5t-185 182.5t-66.5 269q0 114 38.5 210.5t107.5 164t166 105.5t210 38q151 0 270 -65t185 -183t66 -270q0 -151 -66 -268.5t-185 -182.5t-270.5 -65zM599 223q69 0 126.5 35t90.5 98.5t33 142.5
q0 81 -33 144.5t-90 98t-127 34.5q-108 0 -179 -77.5t-71 -199.5q0 -120 72 -198t178 -78z" />
    <glyph glyph-name="upsilontonos" unicode="&#x3cd;" horiz-adv-x="1155" 
d="M450 1139l112 353h298l-166 -353h-244zM577 -17q-104 0 -188 31.5t-145.5 93t-94.5 158.5t-33 222v512h268v-495q0 -141 52.5 -211.5t140.5 -70.5q92 0 143.5 69.5t51.5 212.5v495h268v-512q0 -249 -122.5 -377t-340.5 -128z" />
    <glyph glyph-name="omegatonos" unicode="&#x3ce;" horiz-adv-x="1555" 
d="M1068 1492l-166 -353h-244l112 353h298zM1289 1028q42 -53 71 -100.5t56.5 -114t41.5 -151t14 -186.5q0 -93 -21 -173t-57.5 -138t-86 -99.5t-107 -62t-119.5 -20.5q-216 0 -302 173h-4q-86 -173 -302 -173q-78 0 -148 33t-124.5 94t-86.5 156t-32 210q0 102 14 186.5
t41.5 151t56.5 114t71 100.5l242 -48q-64 -98 -108.5 -228.5t-44.5 -249.5q0 -136 42.5 -207t115.5 -71q62 0 102 73.5t40 202.5v249h246v-249q0 -86 19 -149.5t51 -95t72 -31.5q73 0 115.5 71t42.5 207q0 41 -6 85.5t-16.5 87t-24.5 84.5t-31.5 81.5t-36 74.5t-38.5 65z
" />
    <glyph glyph-name="uni03D7" unicode="&#x3d7;" horiz-adv-x="1221" 
d="M724 580q51 -134 108 -213.5t142.5 -128t217.5 -73.5v-149q-118 -128 -206.5 -208.5t-182.5 -140t-187.5 -85t-204.5 -25.5q-232 0 -397 93l47 224q69 -49 154.5 -75t158.5 -26q244 0 482 218v3q-108 62 -188.5 161t-124.5 225h-3l-136 -148v-232h-268v1000h268v-419h3
l379 419h324z" />
    <glyph glyph-name="Wgrave" unicode="&#x1e80;" horiz-adv-x="2116" 
d="M1185 1605h-259l-253 302l281 -1zM1755 1455h307l-458 -1455h-267l-274 1035h-3l-283 -1035h-266l-458 1455h307l283 -984h4l259 984h305l257 -984h4z" />
    <glyph glyph-name="wgrave" unicode="&#x1e81;" horiz-adv-x="1581" 
d="M919 1139h-259l-253 302l281 -1zM1272 1000h269l-341 -1000h-231l-178 617h-3l-176 -617h-230l-341 1000h269l194 -608h3l175 608h216l177 -608h3z" />
    <glyph glyph-name="Wacute" unicode="&#x1e82;" horiz-adv-x="2116" 
d="M1451 1907l-254 -302h-259l232 301zM1755 1455h307l-458 -1455h-267l-274 1035h-3l-283 -1035h-266l-458 1455h307l283 -984h4l259 984h305l257 -984h4z" />
    <glyph glyph-name="wacute" unicode="&#x1e83;" horiz-adv-x="1581" 
d="M1180 1441l-254 -302h-259l232 301zM1272 1000h269l-341 -1000h-231l-178 617h-3l-176 -617h-230l-341 1000h269l194 -608h3l175 608h216l177 -608h3z" />
    <glyph glyph-name="Wdieresis" unicode="&#x1e84;" horiz-adv-x="2116" 
d="M844 1607q-70 0 -118.5 48t-48.5 116q0 67 49 115t118 48q68 0 117 -48t49 -115q0 -68 -49 -116t-117 -48zM1273 1609q-27 0 -52 8t-45.5 23t-35.5 35t-23.5 45t-8.5 51q0 43 22 80.5t60 59.5t83 22q67 0 115.5 -48.5t48.5 -113.5q0 -44 -22.5 -81.5t-60 -59t-81.5 -21.5
zM1755 1455h307l-458 -1455h-267l-274 1035h-3l-283 -1035h-266l-458 1455h307l283 -984h4l259 984h305l257 -984h4z" />
    <glyph glyph-name="wdieresis" unicode="&#x1e85;" horiz-adv-x="1581" 
d="M574 1141q-70 0 -118.5 48t-48.5 116q0 67 49 115t118 48q68 0 117 -48t49 -115q0 -45 -22.5 -82.5t-61 -59.5t-82.5 -22zM1003 1143q-68 0 -116.5 47.5t-48.5 114.5q0 66 48.5 114t116.5 48q44 0 81.5 -22t60 -59.5t22.5 -80.5q0 -44 -22.5 -81.5t-60 -59t-81.5 -21.5z
M1272 1000h269l-341 -1000h-231l-178 617h-3l-176 -617h-230l-341 1000h269l194 -608h3l175 608h216l177 -608h3z" />
    <glyph glyph-name="uni1E9E" unicode="&#x1e9e;" horiz-adv-x="1582" 
d="M1101 870q178 -70 244 -109q134 -80 170 -203q17 -57 17 -127q0 -92 -31 -168.5t-80.5 -127t-114.5 -86t-131 -51t-131 -15.5q-75 0 -150 18t-153 56.5t-147 95.5l132 249q51 -52 110.5 -89t112 -53.5t97.5 -16.5q58 0 100.5 20t63.5 54.5t21 79.5q0 32 -10 57.5
t-27.5 44.5t-51 37.5t-69.5 33t-95 34.5q-126 43 -244 109h-2l250 478v5q-170 21 -269 21q-147 0 -221.5 -62t-75.5 -203l-1 -951h-284l1 965q0 78 13.5 144t38.5 117.5t61.5 92t82.5 69t103 47.5t120.5 27.5t137.5 8.5q129 0 316 -27t362 -70l-266 -502v-3z" />
    <glyph glyph-name="uni1EA0" unicode="&#x1ea0;" horiz-adv-x="1430" 
d="M1396 0h-301l-99 291h-558l-99 -291h-301l539 1455h278zM521 537h391l-195 571h-2zM717 -184q34 0 64.5 -13t53 -35t35.5 -52t13 -64q0 -67 -48.5 -115t-117.5 -48q-45 0 -83 22t-60.5 59.5t-22.5 81.5q0 68 49 116t117 48z" />
    <glyph glyph-name="uni1EA1" unicode="&#x1ea1;" horiz-adv-x="1244" 
d="M849 1000h268v-1000h-255v121h-5q-107 -138 -299 -138q-103 0 -191.5 37t-152 103.5t-99.5 163t-36 210.5q0 112 36 209t98.5 165t150 107t186.5 39q183 0 295 -130h4v113zM607 223q107 0 180 76t73 197q0 120 -71.5 200t-180.5 80q-110 0 -183.5 -77t-73.5 -203
q0 -121 71.5 -197t184.5 -76zM603 -184q45 0 83.5 -22t60.5 -59.5t22 -82.5q0 -67 -48.5 -115t-117.5 -48q-33 0 -64 13t-53.5 35t-35.5 52t-13 63q0 68 49 116t117 48z" />
    <glyph glyph-name="uni1EA2" unicode="&#x1ea2;" horiz-adv-x="1430" 
d="M717 1817q-24 0 -50 -8.5t-48.5 -22t-39.5 -30.5l-93 89q27 27 66 48.5t88 35t97 13.5q100 0 155.5 -45t55.5 -117q0 -42 -22 -75.5t-63 -55.5t-100 -34l-15 -50l-103 -3q-19 18 -28.5 32t-9.5 30q0 21 26 41t57.5 34t58 35t26.5 44q0 39 -58 39zM1095 0l-99 291h-558
l-99 -291h-301l539 1455h278l541 -1455h-301zM521 537h391l-195 571h-2z" />
    <glyph glyph-name="uni1EA3" unicode="&#x1ea3;" horiz-adv-x="1244" 
d="M619 1351q-24 0 -50 -8.5t-48.5 -22t-39.5 -30.5l-93 89q27 27 66 48.5t88 35t97 13.5q50 0 90.5 -12t66.5 -34t40 -51.5t14 -64.5q0 -42 -22 -75.5t-63 -55.5t-100 -34l-15 -50l-103 -3q-19 18 -28.5 32t-9.5 30q0 21 26 41t57.5 34t58 35t26.5 44q0 39 -58 39z
M849 1000h268v-1000h-255v121h-5q-107 -138 -299 -138q-103 0 -191.5 37t-152 103.5t-99.5 163t-36 210.5q0 112 36 209t98.5 165t150 107t186.5 39q183 0 295 -130h4v113zM607 223q107 0 180 76t73 197q0 120 -71.5 200t-180.5 80q-110 0 -183.5 -77t-73.5 -203
q0 -121 71.5 -197t184.5 -76z" />
    <glyph glyph-name="uni1EA4" unicode="&#x1ea4;" horiz-adv-x="1430" 
d="M1522 1963l-305 -301h-200l232 300zM712 1722l-102 -154h-245l227 306h237l239 -306h-247l-103 154h-6zM577 1455h278l541 -1455h-301l-99 291h-558l-99 -291h-301zM521 537h391l-195 571h-2z" />
    <glyph glyph-name="uni1EA5" unicode="&#x1ea5;" horiz-adv-x="1244" 
d="M1366 1629l-305 -301h-200l232 300zM615 1289l-102 -154h-245l227 306h237l239 -306h-247l-103 154h-6zM849 887v113h268v-1000h-255v121h-5q-107 -138 -299 -138q-82 0 -156 23.5t-132.5 68.5t-101.5 107.5t-66 143t-23 171.5q0 112 36 209t98.5 165t150 107t186.5 39
q183 0 295 -130h4zM607 223q107 0 180 76t73 197q0 120 -71.5 200t-180.5 80q-110 0 -183.5 -77t-73.5 -203q0 -121 71.5 -197t184.5 -76z" />
    <glyph glyph-name="uni1EA6" unicode="&#x1ea6;" horiz-adv-x="1430" 
d="M1322 1662h-196l-248 302l270 -1zM713 1722l-102 -154h-245l227 306h237l239 -306h-247l-103 154h-6zM1095 0l-99 291h-558l-99 -291h-301l539 1455h278l541 -1455h-301zM521 537h391l-195 571h-2z" />
    <glyph glyph-name="uni1EA7" unicode="&#x1ea7;" horiz-adv-x="1244" 
d="M1139 1329h-196l-248 301l270 -1zM613 1289l-102 -154h-245l227 306h237l239 -306h-247l-103 154h-6zM849 887v113h268v-1000h-255v121h-5q-107 -138 -299 -138q-82 0 -156 23.5t-132.5 68.5t-101.5 107.5t-66 143t-23 171.5q0 112 36 209t98.5 165t150 107t186.5 39
q183 0 295 -130h4zM607 223q107 0 180 76t73 197q0 120 -71.5 200t-180.5 80q-110 0 -183.5 -77t-73.5 -203q0 -121 71.5 -197t184.5 -76z" />
    <glyph glyph-name="uni1EA8" unicode="&#x1ea8;" horiz-adv-x="1430" 
d="M1163 1855q-36 0 -73.5 -17.5t-64.5 -43.5l-93 89q27 27 66 48.5t88 35t97 13.5q93 0 146.5 -45t53.5 -117q0 -41 -21.5 -74.5t-60 -56t-92.5 -34.5l-15 -50l-103 -3q-38 36 -38 62q0 21 25 41t55 34t55 35.5t25 44.5q0 38 -50 38zM710 1722l-102 -154h-245l227 306h237
l239 -306h-247l-103 154h-6zM1095 0l-99 291h-558l-99 -291h-301l539 1455h278l541 -1455h-301zM521 537h391l-195 571h-2z" />
    <glyph glyph-name="uni1EA9" unicode="&#x1ea9;" horiz-adv-x="1244" 
d="M1006 1653q93 0 146.5 -45.5t53.5 -117.5q0 -41 -21.5 -74.5t-60 -56t-92.5 -34.5l-15 -50l-103 -3q-38 36 -38 63q0 21 25 40.5t55 33.5t55 35.5t25 44.5q0 38 -50 38q-36 0 -73.5 -17.5t-64.5 -43.5l-93 89q42 42 111 70t140 28zM614 1289l-102 -154h-245l227 306h237
l239 -306h-247l-103 154h-6zM849 887v113h268v-1000h-255v121h-5q-107 -138 -299 -138q-82 0 -156 23.5t-132.5 68.5t-101.5 107.5t-66 143t-23 171.5q0 112 36 209t98.5 165t150 107t186.5 39q183 0 295 -130h4zM607 223q107 0 180 76t73 197q0 120 -71.5 200t-180.5 80
q-110 0 -183.5 -77t-73.5 -203q0 -121 71.5 -197t184.5 -76z" />
    <glyph glyph-name="uni1EAA" unicode="&#x1eaa;" horiz-adv-x="1430" 
d="M592 1859q-22 0 -46 -20t-42 -54l-126 44q28 72 80 115.5t117 43.5q14 0 27.5 -1.5t27.5 -5t23 -6t23.5 -9t19.5 -8.5t20.5 -10t18.5 -9q58 -28 92 -28q31 0 58 19.5t45 54.5l124 -32q-27 -80 -81.5 -125.5t-125.5 -45.5q-62 0 -150 43q-72 34 -105 34zM710 1634
l-122 -125h-236l247 239h220l258 -239h-238l-123 125h-6zM1095 0l-99 291h-558l-99 -291h-301l539 1455h278l541 -1455h-301zM521 537h391l-195 571h-2z" />
    <glyph glyph-name="uni1EAB" unicode="&#x1eab;" horiz-adv-x="1244" 
d="M510 1579q-26 0 -51.5 -27t-45.5 -75l-160 69q33 107 92 172.5t132 65.5q21 0 39.5 -3t30.5 -5.5t29 -10t22.5 -10.5t23.5 -14t21 -13q24 -15 37 -22.5t34 -15t40 -7.5q24 0 46 12.5t39 34.5t30 53l158 -52q-32 -117 -94.5 -186.5t-145.5 -69.5q-50 0 -91.5 16t-87.5 45
q-9 5 -21 13t-19.5 12.5t-17 9t-19.5 6.5t-21 2zM494 1441h237l239 -306h-247l-103 154h-6l-102 -154h-245zM849 1000h268v-1000h-255v121h-5q-107 -138 -299 -138q-82 0 -156 23.5t-132.5 68.5t-101.5 107.5t-66 143t-23 171.5q0 112 36 209t98.5 165t150 107t186.5 39
q183 0 295 -130h4v113zM607 223q107 0 180 76t73 197q0 59 -19 111t-52.5 89t-80 58.5t-100.5 21.5q-110 0 -183.5 -77t-73.5 -203q0 -121 71.5 -197t184.5 -76z" />
    <glyph glyph-name="uni1EAC" unicode="&#x1eac;" horiz-adv-x="1430" 
d="M712 1755l-102 -154h-245l227 306h237l239 -306h-247l-103 154h-6zM1396 0h-301l-99 291h-558l-99 -291h-301l539 1455h278zM521 537h391l-195 571h-2zM717 -184q45 0 83.5 -22t60.5 -59.5t22 -82.5q0 -67 -48.5 -115t-117.5 -48q-45 0 -83 22t-60.5 59.5t-22.5 81.5
q0 45 22.5 82.5t60.5 59.5t83 22z" />
    <glyph glyph-name="uni1EAD" unicode="&#x1ead;" horiz-adv-x="1244" 
d="M614 1289l-102 -154h-245l227 306h237l239 -306h-247l-103 154h-6zM849 1000h268v-1000h-255v121h-5q-107 -138 -299 -138q-82 0 -156 23.5t-132.5 68.5t-101.5 107.5t-66 143t-23 171.5q0 112 36 209t98.5 165t150 107t186.5 39q183 0 295 -130h4v113zM607 223
q107 0 180 76t73 197q0 59 -19 111t-52.5 89t-80 58.5t-100.5 21.5q-110 0 -183.5 -77t-73.5 -203q0 -121 71.5 -197t184.5 -76zM603 -184q45 0 83.5 -22t60.5 -59.5t22 -82.5q0 -67 -48.5 -115t-117.5 -48q-34 0 -64.5 13t-53 35t-35.5 52t-13 63q0 68 49 116t117 48z" />
    <glyph glyph-name="uni1EAE" unicode="&#x1eae;" horiz-adv-x="1430" 
d="M1100 1944l-298 -212h-193l208 210zM716 1511q-134 0 -225 63t-125 180h173q19 -52 65.5 -79t111.5 -27q66 0 112 27t65 79h173q-34 -117 -124.5 -180t-225.5 -63zM1095 0l-99 291h-558l-99 -291h-301l539 1455h278l541 -1455h-301zM521 537h391l-195 571h-2z" />
    <glyph glyph-name="uni1EAF" unicode="&#x1eaf;" horiz-adv-x="1244" 
d="M953 1774l-254 -302h-259l232 301zM609 1128q-87 0 -159 35t-120 106t-55 167h202q4 -56 39 -92.5t93 -36.5q56 0 92 35t39 94h203q-11 -135 -101 -221.5t-233 -86.5zM849 1000h268v-1000h-255v121h-5q-107 -138 -299 -138q-82 0 -156 23.5t-132.5 68.5t-101.5 107.5
t-66 143t-23 171.5q0 112 36 209t98.5 165t150 107t186.5 39q183 0 295 -130h4v113zM607 223q107 0 180 76t73 197q0 59 -19 111t-52.5 89t-80 58.5t-100.5 21.5q-110 0 -183.5 -77t-73.5 -203q0 -121 71.5 -197t184.5 -76z" />
    <glyph glyph-name="uni1EB0" unicode="&#x1eb0;" horiz-adv-x="1430" 
d="M823 1732h-193l-298 212l283 -2zM540 1754q19 -52 65 -79t112 -27q65 0 111.5 27t64.5 79h174q-34 -117 -125 -180t-225 -63q-135 0 -225.5 63t-124.5 180h173zM1095 0l-99 291h-558l-99 -291h-301l539 1455h278l541 -1455h-301zM521 537h391l-195 571h-2z" />
    <glyph glyph-name="uni1EB1" unicode="&#x1eb1;" horiz-adv-x="1244" 
d="M722 1472h-259l-253 302l281 -1zM615 1307q55 0 91.5 35t39.5 94h203q-7 -88 -48.5 -157.5t-116 -110t-169.5 -40.5q-87 0 -159 35t-120 106t-55 167h202q4 -56 39 -92.5t93 -36.5zM849 1000h268v-1000h-255v121h-5q-107 -138 -299 -138q-82 0 -156 23.5t-132.5 68.5
t-101.5 107.5t-66 143t-23 171.5q0 112 36 209t98.5 165t150 107t186.5 39q183 0 295 -130h4v113zM607 223q107 0 180 76t73 197q0 59 -19 111t-52.5 89t-80 58.5t-100.5 21.5q-110 0 -183.5 -77t-73.5 -203q0 -121 71.5 -197t184.5 -76z" />
    <glyph glyph-name="uni1EB2" unicode="&#x1eb2;" horiz-adv-x="1430" 
d="M710 1869q-32 0 -65.5 -15.5t-58.5 -38.5l-82 80q37 37 98.5 61.5t125.5 24.5q81 0 128 -38.5t47 -99.5q0 -51 -40.5 -88t-110.5 -53l-14 -25l-56 -1q-51 0 -51 37q0 18 20.5 35t44.5 28.5t44.5 27.5t20.5 33q0 32 -51 32zM717 1511q-135 0 -225.5 63t-124.5 180h173
q19 -52 65 -79t112 -27q64 0 110.5 26.5t65.5 79.5h174q-34 -117 -125 -180t-225 -63zM1095 0l-99 291h-558l-99 -291h-301l539 1455h278l541 -1455h-301zM521 537h391l-195 571h-2z" />
    <glyph glyph-name="uni1EB3" unicode="&#x1eb3;" horiz-adv-x="1244" 
d="M619 1695q-36 0 -73.5 -17.5t-64.5 -43.5l-93 89q27 27 66 48.5t88 35t97 13.5q50 0 90.5 -12t66.5 -34t40 -51.5t14 -64.5q0 -32 -12.5 -58.5t-36 -47t-58 -35.5t-78.5 -24l-15 -50l-103 -3q-13 12 -20 20t-12.5 19.5t-5.5 22.5q0 21 26 41t57.5 34t58 35t26.5 44
q0 39 -58 39zM618 1128q-65 0 -122.5 20.5t-103 58.5t-74.5 97t-34 132h202q4 -56 39 -92.5t93 -36.5q56 0 92 35t39 94h203q-11 -135 -101 -221.5t-233 -86.5zM849 1000h268v-1000h-255v121h-5q-107 -138 -299 -138q-82 0 -156 23.5t-132.5 68.5t-101.5 107.5t-66 143
t-23 171.5q0 112 36 209t98.5 165t150 107t186.5 39q183 0 295 -130h4v113zM607 223q107 0 180 76t73 197q0 59 -19 111t-52.5 89t-80 58.5t-100.5 21.5q-110 0 -183.5 -77t-73.5 -203q0 -121 71.5 -197t184.5 -76z" />
    <glyph glyph-name="uni1EB4" unicode="&#x1eb4;" horiz-adv-x="1430" 
d="M592 1859q-22 0 -46 -20t-42 -54l-126 44q28 72 80 115.5t117 43.5q14 0 27.5 -1.5t27.5 -5t23 -6t23.5 -9t19.5 -8.5t20.5 -10t18.5 -9q58 -28 92 -28q31 0 58 19.5t45 54.5l124 -32q-27 -80 -81.5 -125.5t-125.5 -45.5q-62 0 -150 43q-72 34 -105 34zM716 1511
q-134 0 -225 63t-125 180h173q19 -52 65.5 -79t111.5 -27q66 0 112 27t65 79h173q-34 -117 -124.5 -180t-225.5 -63zM1095 0l-99 291h-558l-99 -291h-301l539 1455h278l541 -1455h-301zM521 537h391l-195 571h-2z" />
    <glyph glyph-name="uni1EB5" unicode="&#x1eb5;" horiz-adv-x="1244" 
d="M510 1579q-26 0 -51.5 -27t-45.5 -75l-160 69q33 107 92 172.5t132 65.5q21 0 39.5 -3t30.5 -5.5t29 -10t22.5 -10.5t23.5 -14t21 -13q24 -15 37 -22.5t34 -15t40 -7.5q24 0 46 12.5t39 34.5t30 53l158 -52q-32 -117 -94.5 -186.5t-145.5 -69.5q-50 0 -91.5 16t-87.5 45
q-9 5 -21 13t-19.5 12.5t-17 9t-19.5 6.5t-21 2zM618 1307q36 0 65 15.5t46.5 45t19.5 68.5h203q-11 -135 -101 -221.5t-233 -86.5q-87 0 -159 35t-120 106t-55 167h202q4 -56 39 -92.5t93 -36.5zM849 1000h268v-1000h-255v121h-5q-107 -138 -299 -138q-103 0 -191.5 37
t-152 103.5t-99.5 163t-36 210.5q0 112 36 209t98.5 165t150 107t186.5 39q183 0 295 -130h4v113zM607 223q107 0 180 76t73 197q0 59 -19 111t-52.5 89t-80 58.5t-100.5 21.5q-110 0 -183.5 -77t-73.5 -203q0 -121 71.5 -197t184.5 -76z" />
    <glyph glyph-name="uni1EB6" unicode="&#x1eb6;" horiz-adv-x="1430" 
d="M717 1594q-65 0 -122.5 20.5t-103 58.5t-74.5 97t-34 132h202q2 -27 11.5 -50.5t26 -41t41 -27.5t53.5 -10q55 0 91.5 35t39.5 94h203q-11 -135 -101 -221.5t-233 -86.5zM1396 0h-301l-99 291h-558l-99 -291h-301l539 1455h278zM521 537h391l-195 571h-2zM717 -184
q69 0 117.5 -48t48.5 -116q0 -44 -22 -81.5t-60.5 -59.5t-83.5 -22q-68 0 -117 48t-49 115q0 45 22.5 82.5t60.5 59.5t83 22z" />
    <glyph glyph-name="uni1EB7" unicode="&#x1eb7;" horiz-adv-x="1244" 
d="M619 1128q-87 0 -159 35t-120 106t-55 167h202q4 -56 39 -92.5t93 -36.5q55 0 91.5 35t39.5 94h203q-11 -135 -101 -221.5t-233 -86.5zM849 1000h268v-1000h-255v121h-5q-107 -138 -299 -138q-103 0 -191.5 37t-152 103.5t-99.5 163t-36 210.5q0 112 36 209t98.5 165
t150 107t186.5 39q183 0 295 -130h4v113zM607 223q107 0 180 76t73 197q0 59 -19 111t-52.5 89t-80.5 58.5t-100 21.5q-110 0 -183.5 -77t-73.5 -203q0 -121 71.5 -197t184.5 -76zM603 -184q45 0 83.5 -22t60.5 -59.5t22 -82.5q0 -67 -48.5 -115t-117.5 -48q-34 0 -64.5 13
t-53 35t-35.5 52t-13 63q0 68 49 116t117 48z" />
    <glyph glyph-name="uni1EB8" unicode="&#x1eb8;" horiz-adv-x="1228" 
d="M159 0v1455h930v-258h-646v-349h518v-254h-518v-337h689v-257h-973zM650 -184q69 0 117.5 -48t48.5 -116q0 -67 -48.5 -115t-117.5 -48q-68 0 -117 48t-49 115q0 68 49 116t117 48z" />
    <glyph glyph-name="uni1EB9" unicode="&#x1eb9;" horiz-adv-x="1146" 
d="M1068 509q0 -71 -7 -96h-701q24 -89 91.5 -140t163.5 -52q145 -1 239 113l174 -162q-68 -86 -178 -137.5t-254 -51.5q-146 0 -263 63.5t-184.5 182.5t-67.5 272q0 112 38 208.5t103.5 164t157.5 105.5t197 38q145 0 257 -65.5t173 -181t61 -261.5zM586 781
q-83 0 -142.5 -45t-82.5 -130h441q-21 82 -76 128.5t-140 46.5zM599 -184q69 0 117.5 -48t48.5 -116q0 -67 -48.5 -115t-117.5 -48q-68 0 -117 48t-49 115q0 68 49 116t117 48z" />
    <glyph glyph-name="uni1EBA" unicode="&#x1eba;" horiz-adv-x="1228" 
d="M566 1561q-19 18 -28.5 32t-9.5 30q0 21 26 41t58 34t58 35t26 44q0 39 -58 39q-36 0 -73.5 -17.5t-64.5 -43.5l-93 89q41 41 110 69t141 28q100 0 155.5 -45t55.5 -117q0 -63 -48 -105.5t-137 -59.5l-15 -50zM159 0v1455h930v-258h-646v-349h518v-254h-518v-337h689
v-257h-973z" />
    <glyph glyph-name="uni1EBB" unicode="&#x1ebb;" horiz-adv-x="1146" 
d="M592 1351q-24 0 -50 -8.5t-48.5 -22t-39.5 -30.5l-93 89q27 27 66 48.5t88 35t97 13.5q40 0 74.5 -8t59.5 -22.5t42.5 -34.5t26 -44.5t8.5 -52.5q0 -63 -48 -105.5t-137 -59.5l-15 -50l-103 -3q-19 18 -28.5 32t-9.5 30q0 21 26 41t57.5 34t58 35t26.5 44q0 39 -58 39z
M1068 509q0 -71 -7 -96h-701q24 -89 91.5 -140t163.5 -52q145 -1 239 113l174 -162q-68 -86 -178 -137.5t-254 -51.5q-146 0 -263 63.5t-184.5 182.5t-67.5 272q0 112 38 208.5t103.5 164t157.5 105.5t197 38q145 0 257 -65.5t173 -181t61 -261.5zM586 781q-83 0 -142.5 -45
t-82.5 -130h441q-21 82 -76 128.5t-140 46.5z" />
    <glyph glyph-name="uni1EBC" unicode="&#x1ebc;" horiz-adv-x="1228" 
d="M806 1596q-50 0 -91.5 16t-87.5 45q-25 15 -39 22t-34.5 14t-38.5 7q-72 0 -115 -102l-160 69q33 108 96.5 173t149.5 65q24 0 47 -4t38 -8t35 -13.5t28 -14t28 -16.5q2 -1 6 -4q23 -14 35 -21t32 -13.5t38 -6.5q36 0 66 26.5t50 73.5l157 -52q-21 -77 -55 -134
t-81.5 -89.5t-103.5 -32.5zM159 0v1455h930v-258h-646v-349h518v-254h-518v-337h689v-257h-973z" />
    <glyph glyph-name="uni1EBD" unicode="&#x1ebd;" horiz-adv-x="1146" 
d="M469 1235q-72 0 -115 -102l-160 69q33 108 96.5 173t149.5 65q30 0 55.5 -4.5t49.5 -14.5t35.5 -16.5t35.5 -20.5q2 -1 6 -4q23 -14 35 -21t32 -13.5t38 -6.5q24 0 46 12.5t39.5 34.5t30.5 53l157 -52q-21 -77 -55 -134t-81.5 -89.5t-103.5 -32.5q-50 0 -91.5 16
t-87.5 45q-25 15 -38.5 22t-34.5 14t-39 7zM1068 509q0 -71 -7 -96h-701q24 -89 91.5 -140t163.5 -52q145 -1 239 113l174 -162q-68 -86 -178 -137.5t-254 -51.5q-146 0 -263 63.5t-184.5 182.5t-67.5 272q0 112 38 208.5t103.5 164t157.5 105.5t197 38q145 0 257 -65.5
t173 -181t61 -261.5zM586 781q-83 0 -142.5 -45t-82.5 -130h441q-14 54 -42 92.5t-72.5 60.5t-101.5 22z" />
    <glyph glyph-name="uni1EBE" unicode="&#x1ebe;" horiz-adv-x="1228" 
d="M1170 1961l273 1l-305 -301h-200zM633 1721l-102 -154h-245l227 306h237l239 -306h-247l-103 154h-6zM443 594v-337h689v-257h-973v1455h930v-258h-646v-349h518v-254h-518z" />
    <glyph glyph-name="uni1EBF" unicode="&#x1ebf;" horiz-adv-x="1146" 
d="M1339 1629l-305 -301h-200l232 300zM588 1289l-102 -154h-245l227 306h237l239 -306h-247l-103 154h-6zM577 1017q145 0 257 -65.5t173 -181t61 -261.5q0 -71 -7 -96h-701q24 -89 91.5 -140t163.5 -52q145 -1 239 113l174 -162q-68 -86 -178 -137.5t-254 -51.5
q-146 0 -263 63.5t-184.5 182.5t-67.5 272q0 112 37.5 208.5t103.5 164t158 105.5t197 38zM586 781q-83 0 -142.5 -45t-82.5 -130h441q-21 82 -76 128.5t-140 46.5z" />
    <glyph glyph-name="uni1EC0" unicode="&#x1ec0;" horiz-adv-x="1228" 
d="M1243 1661h-196l-248 302l270 -1zM634 1721l-102 -154h-245l227 306h237l239 -306h-247l-103 154h-6zM443 594v-337h689v-257h-973v1455h930v-258h-646v-349h518v-254h-518z" />
    <glyph glyph-name="uni1EC1" unicode="&#x1ec1;" horiz-adv-x="1146" 
d="M1112 1329h-196l-248 301l270 -1zM586 1289l-102 -154h-245l227 306h237l239 -306h-247l-103 154h-6zM577 1017q145 0 257 -65.5t173 -181t61 -261.5q0 -71 -7 -96h-701q24 -89 91.5 -140t163.5 -52q145 -1 239 113l174 -162q-68 -86 -178 -137.5t-254 -51.5
q-146 0 -263 63.5t-184.5 182.5t-67.5 272q0 112 37.5 208.5t103.5 164t158 105.5t197 38zM586 781q-83 0 -142.5 -45t-82.5 -130h441q-21 82 -76 128.5t-140 46.5z" />
    <glyph glyph-name="uni1EC2" unicode="&#x1ec2;" horiz-adv-x="1228" 
d="M1104 1979q93 0 146.5 -45t53.5 -117q0 -62 -46.5 -104.5t-127.5 -60.5l-15 -50l-103 -3q-38 36 -38 62q0 21 25 41t55 34t55 35.5t25 44.5q0 38 -50 38q-36 0 -73.5 -17.5t-64.5 -43.5l-93 89q27 27 66 48.5t88 35t97 13.5zM631 1721l-102 -154h-245l227 306h237
l239 -306h-247l-103 154h-6zM443 594v-337h689v-257h-973v1455h930v-258h-646v-349h518v-254h-518z" />
    <glyph glyph-name="uni1EC3" unicode="&#x1ec3;" horiz-adv-x="1146" 
d="M979 1653q62 0 108 -21t69 -58t23 -84q0 -31 -12 -57.5t-35 -47.5t-55 -36t-72 -24l-15 -50l-103 -3q-38 36 -38 63q0 21 25 40.5t55 33.5t55 35.5t25 44.5q0 38 -50 38q-36 0 -73.5 -17.5t-64.5 -43.5l-93 89q42 42 111 70t140 28zM587 1289l-102 -154h-245l227 306h237
l239 -306h-247l-103 154h-6zM577 1017q145 0 257 -65.5t173 -181t61 -261.5q0 -71 -7 -96h-701q24 -89 91.5 -140t163.5 -52q145 -1 239 113l174 -162q-68 -86 -178 -137.5t-254 -51.5q-146 0 -263 63.5t-184.5 182.5t-67.5 272q0 112 38 208.5t103.5 164t157.5 105.5
t197 38zM586 781q-83 0 -142.5 -45t-82.5 -130h441q-14 54 -42 92.5t-72.5 60.5t-101.5 22z" />
    <glyph glyph-name="uni1EC4" unicode="&#x1ec4;" horiz-adv-x="1228" 
d="M513 1858q-22 0 -46 -20t-42 -54l-126 44q18 47 47 82.5t68 56t82 20.5q13 0 25.5 -1.5t22.5 -3t22 -5.5l19 -6q8 -3 20 -8.5t17.5 -8t17.5 -8.5l16 -8q58 -28 92 -28q31 0 58 20t45 54l124 -32q-18 -53 -48 -91t-71 -59t-88 -21q-62 0 -150 43q-72 34 -105 34zM631 1633
l-122 -125h-236l247 239h220l258 -239h-238l-123 125h-6zM443 257h689v-257h-973v1455h930v-258h-646v-349h518v-254h-518v-337z" />
    <glyph glyph-name="uni1EC5" unicode="&#x1ec5;" horiz-adv-x="1146" 
d="M483 1579q-26 0 -51.5 -27t-45.5 -75l-160 69q33 107 92 172.5t132 65.5q21 0 39.5 -3t30.5 -5.5t29 -10t22.5 -10.5t23.5 -14t21 -13q24 -15 37 -22.5t34 -15t40 -7.5q24 0 46 12.5t39 34.5t30 53l158 -52q-32 -117 -94.5 -186.5t-145.5 -69.5q-50 0 -91.5 16t-87.5 45
q-8 5 -25 16t-24.5 15t-21 8t-27.5 4zM467 1441h237l239 -306h-247l-103 154h-6l-102 -154h-245zM1068 509q0 -71 -7 -96h-701q24 -89 91.5 -140t163.5 -52q145 -1 239 113l174 -162q-68 -86 -178 -137.5t-254 -51.5q-146 0 -263 63.5t-184.5 182.5t-67.5 272
q0 112 38 208.5t103.5 164t157.5 105.5t197 38q145 0 257 -65.5t173 -181t61 -261.5zM586 781q-83 0 -142.5 -45t-82.5 -130h441q-14 54 -42 92.5t-72.5 60.5t-101.5 22z" />
    <glyph glyph-name="uni1EC6" unicode="&#x1ec6;" horiz-adv-x="1228" 
d="M633 1754l-102 -154h-245l227 306h237l239 -306h-247l-103 154h-6zM443 257h689v-257h-973v1455h930v-258h-646v-349h518v-254h-518v-337zM650 -184q69 0 117.5 -48t48.5 -116q0 -67 -48.5 -115t-117.5 -48q-68 0 -117 48t-49 115q0 68 49 116t117 48z" />
    <glyph glyph-name="uni1EC7" unicode="&#x1ec7;" horiz-adv-x="1146" 
d="M587 1289l-102 -154h-245l227 306h237l239 -306h-247l-103 154h-6zM1068 509q0 -71 -7 -96h-701q24 -89 91.5 -140t163.5 -52q145 -1 239 113l174 -162q-68 -86 -178 -137.5t-254 -51.5q-146 0 -263 63.5t-184.5 182.5t-67.5 272q0 112 38 208.5t103.5 164t157.5 105.5
t197 38q145 0 257 -65.5t173 -181t61 -261.5zM586 781q-83 0 -142.5 -45t-82.5 -130h441q-21 82 -76 128.5t-140 46.5zM599 -184q69 0 117.5 -48t48.5 -116q0 -67 -48.5 -115t-117.5 -48q-68 0 -117 48t-49 115q0 68 49 116t117 48z" />
    <glyph glyph-name="uni1EC8" unicode="&#x1ec8;" horiz-adv-x="628" 
d="M241 1561q-13 12 -20 20t-12.5 19.5t-5.5 22.5q0 21 26.5 41t58 34t57.5 35t26 44q0 39 -58 39q-36 0 -73.5 -17.5t-64.5 -43.5l-93 89q41 41 110 69t141 28q67 0 115 -21.5t72 -57.5t24 -83q0 -63 -48 -105.5t-137 -59.5l-15 -50zM169 0v1455h290v-1455h-290z" />
    <glyph glyph-name="uni1EC9" unicode="&#x1ec9;" horiz-adv-x="564" 
d="M211 1096q-19 18 -28.5 32t-9.5 30q0 21 26.5 41t57.5 34t57.5 35t26.5 44q0 39 -58 39q-36 0 -73.5 -17.5t-64.5 -43.5l-93 89q41 41 110 69t141 28q100 0 155.5 -45t55.5 -117q0 -63 -48 -105.5t-137 -59.5l-15 -50zM148 0v1000h268v-1000h-268z" />
    <glyph glyph-name="uni1ECA" unicode="&#x1eca;" horiz-adv-x="628" 
d="M169 0v1455h290v-1455h-290zM315 -184q69 0 117.5 -48t48.5 -116q0 -67 -48.5 -115t-117.5 -48q-68 0 -117 48t-49 115q0 22 6 43.5t17 39.5t26 33t33.5 25.5t40 16.5t43.5 6z" />
    <glyph glyph-name="uni1ECB" unicode="&#x1ecb;" horiz-adv-x="564" 
d="M282 1141q-45 0 -83.5 22t-60.5 59.5t-22 82.5q0 67 48.5 115t117.5 48q68 0 117 -48t49 -115q0 -68 -49 -116t-117 -48zM148 0v1000h268v-1000h-268zM283 -184q69 0 117.5 -48t48.5 -116q0 -67 -48.5 -115t-117.5 -48q-68 0 -117 48t-49 115q0 68 49 116t117 48z" />
    <glyph glyph-name="uni1ECC" unicode="&#x1ecc;" horiz-adv-x="1682" 
d="M842 -17q-163 0 -301.5 56t-235 154t-151 236.5t-54.5 298.5t54.5 298t151 236t235.5 154t301 56q159 0 295.5 -54.5t234.5 -151t154 -235.5t56 -303t-56 -303.5t-154 -236t-234.5 -151t-295.5 -54.5zM843 251q93 0 174.5 36t140 99t92 152t33.5 190q0 135 -57.5 244
t-158 170t-224.5 61q-128 0 -230 -63.5t-157.5 -172t-55.5 -239.5q0 -132 55.5 -240.5t157.5 -172.5t230 -64zM843 -184q45 0 83.5 -22t60.5 -59.5t22 -82.5q0 -67 -48.5 -115t-117.5 -48q-68 0 -117 48t-49 115q0 68 49 116t117 48z" />
    <glyph glyph-name="uni1ECD" unicode="&#x1ecd;" horiz-adv-x="1225" 
d="M613 -17q-94 0 -177 25t-147.5 71t-111.5 109.5t-71.5 142.5t-24.5 168q0 111 38.5 207t107.5 164.5t169 107.5t217 39q115 0 214 -38t169 -105.5t109.5 -164t39.5 -210.5q0 -151 -68 -269t-189 -182.5t-275 -64.5zM613 223q110 0 185 78t75 198q0 122 -74 199.5
t-186 77.5q-116 0 -188.5 -78.5t-72.5 -198.5q0 -117 73.5 -196.5t187.5 -79.5zM614 -184q45 0 83.5 -22t60.5 -59.5t22 -82.5q0 -67 -48.5 -115t-117.5 -48q-68 0 -117 48t-49 115q0 68 49 116t117 48z" />
    <glyph glyph-name="uni1ECE" unicode="&#x1ece;" horiz-adv-x="1682" 
d="M773 1562q-19 18 -28.5 32t-9.5 30q0 21 26 41t57.5 34t58 35t26.5 44q0 39 -58 39q-24 0 -50 -8.5t-48.5 -22t-39.5 -30.5l-93 89q27 27 66 48.5t88 35t97 13.5q100 0 155.5 -45t55.5 -117q0 -25 -8 -47.5t-23.5 -41t-38 -33t-51.5 -25.5t-64 -18l-15 -50zM842 -17
q-162 0 -301 56t-235.5 154t-151 236.5t-54.5 298.5t54.5 298t151 236t235.5 154t301 56q159 0 295.5 -54.5t234.5 -151t154 -235.5t56 -303t-56 -303.5t-154 -236t-234.5 -151t-295.5 -54.5zM843 251q93 0 174.5 36t140 99t92 152t33.5 190q0 135 -57.5 244t-158 170
t-224.5 61q-128 0 -230 -63.5t-157.5 -172t-55.5 -239.5q0 -132 55.5 -240.5t157.5 -172.5t230 -64z" />
    <glyph glyph-name="uni1ECF" unicode="&#x1ecf;" horiz-adv-x="1225" 
d="M543 1096q-19 18 -28.5 32t-9.5 30q0 21 26.5 41t58 34t57.5 35t26 44q0 39 -58 39q-36 0 -73.5 -17.5t-64.5 -43.5l-93 89q27 27 66 48.5t88 35t97 13.5q100 0 155.5 -45t55.5 -117q0 -42 -22 -75.5t-63 -55.5t-100 -34l-15 -50zM613 -17q-94 0 -177 25t-147.5 71
t-111.5 109.5t-71.5 142.5t-24.5 168q0 111 38.5 207t107.5 164.5t169 107.5t217 39q115 0 214 -38t169 -105.5t109.5 -164t39.5 -210.5q0 -151 -68 -269t-189 -182.5t-275 -64.5zM613 223q110 0 185 78t75 198q0 122 -74 199.5t-186 77.5q-33 0 -63.5 -7t-56.5 -20.5
t-48 -32t-39 -42t-29.5 -51t-18.5 -59t-6 -65.5q0 -117 73.5 -196.5t187.5 -79.5z" />
    <glyph glyph-name="uni1ED0" unicode="&#x1ed0;" horiz-adv-x="1682" 
d="M1650 1963l-305 -301h-200l232 300zM840 1722l-102 -154h-245l227 306h237l239 -306h-247l-103 154h-6zM842 1472q159 0 295.5 -54.5t234.5 -151t154 -235.5t56 -303t-56 -303.5t-154 -236t-234.5 -151t-295.5 -54.5q-163 0 -301.5 56t-235 154.5t-151 236.5t-54.5 298
t54.5 298t151 236t235.5 154t301 56zM843 251q93 0 174.5 36.5t140 99t92 151.5t33.5 190q0 135 -57.5 244t-158 170t-224.5 61q-128 0 -230 -63.5t-157.5 -172t-55.5 -239.5q0 -132 55.5 -240.5t157.5 -172.5t230 -64z" />
    <glyph glyph-name="uni1ED1" unicode="&#x1ed1;" horiz-adv-x="1225" 
d="M1362 1629l-305 -301h-200l232 300zM611 1289l-102 -154h-245l227 306h237l239 -306h-247l-103 154h-6zM613 1017q154 0 275 -65t189 -183.5t68 -269.5t-68 -269t-189 -182.5t-275 -64.5q-117 0 -217 39t-169 107t-107.5 163.5t-38.5 206.5t38.5 207t107.5 164.5
t169 107.5t217 39zM613 223q110 0 185 78t75 198q0 122 -74 199.5t-186 77.5q-77 0 -136.5 -36t-92 -99t-32.5 -142q0 -117 73.5 -196.5t187.5 -79.5z" />
    <glyph glyph-name="uni1ED2" unicode="&#x1ed2;" horiz-adv-x="1682" 
d="M1450 1662h-196l-248 302l270 -1zM841 1722l-102 -154h-245l227 306h237l239 -306h-247l-103 154h-6zM842 1472q159 0 295.5 -54.5t234.5 -151t154 -235.5t56 -303t-56 -303.5t-154 -236t-234.5 -151t-295.5 -54.5q-163 0 -301.5 56t-235 154.5t-151 236.5t-54.5 298
t54.5 298t151 236t235.5 154t301 56zM843 251q93 0 174.5 36t140 99t92 152t33.5 190q0 135 -57.5 244t-158 170t-224.5 61q-128 0 -230 -63.5t-157.5 -172t-55.5 -239.5q0 -132 55.5 -240.5t157.5 -172.5t230 -64z" />
    <glyph glyph-name="uni1ED3" unicode="&#x1ed3;" horiz-adv-x="1225" 
d="M1135 1329h-196l-248 301l270 -1zM609 1289l-102 -154h-245l227 306h237l239 -306h-247l-103 154h-6zM613 1017q154 0 275 -65t189 -183.5t68 -269.5t-68 -269t-189 -182.5t-275 -64.5q-78 0 -149.5 17.5t-130 50t-106 79t-79.5 103.5t-49.5 124.5t-17.5 141.5
q0 111 38.5 207t107.5 164.5t169 107.5t217 39zM613 223q110 0 185 78t75 198q0 122 -74 199.5t-186 77.5q-77 0 -136.5 -36t-92 -99t-32.5 -142q0 -117 73.5 -196.5t187.5 -79.5z" />
    <glyph glyph-name="uni1ED4" unicode="&#x1ed4;" horiz-adv-x="1682" 
d="M1291 1855q-36 0 -73.5 -17.5t-64.5 -43.5l-93 89q27 27 66 48.5t88 35t97 13.5q93 0 146.5 -45t53.5 -117q0 -41 -21.5 -74.5t-60 -56t-92.5 -34.5l-15 -50l-103 -3q-38 36 -38 62q0 21 25 41t55 34t55 35.5t25 44.5q0 38 -50 38zM838 1722l-102 -154h-245l227 306h237
l239 -306h-247l-103 154h-6zM842 1472q159 0 295.5 -54.5t234.5 -151t154 -235.5t56 -303t-56 -303.5t-154 -236t-234.5 -151t-295.5 -54.5q-163 0 -301.5 56t-235 154.5t-151 236.5t-54.5 298t54.5 298t151 236t235.5 154t301 56zM843 251q93 0 174.5 36.5t140 99t92 151.5
t33.5 190q0 135 -57.5 244t-158 170t-224.5 61q-128 0 -230 -63.5t-157.5 -172t-55.5 -239.5q0 -132 55.5 -240.5t157.5 -172.5t230 -64z" />
    <glyph glyph-name="uni1ED5" unicode="&#x1ed5;" horiz-adv-x="1225" 
d="M1002 1653q62 0 108 -21t69 -58t23 -84q0 -41 -21.5 -74.5t-60 -56t-92.5 -34.5l-15 -50l-103 -3q-38 36 -38 63q0 21 25 40.5t55 33.5t55 35.5t25 44.5q0 38 -50 38q-36 0 -73.5 -17.5t-64.5 -43.5l-93 89q42 42 111 70t140 28zM610 1289l-102 -154h-245l227 306h237
l239 -306h-247l-103 154h-6zM613 1017q154 0 275 -65t189 -183.5t68 -269.5t-68 -269t-189 -182.5t-275 -64.5q-67 0 -129.5 13t-115.5 37.5t-98 59t-80 78.5t-59.5 95.5t-37 110.5t-12.5 122q0 111 38.5 207t107.5 164.5t169 107.5t217 39zM613 223q110 0 185 78t75 198
q0 122 -74 199.5t-186 77.5q-116 0 -188.5 -78.5t-72.5 -198.5q0 -117 73.5 -196.5t187.5 -79.5z" />
    <glyph glyph-name="uni1ED6" unicode="&#x1ed6;" horiz-adv-x="1682" 
d="M720 1859q-22 0 -46 -20t-42 -54l-126 44q28 72 80 115.5t117 43.5q14 0 27.5 -1.5t27.5 -5t23 -6t23.5 -9t19.5 -8.5t20.5 -10t18.5 -9q58 -28 92 -28q31 0 58 19.5t45 54.5l124 -32q-27 -80 -81.5 -125.5t-125.5 -45.5q-62 0 -150 43q-72 34 -105 34zM838 1634
l-122 -125h-236l247 239h220l258 -239h-238l-123 125h-6zM842 1472q159 0 295.5 -54.5t234.5 -151t154 -235.5t56 -303t-56 -303.5t-154 -236t-234.5 -151t-295.5 -54.5q-162 0 -301 56t-235.5 154t-151 236.5t-54.5 298.5t54.5 298t151 236t235.5 154t301 56zM843 251
q93 0 174.5 36t140 99t92 152t33.5 190q0 135 -57.5 244t-158 170t-224.5 61q-128 0 -230 -63.5t-157.5 -172t-55.5 -239.5q0 -132 55.5 -240.5t157.5 -172.5t230 -64z" />
    <glyph glyph-name="uni1ED7" unicode="&#x1ed7;" horiz-adv-x="1225" 
d="M506 1579q-18 0 -35.5 -12.5t-33 -35.5t-28.5 -54l-160 69q33 107 92 172.5t132 65.5q21 0 39.5 -3t30.5 -5.5t29 -10t22.5 -10.5t23.5 -14t21 -13q24 -15 37 -22.5t34 -15t40 -7.5q24 0 46 12.5t39 34.5t30 53l158 -52q-32 -117 -94.5 -186.5t-145.5 -69.5
q-50 0 -91.5 16t-87.5 45q-8 5 -25 16t-24.5 15t-21 8t-27.5 4zM490 1441h237l239 -306h-247l-103 154h-6l-102 -154h-245zM613 1017q154 0 275 -65t189 -183.5t68 -269.5t-68 -269t-189 -182.5t-275 -64.5q-67 0 -129.5 13t-115.5 37.5t-98 59t-80 78.5t-59.5 95.5
t-37 110.5t-12.5 122q0 111 38.5 207t107.5 164.5t169 107.5t217 39zM613 223q110 0 185 78t75 198q0 122 -74 199.5t-186 77.5q-77 0 -136.5 -36t-92 -99t-32.5 -142q0 -117 73.5 -196.5t187.5 -79.5z" />
    <glyph glyph-name="uni1ED8" unicode="&#x1ed8;" horiz-adv-x="1682" 
d="M840 1755l-102 -154h-245l227 306h237l239 -306h-247l-103 154h-6zM842 1472q159 0 295.5 -54.5t234.5 -151t154 -235.5t56 -303t-56 -303.5t-154 -236t-234.5 -151t-295.5 -54.5q-163 0 -301.5 56t-235 154.5t-151 236.5t-54.5 298t54.5 298t151 236t235.5 154t301 56z
M843 251q93 0 174.5 36.5t140 99t92 151.5t33.5 190q0 135 -57.5 244t-158 170t-224.5 61q-128 0 -230 -63.5t-157.5 -172t-55.5 -239.5q0 -132 55.5 -240.5t157.5 -172.5t230 -64zM843 -184q45 0 83.5 -22t60.5 -59.5t22 -82.5q0 -67 -48.5 -115t-117.5 -48q-68 0 -117 48
t-49 115q0 68 49 116t117 48z" />
    <glyph glyph-name="uni1ED9" unicode="&#x1ed9;" horiz-adv-x="1225" 
d="M610 1289l-102 -154h-245l227 306h237l239 -306h-247l-103 154h-6zM613 1017q154 0 275 -65t189 -183.5t68 -269.5t-68 -269t-189 -182.5t-275 -64.5q-117 0 -217 39t-169 107t-107.5 163.5t-38.5 206.5t38.5 207t107.5 164.5t169 107.5t217 39zM613 223q110 0 185 78
t75 198q0 122 -74 199.5t-186 77.5q-77 0 -136.5 -36t-92 -99t-32.5 -142q0 -117 73.5 -196.5t187.5 -79.5zM614 -184q45 0 83.5 -22t60.5 -59.5t22 -82.5q0 -67 -48.5 -115t-117.5 -48q-68 0 -117 48t-49 115q0 34 13 64t35.5 52t53 35t64.5 13z" />
    <glyph glyph-name="uni1EDA" unicode="&#x1eda;" horiz-adv-x="1766" 
d="M1236 1907l-254 -302h-259l232 301zM1489 1587h251v-151q0 -140 -59 -232.5t-170 -128.5l-2 -4q73 -155 73 -343q0 -164 -56 -303.5t-154 -236t-234.5 -151t-295.5 -54.5q-162 0 -301 56t-235.5 154.5t-151 236.5t-54.5 298t54.5 298t151 236t235.5 154t301 56
q177 0 325 -66t248 -187q21 11 35.5 28.5t22 35.5t11.5 47.5t4.5 51t0.5 60.5v145zM843 251q93 0 174.5 36.5t140 99t92 151.5t33.5 190q0 135 -57.5 244t-158 170t-224.5 61q-128 0 -230 -63.5t-157.5 -172t-55.5 -239.5q0 -132 55.5 -240.5t157.5 -172.5t230 -64z" />
    <glyph glyph-name="uni1EDB" unicode="&#x1edb;" horiz-adv-x="1399" 
d="M994 1441l-254 -302h-259l232 301zM1128 1159h251v-151q0 -146 -64 -240t-185 -126l-1 -3q16 -70 16 -140q0 -151 -68 -269t-189 -182.5t-275 -64.5q-117 0 -217 39t-169 107t-107.5 163.5t-38.5 206.5t38.5 207t107.5 164.5t169 107.5t217 39q145 0 261.5 -58.5
t186.5 -163.5q19 11 32 29t20 35.5t10.5 46t4 50t0.5 58.5v145zM613 223q110 0 185 78t75 198q0 122 -74 199.5t-186 77.5q-33 0 -63.5 -7t-56.5 -20.5t-48 -32t-39 -42t-29.5 -51t-18.5 -59t-6 -65.5q0 -117 73.5 -196.5t187.5 -79.5z" />
    <glyph glyph-name="uni1EDC" unicode="&#x1edc;" horiz-adv-x="1766" 
d="M988 1605h-259l-253 302l281 -1zM1489 1587h251v-151q0 -140 -59 -232.5t-170 -128.5l-2 -4q73 -155 73 -343q0 -164 -56 -303.5t-154 -236t-234.5 -151t-295.5 -54.5q-162 0 -301 56t-235.5 154.5t-151 236.5t-54.5 298t54.5 298t151 236t235.5 154t301 56
q177 0 325 -66t248 -187q21 11 35.5 28.5t22 35.5t11.5 47.5t4.5 51t0.5 60.5v145zM843 251q93 0 174.5 36.5t140 99t92 151.5t33.5 190q0 135 -57.5 244t-158 170t-224.5 61q-128 0 -230 -63.5t-157.5 -172t-55.5 -239.5q0 -132 55.5 -240.5t157.5 -172.5t230 -64z" />
    <glyph glyph-name="uni1EDD" unicode="&#x1edd;" horiz-adv-x="1399" 
d="M775 1139h-259l-253 302l281 -1zM1128 1159h251v-151q0 -146 -64 -240t-185 -126l-1 -3q16 -70 16 -140q0 -151 -68 -269t-189 -182.5t-275 -64.5q-117 0 -217 39t-169 107t-107.5 163.5t-38.5 206.5t38.5 207t107.5 164.5t169 107.5t217 39q145 0 261.5 -58.5
t186.5 -163.5q19 11 32 29t20 35.5t10.5 46t4 50t0.5 58.5v145zM613 223q110 0 185 78t75 198q0 122 -74 199.5t-186 77.5q-116 0 -188.5 -78.5t-72.5 -198.5q0 -117 73.5 -196.5t187.5 -79.5z" />
    <glyph glyph-name="uni1EDE" unicode="&#x1ede;" horiz-adv-x="1766" 
d="M845 1817q-36 0 -73.5 -17.5t-64.5 -43.5l-93 89q27 27 66 48.5t88 35t97 13.5q100 0 155.5 -45t55.5 -117q0 -25 -8 -47.5t-23.5 -41t-38 -33t-51.5 -25.5t-64 -18l-15 -50l-103 -3q-19 18 -28.5 32t-9.5 30q0 21 26 41t57.5 34t58 35t26.5 44q0 39 -58 39zM1489 1587
h251v-151q0 -140 -59 -232.5t-170 -128.5l-2 -4q73 -155 73 -343q0 -164 -56 -303.5t-154 -236t-234.5 -151t-295.5 -54.5q-162 0 -301 56t-235.5 154.5t-151 236.5t-54.5 298t54.5 298t151 236t235.5 154t301 56q177 0 325 -66t248 -187q21 11 35.5 28.5t22 35.5t11.5 47.5
t4.5 51t0.5 60.5v145zM843 251q124 0 224.5 61.5t158 171t57.5 244.5t-57.5 244t-158 170t-224.5 61q-128 0 -230 -63.5t-157.5 -172t-55.5 -239.5q0 -132 55.5 -240.5t157.5 -172.5t230 -64z" />
    <glyph glyph-name="uni1EDF" unicode="&#x1edf;" horiz-adv-x="1399" 
d="M615 1351q-36 0 -73.5 -17.5t-64.5 -43.5l-93 89q27 27 66 48.5t88 35t97 13.5q40 0 74.5 -8t59.5 -22.5t42.5 -34.5t26 -44.5t8.5 -52.5q0 -42 -22 -75.5t-63 -55.5t-100 -34l-15 -50l-103 -3q-19 18 -28.5 32t-9.5 30q0 21 26 41t57.5 34t58 35t26.5 44q0 39 -58 39z
M1128 1159h251v-151q0 -146 -64 -240t-185 -126l-1 -3q16 -70 16 -140q0 -151 -68 -269t-189 -182.5t-275 -64.5q-117 0 -217 39t-169 107t-107.5 163.5t-38.5 206.5t38.5 207t107.5 164.5t169 107.5t217 39q145 0 261.5 -58.5t186.5 -163.5q19 11 32 29t20 35.5t10.5 46
t4 50t0.5 58.5v145zM613 223q110 0 185 78t75 198q0 122 -74 199.5t-186 77.5q-33 0 -63.5 -7t-56.5 -20.5t-48 -32t-39 -42t-29.5 -51t-18.5 -59t-6 -65.5q0 -117 73.5 -196.5t187.5 -79.5z" />
    <glyph glyph-name="uni1EE0" unicode="&#x1ee0;" horiz-adv-x="1766" 
d="M722 1701q-72 0 -115 -102l-160 69q33 108 96.5 173t149.5 65q39 0 75 -10t52.5 -18.5t48.5 -27.5q27 -17 38 -23t32.5 -14t40.5 -8q24 0 46 12.5t39.5 34.5t30.5 53l157 -52q-32 -118 -94.5 -187t-145.5 -69q-50 0 -91.5 16t-87.5 45q-25 15 -38.5 22t-34.5 14t-39 7z
M1489 1587h251v-151q0 -140 -59 -232.5t-170 -128.5l-2 -4q73 -155 73 -343q0 -164 -56 -303.5t-154 -236t-234.5 -151t-295.5 -54.5q-162 0 -301 56t-235.5 154.5t-151 236.5t-54.5 298t54.5 298t151 236t235.5 154t301 56q177 0 325 -66t248 -187q21 11 35.5 28.5t22 35.5
t11.5 47.5t4.5 51t0.5 60.5v145zM843 251q93 0 174.5 36t140 99t92 152t33.5 190q0 135 -57.5 244t-158 170t-224.5 61q-128 0 -230 -63.5t-157.5 -172t-55.5 -239.5q0 -132 55.5 -240.5t157.5 -172.5t230 -64z" />
    <glyph glyph-name="uni1EE1" unicode="&#x1ee1;" horiz-adv-x="1399" 
d="M492 1235q-72 0 -115 -102l-160 69q33 108 96.5 173t149.5 65q20 0 38.5 -2t35.5 -7t28.5 -9t28 -12.5t22.5 -12t23 -13.5q27 -17 38 -23t32.5 -14t40.5 -8q24 0 46 12.5t39.5 34.5t30.5 53l157 -52q-21 -77 -55 -134t-81.5 -89.5t-103.5 -32.5q-50 0 -91.5 16t-87.5 45
q-25 15 -38.5 22t-34.5 14t-39 7zM1128 1159h251v-151q0 -146 -64 -240t-185 -126l-1 -3q16 -70 16 -140q0 -151 -68 -269t-189 -182.5t-275 -64.5q-67 0 -129.5 13t-115.5 37.5t-98 59t-80 78.5t-59.5 95.5t-37 110.5t-12.5 122q0 111 38.5 207t107.5 164.5t169 107.5
t217 39q145 0 261.5 -58.5t186.5 -163.5q19 11 32 29t20 35.5t10.5 46t4 50t0.5 58.5v145zM613 223q110 0 185 78t75 198q0 122 -74 199.5t-186 77.5q-77 0 -136.5 -36t-92 -99t-32.5 -142q0 -117 73.5 -196.5t187.5 -79.5z" />
    <glyph glyph-name="uni1EE2" unicode="&#x1ee2;" horiz-adv-x="1766" 
d="M1489 1587h251v-151q0 -140 -59 -232.5t-170 -128.5l-2 -4q73 -155 73 -343q0 -164 -56 -303.5t-154 -236t-234.5 -151t-295.5 -54.5q-162 0 -301 56t-235.5 154.5t-151 236.5t-54.5 298t54.5 298t151 236t235.5 154t301 56q177 0 325 -66t248 -187q21 11 35.5 28.5
t22 35.5t11.5 47.5t4.5 51t0.5 60.5v145zM843 251q93 0 174.5 36.5t140 99t92 151.5t33.5 190q0 135 -57.5 244t-158 170t-224.5 61q-128 0 -230 -63.5t-157.5 -172t-55.5 -239.5q0 -132 55.5 -240.5t157.5 -172.5t230 -64zM843 -184q45 0 83.5 -22t60.5 -59.5t22 -82.5
q0 -67 -48.5 -115t-117.5 -48q-68 0 -117 48t-49 115q0 68 49 116t117 48z" />
    <glyph glyph-name="uni1EE3" unicode="&#x1ee3;" horiz-adv-x="1399" 
d="M1128 1159h251v-151q0 -146 -64 -240t-185 -126l-1 -3q16 -70 16 -140q0 -151 -68 -269t-189 -182.5t-275 -64.5q-94 0 -177 25t-147.5 71t-111.5 109.5t-71.5 142.5t-24.5 168q0 111 38.5 207t107.5 164.5t169 107.5t217 39q145 0 261.5 -58.5t186.5 -163.5q19 11 32 29
t20 35.5t10.5 46t4 50t0.5 58.5v145zM613 223q110 0 185 78t75 198q0 122 -74 199.5t-186 77.5q-116 0 -188.5 -78.5t-72.5 -198.5q0 -117 73.5 -196.5t187.5 -79.5zM614 -184q45 0 83.5 -22t60.5 -59.5t22 -82.5q0 -67 -48.5 -115t-117.5 -48q-68 0 -117 48t-49 115
q0 68 49 116t117 48z" />
    <glyph glyph-name="uni1EE4" unicode="&#x1ee4;" horiz-adv-x="1461" 
d="M728 -17q-131 0 -239.5 41.5t-185.5 119t-119.5 194.5t-42.5 264v853h289v-834q0 -106 34 -188.5t102.5 -131t161.5 -48.5q135 0 219 98.5t84 269.5v834h288v-853q0 -189 -69.5 -328t-203 -215t-318.5 -76zM730 -184q69 0 117.5 -48t48.5 -116q0 -67 -48.5 -115
t-117.5 -48q-68 0 -117 48t-49 115q0 45 22.5 82.5t60.5 59.5t83 22z" />
    <glyph glyph-name="uni1EE5" unicode="&#x1ee5;" horiz-adv-x="1182" 
d="M787 1000h268v-1000h-268v122h-4q-58 -68 -134.5 -103.5t-162.5 -35.5q-84 0 -149 22.5t-115.5 70.5t-77 129t-26.5 193v602h268v-532q0 -135 41.5 -189.5t137.5 -54.5q94 0 158 76t64 215v485zM601 -184q69 0 117.5 -48t48.5 -116q0 -44 -22 -81.5t-60.5 -59.5
t-83.5 -22q-68 0 -117 48t-49 115q0 68 49 116t117 48z" />
    <glyph glyph-name="uni1EE6" unicode="&#x1ee6;" horiz-adv-x="1461" 
d="M659 1562q-19 18 -28.5 32t-9.5 30q0 21 26.5 41t57.5 34t57.5 35t26.5 44q0 39 -58 39q-36 0 -73.5 -17.5t-64.5 -43.5l-93 89q27 27 66 48.5t88 35t97 13.5q100 0 155.5 -45t55.5 -117q0 -25 -8 -47.5t-23.5 -41t-38 -33t-51.5 -25.5t-64 -18l-15 -50zM728 -17
q-131 0 -239.5 41.5t-185.5 119t-119.5 194.5t-42.5 264v853h289v-834q0 -106 34 -188.5t102.5 -131t161.5 -48.5q135 0 219 98.5t84 269.5v834h288v-853q0 -189 -69.5 -328t-203 -215t-318.5 -76z" />
    <glyph glyph-name="uni1EE7" unicode="&#x1ee7;" horiz-adv-x="1182" 
d="M591 1351q-36 0 -73.5 -17.5t-64.5 -43.5l-93 89q27 27 66 48.5t88 35t97 13.5q50 0 90.5 -12t66.5 -34t40 -51.5t14 -64.5q0 -42 -22 -75.5t-63 -55.5t-100 -34l-15 -50l-103 -3q-19 18 -28.5 32t-9.5 30q0 21 26 41t57.5 34t58 35t26.5 44q0 39 -58 39zM787 1000h268
v-1000h-268v122h-4q-58 -68 -134.5 -103.5t-162.5 -35.5q-84 0 -149 22.5t-115.5 70.5t-77 129t-26.5 193v602h268v-532q0 -135 41.5 -189.5t137.5 -54.5q94 0 158 76t64 215v485z" />
    <glyph glyph-name="uni1EE8" unicode="&#x1ee8;" horiz-adv-x="1672" 
d="M1080 1907l-254 -302h-259l232 301zM1448 1587h251v-151q0 -183 -99.5 -282.5t-280.5 -100.5v-451q0 -189 -69.5 -328t-203 -215t-318.5 -76q-131 0 -239.5 41.5t-185.5 119t-119.5 194.5t-42.5 264v853h289v-834q0 -106 34 -188.5t102.5 -131t161.5 -48.5
q135 0 219 98.5t84 269.5v834h288v-254q27 5 47 14.5t33.5 20.5t23 30t14.5 35t7.5 43t3 46t0.5 52v145z" />
    <glyph glyph-name="uni1EE9" unicode="&#x1ee9;" horiz-adv-x="1438" 
d="M965 1441l-254 -302h-259l232 301zM1168 1159h251v-151q0 -179 -95 -278t-269 -104v-626h-268v122h-4q-58 -68 -134.5 -103.5t-162.5 -35.5q-84 0 -149 22.5t-115.5 70.5t-77 129t-26.5 193v602h268v-532q0 -135 41.5 -189.5t137.5 -54.5q94 0 158 76t64 215v485h268
v-223q27 7 46.5 18t31.5 29.5t19.5 35.5t10.5 46t4 50t1 58v145z" />
    <glyph glyph-name="uni1EEA" unicode="&#x1eea;" horiz-adv-x="1672" 
d="M896 1605h-259l-253 302l281 -1zM1448 1587h251v-151q0 -183 -99.5 -282.5t-280.5 -100.5v-451q0 -189 -69.5 -328t-203 -215t-318.5 -76q-131 0 -239.5 41.5t-185.5 119t-119.5 194.5t-42.5 264v853h289v-834q0 -106 34 -188.5t102.5 -131t161.5 -48.5q135 0 219 98.5
t84 269.5v834h288v-254q27 5 47 14.5t33.5 20.5t23 30t14.5 35t7.5 43t3 46t0.5 52v145z" />
    <glyph glyph-name="uni1EEB" unicode="&#x1eeb;" horiz-adv-x="1438" 
d="M764 1139h-259l-253 302l281 -1zM1168 1159h251v-151q0 -179 -95 -278.5t-269 -103.5v-626h-268v122h-4q-39 -46 -86.5 -77t-100.5 -46.5t-110 -15.5q-84 0 -149 22.5t-115.5 70t-77 129t-26.5 193.5v602h268v-532q0 -135 41.5 -189.5t137.5 -54.5q94 0 158 76t64 215
v485h268v-223q27 7 46.5 18t31.5 29.5t19.5 35.5t10.5 46t4 50t1 58v145z" />
    <glyph glyph-name="uni1EEC" unicode="&#x1eec;" horiz-adv-x="1672" 
d="M731 1817q-36 0 -73.5 -17.5t-64.5 -43.5l-93 89q27 27 66 48.5t88 35t97 13.5q100 0 155.5 -45t55.5 -117q0 -25 -8 -47.5t-23.5 -41t-38 -33t-51.5 -25.5t-64 -18l-15 -50l-103 -3q-19 18 -28.5 32t-9.5 30q0 21 26 41t57.5 34t58 35t26.5 44q0 39 -58 39zM1448 1587
h251v-151q0 -183 -99.5 -282.5t-280.5 -100.5v-451q0 -189 -69.5 -328t-203 -215t-318.5 -76q-131 0 -239.5 41.5t-185.5 119t-119.5 194.5t-42.5 264v853h289v-834q0 -106 34 -188.5t102.5 -131t161.5 -48.5q135 0 219 98.5t84 269.5v834h288v-254q27 5 47 14.5t33.5 20.5
t23 30t14.5 35t7.5 43t3 46t0.5 52v145z" />
    <glyph glyph-name="uni1EED" unicode="&#x1eed;" horiz-adv-x="1438" 
d="M591 1351q-36 0 -73.5 -17.5t-64.5 -43.5l-93 89q27 27 66 48.5t88 35t97 13.5q50 0 90.5 -12t66.5 -34t40 -51.5t14 -64.5q0 -42 -22 -75.5t-63 -55.5t-100 -34l-15 -50l-103 -3q-19 18 -28.5 32t-9.5 30q0 21 26 41t57.5 34t58 35t26.5 44q0 39 -58 39zM1168 1159h251
v-151q0 -179 -95 -278t-269 -104v-626h-268v122h-4q-118 -139 -297 -139q-84 0 -149 22.5t-115.5 70.5t-77 129t-26.5 193v602h268v-532q0 -135 41.5 -189.5t137.5 -54.5q94 0 158 76t64 215v485h268v-223q27 7 46.5 18t31.5 29.5t19.5 35.5t10.5 46t4 50t1 58v145z" />
    <glyph glyph-name="uni1EEE" unicode="&#x1eee;" horiz-adv-x="1672" 
d="M608 1701q-72 0 -115 -102l-160 69q33 108 96.5 173t149.5 65q24 0 47 -4t38 -8t35 -13.5t28 -14t28 -16.5q27 -17 38 -23.5t32.5 -14t40.5 -7.5q36 0 66 26.5t50 73.5l157 -52q-32 -118 -94.5 -187t-145.5 -69q-50 0 -91.5 16t-87.5 45q-25 15 -38.5 22t-34.5 14t-39 7z
M1448 1587h251v-151q0 -183 -99.5 -282.5t-280.5 -100.5v-451q0 -189 -69.5 -328t-203 -215t-318.5 -76q-131 0 -239.5 41.5t-185.5 119t-119.5 194.5t-42.5 264v853h289v-834q0 -106 34 -188.5t102.5 -131t161.5 -48.5q135 0 219 98.5t84 269.5v834h288v-254
q26 5 46.5 14.5t34 20.5t23 30t14.5 35t7.5 43t3 46t0.5 52v145z" />
    <glyph glyph-name="uni1EEF" unicode="&#x1eef;" horiz-adv-x="1438" 
d="M468 1235q-72 0 -115 -102l-160 69q33 108 96.5 173t149.5 65q39 0 75 -10t52.5 -18.5t48.5 -27.5q2 -1 6 -4q23 -14 35 -21t32 -13.5t38 -6.5q24 0 46 12.5t39.5 34.5t30.5 53l157 -52q-32 -118 -94.5 -187t-145.5 -69q-50 0 -91.5 16t-87.5 45q-25 15 -38.5 22
t-34.5 14t-39 7zM1168 1159h251v-151q0 -179 -95 -278t-269 -104v-626h-268v122h-4q-58 -68 -134.5 -103.5t-162.5 -35.5q-84 0 -149 22.5t-115.5 70.5t-77 129t-26.5 193v602h268v-532q0 -135 41.5 -189.5t137.5 -54.5q94 0 158 76t64 215v485h268v-223q27 7 46.5 18
t31.5 29.5t19.5 35.5t10.5 46t4 50t1 58v145z" />
    <glyph glyph-name="uni1EF0" unicode="&#x1ef0;" horiz-adv-x="1672" 
d="M1448 1587h251v-151q0 -183 -99.5 -282.5t-280.5 -100.5v-451q0 -189 -69.5 -328t-203 -215t-318.5 -76q-131 0 -239.5 41.5t-185.5 119t-119.5 194.5t-42.5 264v853h289v-834q0 -106 34 -188.5t102.5 -131t161.5 -48.5q135 0 219 98.5t84 269.5v834h288v-254
q27 5 47 14.5t33.5 20.5t23 30t14.5 35t7.5 43t3 46t0.5 52v145zM730 -184q45 0 83.5 -22t60.5 -59.5t22 -82.5q0 -67 -48.5 -115t-117.5 -48q-45 0 -83 22t-60.5 59.5t-22.5 81.5q0 68 49 116t117 48z" />
    <glyph glyph-name="uni1EF1" unicode="&#x1ef1;" horiz-adv-x="1438" 
d="M1168 1159h251v-151q0 -179 -95 -278.5t-269 -103.5v-626h-268v122h-4q-39 -46 -86.5 -77t-100.5 -46.5t-110 -15.5q-84 0 -149 22.5t-115.5 70t-77 129t-26.5 193.5v602h268v-532q0 -135 41.5 -189.5t137.5 -54.5q94 0 158 76t64 215v485h268v-223q27 7 46.5 18
t31.5 29.5t19.5 35.5t10.5 46t4 50t1 58v145zM601 -184q34 0 64.5 -13t53 -35t35.5 -52t13 -64q0 -44 -22 -81.5t-60.5 -59.5t-83.5 -22q-68 0 -117 48t-49 115q0 68 49 116t117 48z" />
    <glyph glyph-name="Ygrave" unicode="&#x1ef2;" horiz-adv-x="1295" 
d="M801 1605h-259l-253 302l281 -1zM942 1455h333l-484 -816v-639h-291v639l-481 816h330l296 -531h4z" />
    <glyph glyph-name="ygrave" unicode="&#x1ef3;" horiz-adv-x="1104" 
d="M720 1136h-259l-253 302l281 -1zM791 1000h278l-539 -1405h-274l178 467l-400 938h280l245 -619h3z" />
    <glyph glyph-name="uni1EF4" unicode="&#x1ef4;" horiz-adv-x="1295" 
d="M500 0v639l-481 816h330l296 -531h4l293 531h333l-484 -816v-639h-291zM648 -184q45 0 83.5 -22t60.5 -59.5t22 -82.5q0 -67 -48.5 -115t-117.5 -48q-68 0 -117 48t-49 115q0 33 13 63.5t35.5 52.5t53 35t64.5 13z" />
    <glyph glyph-name="uni1EF5" unicode="&#x1ef5;" horiz-adv-x="1104" 
d="M791 1000h278l-539 -1405h-274l178 467l-400 938h280l245 -619h3zM846 -184q69 0 117.5 -48t48.5 -116q0 -44 -22 -81.5t-60.5 -59.5t-83.5 -22t-83 22t-60.5 59.5t-22.5 81.5q0 45 22.5 82.5t60.5 59.5t83 22z" />
    <glyph glyph-name="uni1EF6" unicode="&#x1ef6;" horiz-adv-x="1295" 
d="M651 1817q-24 0 -50 -8.5t-48.5 -22t-39.5 -30.5l-93 89q27 27 66 48.5t88 35t97 13.5q40 0 74.5 -8t59.5 -22.5t42.5 -34.5t26 -44.5t8.5 -52.5q0 -32 -12.5 -58.5t-36 -47t-58 -35.5t-78.5 -24l-15 -50l-103 -3q-19 18 -28.5 32t-9.5 30q0 21 26.5 41t58 34t57.5 35
t26 44q0 39 -58 39zM942 1455h333l-484 -816v-639h-291v639l-481 816h330l296 -531h4z" />
    <glyph glyph-name="uni1EF7" unicode="&#x1ef7;" horiz-adv-x="1104" 
d="M556 1351q-36 0 -73.5 -17.5t-64.5 -43.5l-93 89q27 27 66 48.5t88 35t97 13.5q67 0 115 -21.5t72 -57.5t24 -83q0 -63 -48 -105.5t-137 -59.5l-15 -50l-103 -3q-19 18 -28.5 32t-9.5 30q0 21 26 41t57.5 34t58 35t26.5 44q0 39 -58 39zM791 1000h278l-539 -1405h-274
l178 467l-400 938h280l245 -619h3z" />
    <glyph glyph-name="uni1EF8" unicode="&#x1ef8;" horiz-adv-x="1295" 
d="M528 1701q-72 0 -115 -102l-160 69q33 108 96.5 173t149.5 65q39 0 75 -10t52.5 -18.5t48.5 -27.5q27 -17 38 -23t32.5 -14t40.5 -8q36 0 66 26.5t50 73.5l157 -52q-32 -118 -94.5 -187t-145.5 -69q-50 0 -91.5 16t-87.5 45q-25 15 -38.5 22t-34.5 14t-39 7zM942 1455
h333l-484 -816v-639h-291v639l-481 816h330l296 -531h4z" />
    <glyph glyph-name="uni1EF9" unicode="&#x1ef9;" horiz-adv-x="1104" 
d="M433 1235q-72 0 -115 -102l-160 69q33 108 96.5 173t149.5 65q39 0 75 -10t52.5 -18.5t48.5 -27.5q2 -1 6 -4q23 -14 35 -21t32 -13.5t38 -6.5q24 0 46 12.5t39.5 34.5t30.5 53l157 -52q-32 -118 -94.5 -187t-145.5 -69q-50 0 -91.5 16t-87.5 45q-25 15 -38.5 22
t-34.5 14t-39 7zM791 1000h278l-539 -1405h-274l178 467l-400 938h280l245 -619h3z" />
    <glyph glyph-name="uni2002" unicode="&#x2002;" horiz-adv-x="956" 
 />
    <glyph glyph-name="uni2003" unicode="&#x2003;" horiz-adv-x="1912" 
 />
    <glyph glyph-name="uni2009" unicode="&#x2009;" horiz-adv-x="58" 
 />
    <glyph glyph-name="endash" unicode="&#x2013;" horiz-adv-x="1156" 
d="M100 496v230h956v-230h-956z" />
    <glyph glyph-name="emdash" unicode="&#x2014;" horiz-adv-x="2112" 
d="M100 496v230h1912v-230h-1912z" />
    <glyph glyph-name="uni2015" unicode="&#x2015;" horiz-adv-x="2445" 
d="M100 496v230h2245v-230h-2245z" />
    <glyph glyph-name="quoteleft" unicode="&#x2018;" horiz-adv-x="465" 
d="M398 1453l-63 -534h-274l130 534h207z" />
    <glyph glyph-name="quoteright" unicode="&#x2019;" horiz-adv-x="465" 
d="M67 921l63 534h274l-130 -534h-207z" />
    <glyph glyph-name="quotesinglbase" unicode="&#x201a;" horiz-adv-x="499" 
d="M52 -272l63 533h274l-142 -533h-195z" />
    <glyph glyph-name="quotedblleft" unicode="&#x201c;" horiz-adv-x="850" 
d="M398 1454l-62 -534h-276l131 534h207zM783 1454l-63 -534h-274l130 534h207z" />
    <glyph glyph-name="quotedblright" unicode="&#x201d;" horiz-adv-x="850" 
d="M67 921l63 534h274l-130 -534h-207zM452 921l62 534h276l-131 -534h-207z" />
    <glyph glyph-name="quotedblbase" unicode="&#x201e;" horiz-adv-x="885" 
d="M52 -161l63 534h274l-130 -534h-207zM437 -161l62 534h276l-131 -534h-207z" />
    <glyph glyph-name="dagger" unicode="&#x2020;" horiz-adv-x="804" 
d="M404 465l-78 129l11 260l-2 221h-40l-193 -9v152l193 -8h38l-6 195h155l-9 -195h38l192 10v-154l-192 9h-40v-221l11 -260z" />
    <glyph glyph-name="daggerdbl" unicode="&#x2021;" horiz-adv-x="804" 
d="M327 111l8 192h-40l-193 -9v152l192 -8h42v122l-10 198l10 199v118h-41l-193 -8v150l192 -9h40l-9 197h155l-10 -197h39l194 10v-151l-196 8h-36v-118l9 -199l-12 -198l3 -122h38l194 9v-151l-194 7h-39l10 -192h-153z" />
    <glyph glyph-name="bullet" unicode="&#x2022;" horiz-adv-x="869" 
d="M434 408q-100 0 -171 70t-71 169q0 100 71 170.5t171 70.5q66 0 122 -32t88 -87.5t32 -121.5q0 -100 -70.5 -169.5t-171.5 -69.5z" />
    <glyph glyph-name="ellipsis" unicode="&#x2026;" horiz-adv-x="2048" 
d="M341 -17q-70 0 -118.5 47.5t-48.5 115.5t48.5 116t118.5 48q68 0 116.5 -48.5t48.5 -115.5t-48.5 -115t-116.5 -48zM1024 -17q-70 0 -118.5 47.5t-48.5 115.5t48.5 116t118.5 48q68 0 116.5 -48.5t48.5 -115.5t-48.5 -115t-116.5 -48zM1708 -17q-70 0 -118.5 47.5
t-48.5 115.5t48.5 116t118.5 48q68 0 116.5 -48.5t48.5 -115.5t-48.5 -115t-116.5 -48z" />
    <glyph glyph-name="perthousand" unicode="&#x2030;" horiz-adv-x="3008" 
d="M824 -48l-202 87l645 1446l201 -87zM492 655q-113 0 -207 50.5t-150 145t-56 214.5q0 83 30 158t83.5 130t131 87t168.5 32q68 0 130.5 -18.5t114 -54.5t89.5 -85t59 -113t21 -136q0 -112 -51 -205.5t-146.5 -149t-216.5 -55.5zM494 846q89 0 145.5 62.5t56.5 154.5
q0 96 -58 155.5t-144 59.5q-89 0 -145 -61.5t-56 -153.5q0 -63 27 -113t73 -77t101 -27zM1592 -17q-113 0 -206.5 50.5t-149.5 144.5t-56 213q0 84 30 158.5t83 129.5t130.5 87t168.5 32q85 0 161 -29.5t132 -82t88.5 -129t32.5 -166.5q0 -112 -51 -204.5t-146.5 -148
t-216.5 -55.5zM2514 -17q-113 0 -207 50.5t-150 144.5t-56 213q0 112 51 204.5t146 147.5t216 55q113 0 207.5 -50t150.5 -144t56 -213q0 -112 -51 -204.5t-146.5 -148t-216.5 -55.5zM1594 174q89 0 145.5 62.5t56.5 153.5q0 95 -58.5 155t-143.5 60q-89 0 -145.5 -62.5
t-56.5 -152.5q0 -47 16 -88t43.5 -68.5t64.5 -43.5t78 -16zM2515 174q90 0 146 62.5t56 153.5q0 47 -16 87.5t-43 68.5t-64 43.5t-79 15.5q-89 0 -145 -62t-56 -153q0 -63 27 -112.5t73 -76.5t101 -27z" />
    <glyph glyph-name="guilsinglleft" unicode="&#x2039;" horiz-adv-x="631" 
d="M584 79h-260l-241 426l245 434h259l-248 -434z" />
    <glyph glyph-name="guilsinglright" unicode="&#x203a;" horiz-adv-x="625" 
d="M49 79l245 426l-248 434h259l245 -434l-241 -426h-260z" />
    <glyph glyph-name="uni203D" unicode="&#x203d;" horiz-adv-x="959" 
d="M448 1525q88 0 165 -25t137.5 -72.5t95.5 -123.5t35 -171q0 -41 -7 -79t-20.5 -71t-29 -61t-37.5 -55.5t-41.5 -48.5t-45.5 -46q-13 -12 -35 -32t-34.5 -32t-30 -29t-27.5 -30t-20.5 -28.5t-15.5 -30.5t-6 -30l-7 -87h-220l-47 639h290l-11 -159h4q67 73 67 147
q0 82 -46.5 126t-130.5 44q-59 0 -116 -29.5t-95 -80.5l-191 177q70 87 181.5 137.5t238.5 50.5zM410 310q68 0 116.5 -48.5t48.5 -115.5t-48.5 -115t-116.5 -48q-70 0 -118.5 47.5t-48.5 115.5t48.5 116t118.5 48z" />
    <glyph glyph-name="uni2042" unicode="&#x2042;" horiz-adv-x="1708" 
d="M765 785l9 210l-176 -111l-82 140l184 94l-185 98l83 142l176 -113l-9 210h162l-11 -210l178 110l82 -139l-186 -96l186 -96l-82 -141l-174 112l7 -210h-162zM332 98l9 210l-176 -111l-82 140l184 94l-185 98l83 142l176 -113l-9 210h162l-11 -210l178 110l82 -139
l-186 -96l186 -96l-82 -141l-174 112l7 -210h-162zM1214 98l9 210l-176 -111l-82 140l184 94l-185 98l83 142l176 -113l-9 210h162l-11 -210l178 110l82 -139l-186 -96l186 -96l-82 -141l-174 112l7 -210h-162z" />
    <glyph glyph-name="fraction" unicode="&#x2044;" horiz-adv-x="479" 
d="M49 -48l-202 87l645 1446l201 -87z" />
    <glyph glyph-name="uni2051" unicode="&#x2051;" horiz-adv-x="826" 
d="M332 785l9 210l-176 -111l-82 140l184 94l-185 98l83 142l176 -113l-9 210h162l-11 -210l178 110l82 -139l-186 -96l186 -96l-82 -141l-174 112l7 -210h-162zM332 45l9 210l-176 -111l-82 140l184 94l-185 98l83 142l176 -113l-9 210h162l-11 -210l178 110l82 -139
l-186 -96l186 -96l-82 -141l-174 112l7 -210h-162z" />
    <glyph glyph-name="uni2070" unicode="&#x2070;" horiz-adv-x="842" 
d="M420 874q-85 0 -154 31.5t-115.5 89t-71.5 139t-25 179.5q0 104 27 187.5t75.5 138.5t115.5 84.5t148 29.5q172 0 270 -119.5t98 -320.5q0 -207 -101 -323t-267 -116zM421 1069q72 0 113.5 63t41.5 180t-42 182t-113 65q-72 0 -114 -64t-42 -183q0 -114 42 -178.5
t114 -64.5z" />
    <glyph glyph-name="uni2074" unicode="&#x2074;" horiz-adv-x="731" 
d="M370 893v129h-343v126l388 588h164v-535h112v-179h-112v-129h-209zM232 1188h155v241z" />
    <glyph glyph-name="uni2075" unicode="&#x2075;" horiz-adv-x="708" 
d="M393 1437q110 0 187.5 -75t77.5 -191q0 -130 -90 -211.5t-228 -81.5q-195 0 -313 128l156 128q53 -66 135 -66q53 0 89.5 29t36.5 77q0 38 -17.5 63.5t-44 36t-60.5 10.5q-65 0 -112 -48l-114 44l29 456h486v-189h-312l-9 -127q59 17 103 17z" />
    <glyph glyph-name="uni2076" unicode="&#x2076;" horiz-adv-x="738" 
d="M426 1435q50 0 96 -18t82 -51t58 -84.5t22 -113.5q0 -83 -43 -149.5t-114.5 -102.5t-157.5 -36q-65 0 -123.5 25.5t-102.5 71t-69.5 111.5t-25.5 143q0 93 32 180.5t91 159.5t149.5 124t201.5 73l57 -167q-121 -32 -192.5 -80.5t-104.5 -118.5l3 -2q65 35 141 35z
M371 1062q25 0 46.5 8t37.5 22.5t25 35.5t9 45q0 46 -31.5 75.5t-85.5 29.5q-34 0 -67.5 -16t-57.5 -45v-6q0 -71 35 -110t89 -39z" />
    <glyph glyph-name="uni2077" unicode="&#x2077;" horiz-adv-x="648" 
d="M52 1735h548v-138l-279 -727l-210 40l256 634h-315v191z" />
    <glyph glyph-name="uni2078" unicode="&#x2078;" horiz-adv-x="751" 
d="M548 1349q65 -26 108.5 -84t43.5 -138q0 -57 -25.5 -104.5t-70 -79t-103.5 -48.5t-126 -17q-139 0 -231 67.5t-92 181.5q0 80 43.5 138.5t107.5 84.5v2q-41 19 -71 67t-30 105q0 73 37.5 125t98 76.5t137.5 24.5q119 0 196 -59t77 -167q0 -57 -29.5 -104.5t-70.5 -66.5
v-4zM374 1587q-39 1 -65 -23.5t-26 -59.5t25.5 -57t65.5 -22t65.5 22t25.5 57q0 36 -25.5 59t-65.5 24zM375 1053q51 0 83 28.5t32 72.5q0 42 -32.5 72.5t-82.5 29.5q-49 -1 -81 -30.5t-32 -71.5q0 -45 32 -73t81 -28z" />
    <glyph glyph-name="uni2079" unicode="&#x2079;" horiz-adv-x="735" 
d="M367 1750q65 0 123.5 -25.5t102 -71t69 -112t25.5 -143.5q0 -93 -31 -181t-88.5 -161t-147 -125t-199.5 -70l-57 167q82 20 140.5 49t95 66.5t57.5 86.5l-2 2q-68 -37 -145 -37q-68 0 -126 30t-95.5 92t-37.5 144q0 83 43 150t115 103t158 36zM246 1457q0 -46 32.5 -76
t84.5 -30q34 0 67.5 16t57.5 44v8q0 70 -35 109t-88 39q-50 0 -84.5 -31t-34.5 -79z" />
    <glyph glyph-name="uni207A" unicode="&#x207a;" horiz-adv-x="721" 
d="M640 1383v-171h-192v-196h-180v196h-192v171h192v197l180 -1v-196h192z" />
    <glyph glyph-name="uni207B" unicode="&#x207b;" horiz-adv-x="734" 
d="M85 1205v185h564v-185h-564z" />
    <glyph glyph-name="uni207C" unicode="&#x207c;" horiz-adv-x="770" 
d="M103 1360v164h564v-164h-564zM103 1027v166h564v-166h-564z" />
    <glyph glyph-name="uni207D" unicode="&#x207d;" horiz-adv-x="464" 
d="M250 752q-150 271 -150 559q0 155 43.5 302t118.5 258l154 -65q-48 -71 -87.5 -213t-39.5 -282q0 -148 37 -279t88 -221z" />
    <glyph glyph-name="uni207E" unicode="&#x207e;" horiz-adv-x="464" 
d="M214 752l-164 59q32 56 58.5 126t46.5 171t20 203q0 140 -39.5 282t-87.5 213l154 65q49 -73 85 -161.5t56.5 -191.5t20.5 -207q0 -288 -150 -559z" />
    <glyph glyph-name="uni207F" unicode="&#x207f;" horiz-adv-x="737" 
d="M453 478q105 0 165 -62t60 -199v-352h-195v303q0 70 -25 101.5t-79 31.5q-57 0 -90 -34t-33 -101v-301h-195v603h195v-74h3q76 84 194 84z" />
    <glyph glyph-name="uni2080" unicode="&#x2080;" horiz-adv-x="842" 
d="M420 -154q-171 0 -268.5 119.5t-97.5 319.5q0 104 27 187.5t75.5 138.5t115.5 84.5t148 29.5q172 0 270 -119.5t98 -320.5q0 -207 -101 -323t-267 -116zM421 41q72 0 113.5 63t41.5 180t-42 182t-113 65q-72 0 -114 -64t-42 -183q0 -114 42 -178.5t114 -64.5z" />
    </font>
</defs>
</svg>
