<?xml version="1.0" standalone="no"?>
<!DOCTYPE svg PUBLIC "-//W3C//DTD SVG 1.1//EN" "http://www.w3.org/Graphics/SVG/1.1/DTD/svg11.dtd" >
<svg xmlns="http://www.w3.org/2000/svg" xmlns:xlink="http://www.w3.org/1999/xlink" version="1.1">
<metadata>
Created by FontForge 20170731 at Fri Jul 17 15:49:41 2015
 By Aleksey,,,
Copyright (c) 2015 by Kostas Bartsokas. All rights reserved.
</metadata>
<defs>
<font id="Averta-Semibold" horiz-adv-x="1200" >
  <font-face 
    font-family="Averta-Semibold"
    font-weight="400"
    font-stretch="normal"
    units-per-em="2048"
    panose-1="0 0 7 0 0 0 0 0 0 0"
    ascent="1605"
    descent="-443"
    x-height="999"
    cap-height="1455"
    bbox="-466 -527 2923 2013"
    underline-thickness="100"
    underline-position="-175"
    unicode-range="U+0020-2E18"
  />
<missing-glyph horiz-adv-x="920" 
 />
    <glyph glyph-name=".notdef" horiz-adv-x="920" 
 />
    <glyph glyph-name=".null" horiz-adv-x="0" 
 />
    <glyph glyph-name="nonmarkingreturn" horiz-adv-x="682" 
 />
    <glyph glyph-name="space" unicode=" " horiz-adv-x="548" 
 />
    <glyph glyph-name="exclam" unicode="!" horiz-adv-x="552" 
d="M193 459l-41 1049h260l-42 -1049h-177zM277 -16q-65 0 -110.5 44.5t-45.5 107.5q0 41 20.5 76.5t56.5 56t79 20.5q63 0 108.5 -45t45.5 -108t-45.5 -107.5t-108.5 -44.5z" />
    <glyph glyph-name="quotedbl" unicode="&#x22;" horiz-adv-x="793" 
d="M65 936l65 519h245l-123 -519h-187zM418 936l63 519h247l-123 -519h-187z" />
    <glyph glyph-name="numbersign" unicode="#" horiz-adv-x="1309" 
d="M239 -83l63 397h-227v173h253l46 301h-251v172h278l59 383h159l-60 -383h301l59 383h159l-59 -383h234l-1 -172h-260l-46 -301h257l-1 -173h-283l-60 -397h-159l61 397h-300l-62 -397h-160zM486 487h302l45 301h-300z" />
    <glyph glyph-name="dollar" unicode="$" horiz-adv-x="1173" 
d="M1088 389q0 -162 -103 -266.5t-283 -126.5v-245h-185v246q-238 33 -414 206l144 174q83 -80 183 -121t193 -41q45 0 83 11t65 30.5t42 49t15 65.5q0 41 -15 71.5t-50.5 54.5t-79 42t-115.5 40q-58 18 -97 31.5t-88.5 34.5t-82 41.5t-67 51t-54.5 64t-32.5 79t-12.5 98.5
q0 157 101.5 262t281.5 121v258h185v-268q95 -19 188 -60.5t161 -96.5l-139 -174q-54 39 -113 65.5t-112.5 39t-101.5 12.5q-90 0 -142 -37.5t-52 -105.5q0 -35 15.5 -62t50 -49t75 -38.5t105.5 -37.5q51 -16 86 -27.5t78 -27.5t71.5 -30.5t61.5 -35t54 -41t42 -48
t32.5 -58.5t18.5 -69t7 -82z" />
    <glyph glyph-name="percent" unicode="%" horiz-adv-x="2096" 
d="M822 -45l-185 80l643 1449l184 -80zM505 657q-113 0 -207 50t-149.5 144t-55.5 214q0 111 51 203.5t145.5 147t215.5 54.5q113 0 207 -49.5t149.5 -143t55.5 -212.5q0 -112 -51 -204.5t-146 -148t-215 -55.5zM506 832q97 0 158 67t61 164q0 102 -63 165.5t-156 63.5
q-63 0 -112.5 -30.5t-76.5 -83t-27 -115.5q0 -102 62.5 -166.5t153.5 -64.5zM1589 -16q-113 0 -206.5 50.5t-149 144t-55.5 212.5q0 111 51 203.5t145.5 147t214.5 54.5q114 0 208 -50t149.5 -143t55.5 -212q0 -112 -50.5 -204t-146 -147.5t-216.5 -55.5zM1591 160
q97 0 158 66.5t61 163.5q0 67 -29.5 119.5t-79.5 81t-110 28.5q-96 0 -157 -66t-61 -163q0 -51 17 -94t46.5 -73t69.5 -46.5t85 -16.5z" />
    <glyph glyph-name="ampersand" unicode="&#x26;" horiz-adv-x="1372" 
d="M1051 0l-91 113h-4q-147 -129 -380 -129q-132 0 -239.5 54.5t-170.5 155.5t-63 230q0 139 72.5 248.5t193.5 178.5l-163 204q14 118 76 213t159.5 149t213.5 54q74 0 140 -18.5t113 -46.5t87.5 -67.5t65.5 -76t46 -77.5l-196 -74q-17 31 -35.5 55t-46.5 48t-67.5 37.5
t-86.5 13.5q-40 0 -74.5 -10t-59.5 -26.5t-44 -40t-30.5 -48.5t-17.5 -52l515 -643h4q57 118 57 245l223 4q0 -73 -12.5 -146t-42 -151t-74.5 -143v-2l202 -252h-270zM341 438q0 -105 72 -170t187 -65q129 0 227 71l1 4l-326 407q-78 -41 -119.5 -107t-41.5 -140z" />
    <glyph glyph-name="quotesingle" unicode="'" horiz-adv-x="440" 
d="M65 936l65 519h245l-123 -519h-187z" />
    <glyph glyph-name="parenleft" unicode="(" horiz-adv-x="625" 
d="M353 -316q-241 397 -241 921q0 263 64.5 501.5t182.5 420.5l173 -80q-99 -180 -152.5 -396.5t-53.5 -445.5q0 -449 203 -842z" />
    <glyph glyph-name="parenright" unicode=")" horiz-adv-x="625" 
d="M272 -316l-176 79q203 393 203 842q0 229 -53.5 445.5t-152.5 396.5l173 80q118 -182 182.5 -420.5t64.5 -501.5q0 -524 -241 -921z" />
    <glyph glyph-name="asterisk" unicode="*" horiz-adv-x="833" 
d="M345 791l8 221l-185 -117l-74 127l194 99l-195 104l75 127l185 -118l-8 221h145l-10 -221l187 116l73 -125l-195 -102l195 -101l-73 -127l-184 117l7 -221h-145z" />
    <glyph glyph-name="plus" unicode="+" horiz-adv-x="1183" 
d="M485 85v377h-378v210h378v379h212v-379h378v-210h-378v-377h-212z" />
    <glyph glyph-name="comma" unicode="," horiz-adv-x="488" 
d="M56 -270l65 518h245l-142 -518h-168z" />
    <glyph glyph-name="hyphen" unicode="-" horiz-adv-x="834" 
d="M109 521v223h616v-223h-616z" />
    <glyph glyph-name="period" unicode="." horiz-adv-x="552" 
d="M277 -16q-65 0 -110.5 44.5t-45.5 107.5q0 41 20.5 76.5t56.5 56t79 20.5q63 0 108.5 -45t45.5 -108t-45.5 -107.5t-108.5 -44.5z" />
    <glyph glyph-name="slash" unicode="/" horiz-adv-x="881" 
d="M116 -229l-183 84l784 1747l181 -84z" />
    <glyph glyph-name="zero" unicode="0" horiz-adv-x="1295" 
d="M647 -16q-119 0 -218 48.5t-170.5 139t-111.5 227t-40 304.5q0 212 64 374.5t187 253.5t289 91q119 0 218.5 -48.5t171 -139t111.5 -226.5t40 -305q0 -213 -63.5 -375t-187 -253t-290.5 -91zM648 204q141 0 220 132t79 367t-80.5 367t-218.5 132q-140 0 -220 -132
t-80 -367q0 -232 81 -365.5t219 -133.5z" />
    <glyph glyph-name="one" unicode="1" horiz-adv-x="817" 
d="M404 0v1122l-254 -190l-114 176l413 298h193v-1406h-238z" />
    <glyph glyph-name="two" unicode="2" horiz-adv-x="1090" 
d="M442 217h548v-217h-905l-3 158l452 476q100 105 150 185t50 163q0 61 -27.5 111t-77 79t-111.5 29q-172 0 -268 -167l-171 121q65 122 179 194t277 72q87 0 166 -28.5t140 -80.5t97 -131.5t36 -173.5q0 -60 -11.5 -114t-38 -112t-72 -119t-111.5 -130l-299 -311v-4z" />
    <glyph glyph-name="three" unicode="3" horiz-adv-x="1126" 
d="M793 728q69 -30 119.5 -79.5t79 -118.5t28.5 -150q0 -117 -60.5 -207.5t-167 -139.5t-239.5 -49q-179 0 -310 82.5t-185 215.5l205 91q69 -168 274 -168q102 0 171.5 58t69.5 151q0 89 -68.5 149.5t-194.5 60.5h-107v202h129q54 0 94.5 15t64 41t35 59t11.5 71
q0 83 -61.5 136.5t-149.5 53.5q-152 0 -233 -122l-189 102q52 108 165 174t262 66q125 0 224.5 -43t159.5 -129t60 -202q0 -69 -22.5 -129.5t-64.5 -108t-100 -80.5v-2z" />
    <glyph glyph-name="four" unicode="4" horiz-adv-x="1184" 
d="M680 0v237h-615v162l653 1007h199v-957h196v-212h-196v-237h-237zM343 442h346v564z" />
    <glyph glyph-name="five" unicode="5" horiz-adv-x="1155" 
d="M606 903q91 0 172 -31.5t141.5 -88.5t95.5 -143.5t35 -189.5q0 -137 -61.5 -243t-175 -165t-260.5 -59q-146 0 -271.5 59t-207.5 169l172 138q47 -68 121 -107t166 -39q126 0 201 71t75 180q0 57 -23.5 104.5t-62.5 77t-87.5 46t-99.5 16.5q-138 0 -229 -74l-129 45
l42 737h761v-217h-539l-18 -316q104 30 182 30z" />
    <glyph glyph-name="six" unicode="6" horiz-adv-x="1209" 
d="M671 897q92 0 172 -30.5t139 -87.5t92.5 -143t33.5 -191q0 -132 -66 -237.5t-180.5 -164.5t-254.5 -59q-105 0 -197 40.5t-159.5 113.5t-106.5 179.5t-39 232.5q0 172 56 327t153.5 272t232 197t289.5 109l75 -199q-410 -114 -527 -433l3 -1q124 75 284 75zM622 204
q43 0 82.5 13t69.5 35.5t52 53t33.5 67t11.5 75.5q0 103 -71 168.5t-187 65.5q-83 0 -155.5 -40t-121.5 -101v-19q0 -69 23 -129t62 -101t91 -64.5t110 -23.5z" />
    <glyph glyph-name="seven" unicode="7" horiz-adv-x="1012" 
d="M48 1406h873v-157l-516 -1277l-239 44l490 1173h-608v217z" />
    <glyph glyph-name="eight" unicode="8" horiz-adv-x="1179" 
d="M852 760q108 -42 176 -138.5t68 -233.5q0 -121 -68 -213.5t-182.5 -141t-255.5 -48.5q-144 0 -258.5 50.5t-179 143t-64.5 209.5q0 137 67.5 233.5t174.5 138.5v3q-43 18 -81.5 59t-65 104t-26.5 132q0 113 57.5 196.5t154.5 125t221 41.5q128 0 226.5 -43.5t154 -126
t55.5 -193.5q0 -101 -53 -183.5t-121 -111.5v-3zM590 1213q-90 0 -148.5 -52t-58.5 -124q0 -78 58 -126.5t149 -48.5q93 0 151 48.5t58 126.5q0 75 -59.5 125.5t-149.5 50.5zM590 197q115 0 188 65t73 156q0 100 -72.5 163.5t-188.5 63.5t-188 -63.5t-72 -163.5
q0 -94 75.5 -157.5t184.5 -63.5z" />
    <glyph glyph-name="nine" unicode="9" horiz-adv-x="1196" 
d="M591 1422q84 0 160.5 -25.5t138.5 -74.5t108 -116t71 -154.5t25 -185.5q0 -178 -57.5 -336.5t-157.5 -275t-235.5 -195.5t-291.5 -108l-75 199q98 27 179 64.5t150.5 89.5t122 121.5t84.5 155.5l-2 2q-124 -75 -284 -75q-92 0 -171.5 31t-138.5 88t-92.5 142.5
t-33.5 190.5q0 133 66 239t180 164.5t254 58.5zM330 958q0 -104 69.5 -169t186.5 -65q82 0 154.5 40t122.5 101v19q0 142 -75 230t-193 88q-117 0 -191 -71.5t-74 -172.5z" />
    <glyph glyph-name="colon" unicode=":" horiz-adv-x="552" 
d="M269 709q-65 0 -110.5 44.5t-45.5 107.5t45.5 108t110.5 45q41 0 76.5 -20.5t56.5 -56t21 -76.5q0 -63 -45.5 -107.5t-108.5 -44.5zM269 -16q-65 0 -110.5 44.5t-45.5 107.5q0 41 20.5 76.5t56.5 56t79 20.5q63 0 108.5 -45t45.5 -108t-45.5 -107.5t-108.5 -44.5z" />
    <glyph glyph-name="semicolon" unicode=";" horiz-adv-x="507" 
d="M242 709q-65 0 -110.5 44.5t-45.5 107.5t45.5 108t110.5 45q63 0 108.5 -45t45.5 -108t-45.5 -107.5t-108.5 -44.5zM56 -270l65 518h245l-142 -518h-168z" />
    <glyph glyph-name="less" unicode="&#x3c;" horiz-adv-x="1189" 
d="M1058 64l-942 412v171l942 419v-231l-632 -271l632 -274v-226z" />
    <glyph glyph-name="equal" unicode="=" horiz-adv-x="1211" 
d="M139 695v210h968v-210h-968zM139 229v210h968v-210h-968z" />
    <glyph glyph-name="greater" unicode="&#x3e;" horiz-adv-x="1189" 
d="M131 64v226l632 274l-632 271v231l942 -419v-171z" />
    <glyph glyph-name="question" unicode="?" horiz-adv-x="948" 
d="M297 459l-1 103q0 19 3 37.5t6.5 34t12 33.5t15 30.5t19.5 30t21 28t24 28.5t24 26.5t26.5 28t25.5 26.5q64 68 97.5 124.5t33.5 126.5q0 85 -51 132.5t-133 47.5q-60 0 -119 -32t-97 -88l-171 159q70 90 175.5 139.5t230.5 49.5q66 0 127.5 -15.5t115.5 -48t94 -78.5
t63 -111t23 -142q0 -58 -14.5 -110.5t-42 -97t-56 -78.5t-67.5 -72q-17 -16 -49 -45.5t-49 -46.5t-37.5 -41t-30.5 -45.5t-11 -43.5l-5 -90h-203zM404 -16q-43 0 -79 20.5t-56.5 55.5t-20.5 76t20.5 76.5t56.5 56t79 20.5q63 0 108.5 -45t45.5 -108t-45.5 -107.5
t-108.5 -44.5z" />
    <glyph glyph-name="at" unicode="@" horiz-adv-x="1843" 
d="M1358 954l-55 -536q-3 -30 -3 -52q0 -58 19 -80t58 -22q45 0 84 34.5t62 87.5t36 109.5t13 105.5q0 120 -41.5 227t-116 186.5t-185 125.5t-240.5 46q-95 0 -179.5 -17.5t-151.5 -49.5t-124 -75t-99 -95t-74.5 -109t-52 -117.5t-29.5 -119.5t-10 -117q0 -127 47.5 -241.5
t126.5 -196.5t185.5 -130t221.5 -48q214 0 423 106l76 -126q-224 -148 -499 -148q-160 0 -300 59t-241 162.5t-159 249.5t-58 314q0 76 14.5 156t47.5 165.5t82 163t122 147t162.5 120.5t210 81t258.5 30q172 0 316 -56.5t241 -156.5t151 -237.5t54 -297.5q0 -43 -6 -88.5
t-20.5 -97t-36.5 -98t-58 -90t-80.5 -75t-107 -50.5t-136.5 -19q-120 0 -187 80q-24 29 -36 87h-5q-43 -70 -113.5 -108t-157.5 -38q-152 0 -247.5 107t-95.5 282q0 45 9.5 95t28 104.5t51 102.5t74.5 87t102 62t130 23q41 0 78 -9.5t68 -28t56.5 -45.5t45.5 -62h4l14 131
h233zM876 311q65 0 117.5 37t80 94t27.5 121q0 87 -49.5 142.5t-124.5 55.5q-99 0 -163.5 -72.5t-64.5 -174.5q0 -90 50 -146.5t127 -56.5z" />
    <glyph glyph-name="A" unicode="A" horiz-adv-x="1427" 
d="M1122 0l-110 313h-594l-109 -313h-258l543 1455h241l546 -1455h-259zM493 527h444l-221 630h-2z" />
    <glyph glyph-name="B" unicode="B" horiz-adv-x="1327" 
d="M944 768q131 -33 208.5 -128t77.5 -241q0 -88 -29.5 -160.5t-87.5 -126t-150 -83t-210 -29.5h-575v1455h506q228 0 350.5 -89.5t122.5 -265.5q0 -107 -53.5 -196.5t-159.5 -131.5v-4zM425 1233v-381h236q48 0 90.5 11t77.5 33.5t55.5 60.5t20.5 88q0 89 -65.5 139
t-203.5 49h-211zM680 222q134 1 213 52.5t79 151.5q0 99 -74 155.5t-213 56.5h-260v-416h255z" />
    <glyph glyph-name="C" unicode="C" horiz-adv-x="1494" 
d="M846 -13q-119 0 -228 30t-201.5 91.5t-160.5 148t-106 206t-38 259.5q0 125 30.5 237.5t92.5 205.5t149 161.5t205.5 106.5t256.5 38q158 0 308.5 -69t264.5 -210l-182 -154q-73 91 -175.5 145t-215.5 54q-140 0 -248 -64t-168 -181t-60 -270q0 -147 61 -261.5
t169.5 -177.5t245.5 -63q118 0 218 53.5t173 144.5l182 -155q-100 -126 -245.5 -201t-327.5 -75z" />
    <glyph glyph-name="D" unicode="D" horiz-adv-x="1508" 
d="M178 0v1455h463q170 0 312 -54t239 -150t150.5 -231t53.5 -295t-52 -294t-147 -229.5t-236.5 -148.5t-313.5 -53h-469zM425 222h207q113 0 209 38t161.5 105t102 160t36.5 200q0 146 -62.5 262t-176 181t-256.5 65h-221v-1011z" />
    <glyph glyph-name="E" unicode="E" horiz-adv-x="1244" 
d="M178 0v1455h915v-222h-668v-401h540v-222h-540v-388h711v-222h-958z" />
    <glyph glyph-name="F" unicode="F" horiz-adv-x="1219" 
d="M178 0v1455h951v-222h-704v-435h591v-222h-591v-576h-247z" />
    <glyph glyph-name="G" unicode="G" horiz-adv-x="1555" 
d="M846 -13q-156 0 -290.5 51t-233 144.5t-154.5 233.5t-56 309q0 106 23 203.5t65.5 180t106.5 149.5t143.5 114.5t178 73t208.5 25.5q159 0 309 -61t259 -180l-175 -150q-161 158 -394 158q-98 0 -183.5 -36t-148 -101.5t-98.5 -162.5t-36 -213q0 -145 57.5 -261
t167 -183.5t251.5 -67.5q180 0 324 97v245h-356v222h602v-608q-101 -84 -252.5 -133t-317.5 -49z" />
    <glyph glyph-name="H" unicode="H" horiz-adv-x="1508" 
d="M178 0v1455h247v-650h658v650h247v-1455h-247v583h-658v-583h-247z" />
    <glyph glyph-name="I" unicode="I" horiz-adv-x="622" 
d="M187 0v1455h248v-1455h-248z" />
    <glyph glyph-name="J" unicode="J" horiz-adv-x="1038" 
d="M448 -13q-108 0 -212.5 47.5t-172.5 136.5l139 179q44 -53 108.5 -90.5t127.5 -37.5q196 0 196 277v956h249v-958q0 -97 -15 -175t-47.5 -141.5t-83 -106t-123 -65t-166.5 -22.5z" />
    <glyph glyph-name="K" unicode="K" horiz-adv-x="1360" 
d="M593 607h-4l-164 -195v-412h-247v1455h247v-697h4l559 697h314l-546 -649l563 -806h-307z" />
    <glyph glyph-name="L" unicode="L" horiz-adv-x="1173" 
d="M178 0v1455h247v-1233h674v-222h-921z" />
    <glyph glyph-name="M" unicode="M" horiz-adv-x="1814" 
d="M1388 1455h248v-1455h-247v975h-3l-398 -695h-162l-398 695h-3v-975h-247v1455h248l480 -871h4z" />
    <glyph glyph-name="N" unicode="N" horiz-adv-x="1563" 
d="M1138 1455h247v-1455h-252l-704 1029h-4v-1029h-247v1455h245l710 -1044h5v1044z" />
    <glyph glyph-name="O" unicode="O" horiz-adv-x="1693" 
d="M848 -16q-161 0 -299 56.5t-233.5 155t-149.5 236t-54 296.5q0 158 54 295.5t149.5 236t233.5 155t299 56.5q156 0 291.5 -54t233 -150.5t153 -235.5t55.5 -303t-55.5 -303.5t-153 -235.5t-233 -150.5t-291.5 -54.5zM848 215q100 0 188 38.5t151 106t100 163t37 205.5
t-37 205.5t-100 162.5t-151 105.5t-188 38.5q-104 0 -194 -40t-152 -109t-97.5 -163t-35.5 -200t35.5 -200.5t97.5 -163.5t152 -109t194 -40z" />
    <glyph glyph-name="P" unicode="P" horiz-adv-x="1289" 
d="M178 0v1455h527q85 0 157 -16t126.5 -46t95.5 -72t66.5 -95t38.5 -113.5t13 -129.5q0 -93 -24.5 -169t-70 -130.5t-110.5 -91.5t-145.5 -55t-175.5 -18h-251v-519h-247zM425 742h227q147 0 220.5 66.5t73.5 179.5q0 116 -72 180.5t-205 64.5h-244v-491z" />
    <glyph glyph-name="Q" unicode="Q" horiz-adv-x="1736" 
d="M1622 134l-139 -176l-184 168q-192 -142 -451 -142q-161 0 -299 56.5t-233.5 155t-149.5 236t-54 296.5q0 158 54 295.5t149.5 236t233.5 155t299 56.5q156 0 291.5 -54t233 -150.5t153 -235.5t55.5 -303q0 -255 -129 -442zM848 215q150 0 266 80l-146 133l138 166
l152 -136q66 120 66 270q0 105 -34.5 199t-96 163t-151 109.5t-194.5 40.5q-100 0 -189 -38.5t-152.5 -105.5t-100.5 -162.5t-37 -205.5q0 -88 23.5 -168t67 -142t102.5 -108t132.5 -70.5t153.5 -24.5z" />
    <glyph glyph-name="R" unicode="R" horiz-adv-x="1350" 
d="M1265 0h-297l-347 519h-196v-519h-247v1455h537q101 0 183.5 -23t140.5 -65t97 -101t57.5 -130t18.5 -153q0 -175 -83.5 -285.5t-235.5 -152.5v-4zM425 1233v-492h236q145 0 220 67t75 180q0 115 -72.5 180t-205.5 65h-253z" />
    <glyph glyph-name="S" unicode="S" horiz-adv-x="1211" 
d="M613 -16q-144 0 -280 57t-248 171l156 192q77 -93 176.5 -142.5t196.5 -49.5q118 0 180 47.5t62 130.5q0 27 -6.5 49.5t-16.5 40t-30 34.5t-39.5 29t-53 26.5t-61.5 25.5t-74 27q-54 19 -94 35t-88.5 40t-83 48.5t-69.5 58t-56 71t-34.5 86t-13.5 103.5q0 112 62 206
t167.5 147.5t229.5 53.5q253 1 482 -179l-147 -194q-179 149 -335 149q-87 0 -144.5 -45.5t-58.5 -124.5q-1 -74 72 -122q47 -30 200 -89q181 -71 244 -106q138 -76 181 -191q25 -65 25 -150q0 -87 -30 -160t-79.5 -123t-115 -85t-135.5 -51t-141 -16z" />
    <glyph glyph-name="T" unicode="T" horiz-adv-x="1207" 
d="M478 0v1233h-413v222h1077v-222h-417v-1233h-247z" />
    <glyph glyph-name="U" unicode="U" horiz-adv-x="1473" 
d="M735 -16q-129 0 -235.5 41t-182.5 118.5t-118 193.5t-42 261v857h247v-838q0 -116 39 -206t114.5 -141.5t177.5 -51.5q149 0 241.5 107t92.5 292v838h247v-857q0 -284 -155 -449t-426 -165z" />
    <glyph glyph-name="V" unicode="V" horiz-adv-x="1416" 
d="M1099 1455h266l-542 -1455h-219l-543 1455h267l382 -1100h4z" />
    <glyph glyph-name="W" unicode="W" horiz-adv-x="2119" 
d="M1791 1455h263l-461 -1455h-231l-298 1094h-3l-304 -1094h-231l-461 1455h264l312 -1050h2l286 1050h263l284 -1053h2z" />
    <glyph glyph-name="X" unicode="X" horiz-adv-x="1422" 
d="M1067 0l-354 536h-4l-355 -536h-289l484 729l-473 726h285l349 -532h4l348 532h283l-471 -726l483 -729h-290z" />
    <glyph glyph-name="Y" unicode="Y" horiz-adv-x="1279" 
d="M965 1455h286l-489 -812v-643h-248v643l-486 812h283l325 -564h6z" />
    <glyph glyph-name="Z" unicode="Z" horiz-adv-x="1283" 
d="M431 222h730v-222h-1044v194l716 1035v4h-684v222h1009v-191l-727 -1039v-3z" />
    <glyph glyph-name="bracketleft" unicode="[" horiz-adv-x="682" 
d="M121 -301v1800h458v-177h-255v-1445h255v-178h-458z" />
    <glyph glyph-name="backslash" unicode="\" horiz-adv-x="898" 
d="M765 -229l-782 1747l181 84l784 -1747z" />
    <glyph glyph-name="bracketright" unicode="]" horiz-adv-x="682" 
d="M561 -301h-458v178h255v1445h-255v177h458v-1800z" />
    <glyph glyph-name="asciicircum" unicode="^" horiz-adv-x="962" 
d="M112 1023l281 432h174l283 -432h-201l-169 277l-175 -277h-193z" />
    <glyph glyph-name="underscore" unicode="_" horiz-adv-x="1087" 
d="M-5 -213v157h1096v-157h-1096z" />
    <glyph glyph-name="grave" unicode="`" horiz-adv-x="1031" 
d="M491 1101l-254 297l253 -1l234 -296h-233z" />
    <glyph glyph-name="a" unicode="a" horiz-adv-x="1252" 
d="M883 999h229v-999h-219v134h-3q-114 -150 -318 -150q-82 0 -156.5 23t-134 68t-103 106.5t-67 142t-23.5 171.5q0 111 37 208t101 165t153 107t191 39q195 0 309 -135h4v120zM608 192q119 0 201.5 84.5t82.5 217.5t-80.5 222.5t-202.5 89.5q-60 0 -112.5 -22t-91.5 -61.5
t-61.5 -99t-22.5 -129.5q0 -133 80 -217.5t207 -84.5z" />
    <glyph glyph-name="b" unicode="b" horiz-adv-x="1271" 
d="M699 1014q81 0 155.5 -25t133.5 -71t102.5 -109.5t67 -144t23.5 -169.5q0 -114 -37 -210t-101 -162t-153.5 -102.5t-192.5 -36.5q-211 0 -325 150h-4v-134h-219v1508h229v-629h5q114 135 316 135zM661 192q127 0 207 84.5t80 217.5q0 141 -82.5 226.5t-205.5 85.5
q-51 0 -96.5 -15.5t-80.5 -43.5t-61 -66.5t-39.5 -86t-13.5 -100.5q0 -134 84 -218t208 -84z" />
    <glyph glyph-name="c" unicode="c" horiz-adv-x="1090" 
d="M600 -16q-146 0 -262 64t-181.5 181.5t-65.5 268.5t66 268.5t183.5 182.5t267.5 65q121 0 234 -48t186 -138l-156 -135q-45 53 -109 83t-143 30q-88 0 -155 -38.5t-104 -108t-37 -159.5q0 -91 37.5 -161t105 -108.5t154.5 -38.5q32 0 63.5 5.5t58.5 15.5t51 23.5t44 29.5
t36 34l158 -140q-69 -78 -181.5 -127t-250.5 -49z" />
    <glyph glyph-name="d" unicode="d" horiz-adv-x="1270" 
d="M892 1508h229v-1508h-219v134h-4q-114 -150 -325 -150q-82 0 -156.5 23t-134 68t-103 106.5t-67 142t-23.5 171.5q0 111 37 208t101 165t153 107t191 39q202 0 316 -135h5v629zM609 192q124 0 208 84t84 218t-81.5 223t-209.5 89q-60 0 -112.5 -22t-91.5 -61.5t-61.5 -99
t-22.5 -129.5q0 -133 80 -217.5t207 -84.5z" />
    <glyph glyph-name="e" unicode="e" horiz-adv-x="1150" 
d="M1062 511q0 -55 -6 -91h-728q22 -106 98.5 -167t186.5 -61q155 0 249 118l160 -137q-68 -87 -174.5 -138t-246.5 -51q-145 0 -261 63t-183 181.5t-67 271.5q0 113 37 209t102 163t155 104.5t193 37.5q145 0 256 -65t170 -179t59 -259zM589 806q-95 0 -164 -52.5
t-93 -148.5h500q-15 61 -46.5 105.5t-82 70t-114.5 25.5z" />
    <glyph glyph-name="f" unicode="f" horiz-adv-x="702" 
d="M187 0v804h-112v195h112v183q0 167 77.5 254.5t224.5 87.5q140 0 251 -69l-51 -194q-107 51 -167 51q-35 0 -58 -16t-35.5 -50.5t-12.5 -88.5v-158h246v-195h-246v-804h-229z" />
    <glyph glyph-name="g" unicode="g" horiz-adv-x="1244" 
d="M876 999h229v-896q0 -93 -17 -171t-55.5 -144t-97 -111.5t-144.5 -71t-195 -25.5q-113 0 -218 27t-189 77l54 202q96 -51 169.5 -75t170.5 -24q142 0 220 70t78 176v106h-4q-117 -122 -303 -122q-139 0 -250 60.5t-174.5 173.5t-63.5 259q0 144 60.5 259.5t169.5 180.5
t246 65q87 0 167.5 -31t142.5 -90h4v105zM604 228q125 0 203.5 82.5t78.5 209.5q0 63 -22 116.5t-59.5 90t-89.5 57t-111 20.5q-127 0 -206 -80t-79 -207q0 -132 80.5 -210.5t204.5 -78.5z" />
    <glyph glyph-name="h" unicode="h" horiz-adv-x="1225" 
d="M720 1014q85 0 151.5 -23.5t117 -72.5t77.5 -130t27 -190v-599h-229v540q0 144 -54.5 205.5t-162.5 61.5q-126 0 -197.5 -76.5t-71.5 -221.5v-508h-229v1508h229v-634h4q62 69 149.5 104.5t188.5 35.5z" />
    <glyph glyph-name="i" unicode="i" horiz-adv-x="557" 
d="M280 1148q-65 0 -110 44.5t-45 107.5t45 107.5t110 44.5q63 0 108.5 -45t45.5 -107q0 -41 -21 -76t-56.5 -55.5t-76.5 -20.5zM164 0v999h229v-999h-229z" />
    <glyph glyph-name="j" unicode="j" horiz-adv-x="510" 
d="M256 1148q-65 0 -110 44.5t-45 107.5t45 107.5t110 44.5q41 0 76.5 -20.5t56.5 -55.5t21 -76q0 -63 -45.5 -107.5t-108.5 -44.5zM94 -421q-58 0 -99.5 7t-95.5 29l39 199q47 -29 91 -29q51 0 83 37.5t32 109.5v1067h229v-1067q0 -169 -78.5 -261t-200.5 -92z" />
    <glyph glyph-name="k" unicode="k" horiz-adv-x="1095" 
d="M549 420h-4l-167 -187v-233h-229v1508h229v-965h3l408 456h272l-360 -404l365 -595h-258z" />
    <glyph glyph-name="l" unicode="l" horiz-adv-x="557" 
d="M164 0v1508h229v-1508h-229z" />
    <glyph glyph-name="m" unicode="m" horiz-adv-x="1837" 
d="M1353 1014q169 0 260 -108.5t91 -327.5v-579h-229v521q0 286 -196 286q-100 0 -166.5 -82.5t-66.5 -225.5v-499h-229v521q0 286 -199 286q-105 0 -172.5 -82.5t-67.5 -225.5v-498h-229v999h229v-138h3q61 74 142.5 113.5t169.5 39.5q209 0 298 -166h4q63 81 155 123.5
t203 42.5z" />
    <glyph glyph-name="n" unicode="n" horiz-adv-x="1215" 
d="M716 1014q172 0 269.5 -104.5t97.5 -321.5v-589h-229v530q0 78 -14 132t-43 85.5t-67.5 45.5t-92.5 14q-58 0 -106 -20t-82 -58t-52.5 -96t-18.5 -130v-502h-229v999h229v-137h3q63 74 150 113t185 39z" />
    <glyph glyph-name="o" unicode="o" horiz-adv-x="1229" 
d="M615 -16q-116 0 -215 39t-166.5 107.5t-105.5 163.5t-38 204q0 147 64.5 264t185 184.5t275.5 67.5q152 0 271 -64.5t186 -182.5t67 -269q0 -150 -67 -267.5t-186.5 -182t-270.5 -64.5zM615 192q123 0 207 86.5t84 219.5q0 136 -83 222t-208 86q-130 0 -211 -88t-81 -220
q0 -130 82.5 -218t209.5 -88z" />
    <glyph glyph-name="p" unicode="p" horiz-adv-x="1271" 
d="M699 1014q68 0 131 -17.5t116 -50t97 -79t74.5 -103.5t47 -126t16.5 -143q0 -91 -23.5 -171.5t-67 -142t-103 -106t-134 -68t-156.5 -23.5q-202 0 -316 139h-3v-528h-229v1404h229v-121h4q116 136 317 136zM661 192q127 0 207 84.5t80 217.5q0 141 -82.5 226.5
t-205.5 85.5q-128 0 -209.5 -89t-81.5 -223t84 -218t208 -84z" />
    <glyph glyph-name="q" unicode="q" horiz-adv-x="1262" 
d="M893 999h229v-1404h-229v528h-3q-114 -139 -316 -139q-103 0 -192.5 36.5t-153.5 102.5t-101 162t-37 210q0 111 37 208t101 165t153 107t191 39q201 0 317 -136h4v121zM610 192q124 0 208 84t84 218q0 66 -21.5 123.5t-59.5 99t-92.5 65.5t-117.5 24
q-123 0 -205.5 -85.5t-82.5 -226.5q0 -133 80 -217.5t207 -84.5z" />
    <glyph glyph-name="r" unicode="r" horiz-adv-x="762" 
d="M692 1014q20 0 28 -1v-255q-39 3 -69 3q-85 0 -147.5 -38t-94 -102.5t-31.5 -146.5v-474h-229v999h229v-150h3q59 80 139.5 122.5t171.5 42.5z" />
    <glyph glyph-name="s" unicode="s" horiz-adv-x="919" 
d="M469 -16q-238 0 -404 146l116 172q61 -61 129.5 -89.5t158.5 -28.5q65 0 102.5 27t37.5 71q0 36 -42.5 59.5t-155.5 62.5q-45 15 -80 30t-71.5 35.5t-62.5 45.5t-47.5 56.5t-32.5 71.5t-11 88q0 122 99.5 202.5t252.5 80.5q198 0 354 -125l-115 -180q-39 36 -83.5 60.5
t-85.5 35.5t-82 11q-40 0 -74.5 -22t-34.5 -64q0 -24 21 -45.5t53 -38.5t85 -38q159 -63 198 -83q99 -53 130 -129q18 -47 18 -109q0 -64 -23 -118.5t-68 -96t-117 -65t-165 -23.5z" />
    <glyph glyph-name="t" unicode="t" horiz-adv-x="747" 
d="M447 -16q-132 0 -205.5 84t-73.5 248v488h-122v195h122v332l229 25v-357h294v-195h-294v-467q0 -75 23.5 -107t72.5 -32q67 0 148 43l60 -198q-54 -29 -109.5 -44t-144.5 -15z" />
    <glyph glyph-name="u" unicode="u" horiz-adv-x="1183" 
d="M814 999h229v-999h-229v130h-3q-59 -71 -139 -108.5t-169 -37.5q-85 0 -151.5 22.5t-117 69.5t-77.5 126.5t-27 188.5v608h229v-546q0 -75 11.5 -125t36.5 -80t61 -42.5t89 -12.5q51 0 97 21.5t82 61.5t57 103.5t21 141.5v478z" />
    <glyph glyph-name="v" unicode="v" horiz-adv-x="1093" 
d="M806 999h247l-396 -999h-219l-398 999h245l261 -712h4z" />
    <glyph glyph-name="w" unicode="w" horiz-adv-x="1579" 
d="M1299 999h232l-343 -999h-212l-187 629h-4l-187 -629h-207l-343 999h232l216 -657h4l193 657h191l196 -658h3z" />
    <glyph glyph-name="x" unicode="x" horiz-adv-x="1079" 
d="M768 0l-227 315h-4l-228 -315h-253l351 509l-349 490h265l212 -314h5l214 314h263l-347 -489l353 -510h-255z" />
    <glyph glyph-name="y" unicode="y" horiz-adv-x="1095" 
d="M815 999h240l-549 -1404h-241l180 461l-406 943h241l276 -674h2z" />
    <glyph glyph-name="z" unicode="z" horiz-adv-x="1001" 
d="M912 841l-522 -643v-3h514v-195h-822v161l514 640v3h-480v195h796v-158z" />
    <glyph glyph-name="braceleft" unicode="{" horiz-adv-x="732" 
d="M470 811q0 -91 -26 -141.5t-88 -72.5v-2q45 -15 67.5 -35t34.5 -62.5t12 -118.5v-371q0 -19 1 -34.5t4 -30t7.5 -25.5t11.5 -21t16 -16.5t21 -11.5t27 -7.5t33 -2.5h48v-157h-135q-99 0 -166 68t-67 180v398q0 19 -0.5 30.5t-2.5 28t-6.5 26.5t-12.5 23t-20.5 20
t-29.5 14.5t-41.5 11t-54.5 4.5v177q34 1 61 7.5t44.5 14.5t30 21.5t18.5 25t9.5 29.5t4 30t0.5 31v408q0 106 64 177.5t169 71.5h135v-158h-48q-32 0 -57 -12.5t-38 -33.5t-19.5 -43.5t-6.5 -45.5v-395z" />
    <glyph glyph-name="bar" unicode="|" horiz-adv-x="647" 
d="M224 -235v1744h198v-1744h-198z" />
    <glyph glyph-name="braceright" unicode="}" horiz-adv-x="732" 
d="M461 842q0 -15 0.5 -24t2 -23.5t4.5 -24t9 -21.5t14 -20t21 -17t29 -14.5t38.5 -9.5t49.5 -5v-177q-35 -1 -61.5 -6.5t-44 -12.5t-30 -19.5t-18.5 -23.5t-9.5 -29.5t-4 -31.5t-0.5 -35v-398q0 -56 -18.5 -103t-50 -78.5t-74 -49t-90.5 -17.5h-135v157h48q69 0 95 36
t26 113v371q0 76 12 118.5t34.5 62.5t67.5 35v2q-62 22 -88 72.5t-26 141.5v395q0 23 -6.5 45.5t-19.5 43.5t-38 33.5t-57 12.5h-48v158h135q105 0 169 -71.5t64 -177.5v-408z" />
    <glyph glyph-name="asciitilde" unicode="~" horiz-adv-x="1163" 
d="M277 411l-165 67q40 113 111 180.5t169 67.5q42 0 82 -8.5t61 -16.5t56 -24q7 -3 11 -5q84 -44 144 -44q29 0 56 12.5t48.5 34.5t36.5 51l164 -57q-24 -75 -63.5 -132.5t-94 -91.5t-115.5 -34q-41 0 -84.5 10.5t-65.5 19.5t-66 29q-87 40 -140 40q-91 0 -145 -99z" />
    <glyph glyph-name="exclamdown" unicode="&#xa1;" horiz-adv-x="552" 
d="M277 1013q63 0 108.5 -44.5t45.5 -107.5t-45.5 -108t-108.5 -45q-65 0 -110.5 45t-45.5 108t45.5 107.5t110.5 44.5zM193 538h177l42 -1049h-260z" />
    <glyph glyph-name="cent" unicode="&#xa2;" horiz-adv-x="1122" 
d="M1043 271q-36 -41 -85 -74.5t-114 -58.5t-136 -36v-200h-179v198q-196 24 -317 163.5t-121 345.5q0 205 120 343.5t318 166.5v198h179v-199q98 -15 184 -60.5t146 -118.5l-155 -135q-30 34 -68 59t-86.5 39.5t-102.5 14.5q-135 0 -218.5 -85t-83.5 -220q0 -136 84 -222
t219 -86q81 0 148 30t110 78z" />
    <glyph glyph-name="sterling" unicode="&#xa3;" horiz-adv-x="1159" 
d="M92 0v222h145v445h-118v169h118v99q0 74 11.5 137.5t32.5 112t51.5 88t66.5 66t78.5 45t87 26.5t93.5 8q119 0 223.5 -52.5t174.5 -147.5l-124 -166q-48 64 -112 99.5t-130 35.5q-36 0 -65.5 -7.5t-56.5 -26.5t-45.5 -50t-29.5 -80t-11 -114v-73h332v-169h-329v-445h617
v-222h-1010z" />
    <glyph glyph-name="currency" unicode="&#xa4;" horiz-adv-x="1045" 
d="M894 792q0 -114 -63 -207l161 -162l-105 -106l-163 163q-94 -62 -207 -62q-112 0 -206 62l-162 -161l-107 106l162 162q-60 93 -60 205q0 114 61 206l-163 163l107 106l162 -161q97 63 207 63q112 0 207 -63l162 163l106 -107l-162 -162q63 -97 63 -208zM519 582
q87 1 149.5 63.5t64.5 149.5q-2 89 -64.5 151.5t-150.5 62.5q-87 -2 -149.5 -64t-63.5 -149q0 -58 29 -107t78 -78t107 -29z" />
    <glyph glyph-name="yen" unicode="&#xa5;" horiz-adv-x="1188" 
d="M1173 1403l-313 -558h171v-142h-251l-54 -97h305v-142h-313v-464h-248v464h-328v142h320l-54 97h-266v142h186l-314 559h286l292 -568h4l291 568z" />
    <glyph glyph-name="brokenbar" unicode="&#xa6;" horiz-adv-x="647" 
d="M224 789v720h198v-720h-198zM224 -234v722h198v-722h-198z" />
    <glyph glyph-name="section" unicode="&#xa7;" horiz-adv-x="1130" 
d="M861 281q60 -44 90 -102t30 -142q0 -160 -113.5 -255t-301.5 -95q-129 0 -244.5 48.5t-208.5 144.5l139 167q68 -73 150.5 -109.5t159.5 -36.5q72 0 118.5 35.5t46.5 95.5q0 25 -8.5 45t-22.5 35t-42.5 30.5t-57 27.5t-76.5 30q-44 17 -73 28.5t-68 28.5t-64.5 30.5
t-56.5 32.5t-50.5 36.5t-39.5 40.5t-31 47.5t-18 54t-7 61.5q0 61 18.5 112.5t54 90.5t86.5 66q-113 90 -113 236q0 149 107 245.5t286 96.5q70 0 147 -20t147 -55t124 -81l-136 -166q-141 103 -269 103q-70 0 -112 -32.5t-42 -85.5q0 -17 4.5 -31.5t11 -26t20.5 -23t27 -20
t36.5 -20t42.5 -19.5t51 -21q187 -77 235 -101q116 -62 154 -142q25 -54 25 -129q0 -80 -40.5 -146.5t-115.5 -109.5zM346 603q0 -61 52.5 -101t188.5 -92q5 -2 36 -14t46 -18q55 14 84 49t29 80q0 22 -5 39t-18 33t-29.5 29t-47 28t-62.5 28.5t-83 33.5l-72 28
q-38 -7 -65.5 -26t-40.5 -44t-13 -53z" />
    <glyph glyph-name="dieresis" unicode="&#xa8;" horiz-adv-x="1054" 
d="M325 1111q-65 0 -110 44.5t-45 107.5q0 25 7.5 48t22 41.5t33.5 32.5t42.5 22t49.5 8q63 0 108.5 -45t45.5 -107q0 -63 -45.5 -107.5t-108.5 -44.5zM732 1114q-63 0 -107.5 43.5t-44.5 105.5q0 30 12 57.5t32.5 48t48.5 32.5t59 12q62 0 107 -44.5t45 -105.5t-45 -105
t-107 -44z" />
    <glyph glyph-name="copyright" unicode="&#xa9;" horiz-adv-x="1460" 
d="M729 9q-132 0 -250.5 51.5t-203 138t-134 205t-49.5 247.5t50 247t135 205t204 138.5t251 51.5q131 0 249.5 -51.5t203 -138.5t134 -205t49.5 -247q0 -128 -50 -246t-134.5 -205t-203.5 -139t-251 -52zM729 164q100 0 190 39t153.5 104.5t101 155.5t37.5 188
q0 99 -37 188.5t-100.5 155t-152.5 104t-189 38.5q-101 0 -191 -39t-154 -104.5t-101 -155.5t-37 -189t37 -188.5t100.5 -154.5t153 -103.5t189.5 -38.5zM748 314q-69 0 -129.5 21.5t-107 62.5t-73.5 105t-27 144q0 94 38 169t115.5 121t183.5 46q73 0 142 -31.5t121 -95.5
l-102 -87q-30 35 -72 57.5t-89 22.5q-56 0 -99 -24t-67 -70.5t-24 -107.5q0 -59 23.5 -104t66.5 -70t100 -25q48 0 90.5 21t70.5 57l102 -88q-46 -57 -112.5 -90.5t-150.5 -33.5z" />
    <glyph glyph-name="ordfeminine" unicode="&#xaa;" horiz-adv-x="862" 
d="M561 1406h161v-600h-161v70h-1q-76 -82 -201 -82q-132 0 -213 86.5t-81 224.5q0 67 21 125t58 99t90.5 64.5t115.5 23.5q59 0 113.5 -24t95.5 -68h2v81zM397 948q68 0 114 43.5t46 113.5q0 45 -20.5 82t-57 57.5t-81.5 20.5q-71 0 -118.5 -45t-47.5 -115q0 -69 46.5 -113
t118.5 -44z" />
    <glyph glyph-name="guillemotleft" unicode="&#xab;" horiz-adv-x="1012" 
d="M561 67h-229l-248 437l252 445h228l-253 -445zM952 67h-229l-248 437l252 445h228l-253 -445z" />
    <glyph glyph-name="logicalnot" unicode="&#xac;" horiz-adv-x="1131" 
d="M821 311v330h-718v205h925v-535h-207z" />
    <glyph glyph-name="registered" unicode="&#xae;" horiz-adv-x="1469" 
d="M736 1298q133 0 252 -52t204 -139.5t134.5 -206.5t49.5 -249q0 -129 -50 -248t-135 -206.5t-205 -139.5t-253 -52q-132 0 -251 52t-204.5 139t-135.5 206t-50 249q0 129 50.5 248.5t136 207t205 139.5t252.5 52zM733 160q101 0 191.5 39.5t154.5 105.5t101.5 156.5
t37.5 189.5q0 100 -37.5 190.5t-101 156.5t-153.5 105t-190 39q-82 0 -157 -25t-134.5 -71t-103.5 -107t-68 -135.5t-24 -154.5t24 -154t68 -134.5t103 -105.5t133.5 -70t155.5 -25zM988 765q0 -51 -16 -91t-45 -66.5t-70 -41.5l163 -242h-160l-147 225h-71v-225h-136v663
h252q114 0 172 -61t58 -161zM643 863v-191h84q58 0 88.5 26.5t30.5 69.5q0 42 -30.5 68.5t-83.5 26.5h-89z" />
    <glyph glyph-name="macron" unicode="&#xaf;" horiz-adv-x="912" 
d="M151 1159v193h610v-193h-610z" />
    <glyph glyph-name="degree" unicode="&#xb0;" horiz-adv-x="803" 
d="M401 903q-118 0 -203.5 83t-85.5 200q0 76 40.5 142t107 104.5t141.5 38.5t142 -38.5t107 -105.5t40 -144q0 -115 -85.5 -197.5t-203.5 -82.5zM401 1055q55 0 93.5 38t38.5 92q0 55 -39 94.5t-92.5 39.5t-93 -39.5t-39.5 -94.5q0 -54 38.5 -92t93.5 -38z" />
    <glyph glyph-name="plusminus" unicode="&#xb1;" horiz-adv-x="1255" 
d="M499 350v377h-378v210h378v379h212v-379h378v-210h-378v-377h-212zM166 -8v210h968v-210h-968z" />
    <glyph glyph-name="uni00B2" unicode="&#xb2;" horiz-adv-x="704" 
d="M334 1068h311v-175h-590l-3 129l272 267q62 61 88.5 101t26.5 81q0 29 -13.5 51.5t-37.5 35t-55 12.5q-38 0 -77 -20.5t-66 -64.5l-143 104q42 71 120.5 115.5t180.5 44.5q77 0 142 -30t105.5 -89t40.5 -136q0 -53 -11.5 -93.5t-45 -87t-93.5 -102.5l-152 -139v-4z" />
    <glyph glyph-name="uni00B3" unicode="&#xb3;" horiz-adv-x="718" 
d="M530 1326q43 -19 73 -47.5t46 -68t16 -87.5q0 -111 -84.5 -178t-219.5 -67q-118 0 -205 55t-120 140l173 70q17 -49 50 -72.5t88 -23.5q36 0 62.5 13t41 36t14.5 54q0 30 -15.5 52.5t-46.5 35t-73 12.5h-61v144h75q50 0 80 25t30 63q0 43 -29.5 69.5t-79.5 26.5
q-84 0 -116 -75l-160 86q30 70 105.5 114.5t173.5 44.5q125 0 207 -61t82 -169q0 -124 -107 -190v-2z" />
    <glyph glyph-name="acute" unicode="&#xb4;" horiz-adv-x="1031" 
d="M306 1101l235 296l252 1l-254 -297h-233z" />
    <glyph glyph-name="uni00B5" unicode="&#xb5;" horiz-adv-x="1187" 
d="M822 999h229v-999h-210l-13 132h-2q-57 -71 -132 -109.5t-159 -38.5q-115 0 -178 66l-3 -1q13 -92 13 -220v-234h-229v1404h229v-519q0 -288 217 -288q104 0 171 82.5t67 225.5v499z" />
    <glyph glyph-name="paragraph" unicode="&#xb6;" horiz-adv-x="1079" 
d="M750 -310v1518h-127v-1208h-147v647q-114 7 -199.5 49t-135 121t-49.5 185q0 164 111.5 261.5t305.5 97.5h383v-1671h-142z" />
    <glyph glyph-name="periodcentered" unicode="&#xb7;" horiz-adv-x="561" 
d="M279 350q-65 0 -110.5 44.5t-45.5 107.5t45.5 108t110.5 45q63 0 108.5 -45t45.5 -108t-45.5 -107.5t-108.5 -44.5z" />
    <glyph glyph-name="cedilla" unicode="&#xb8;" horiz-adv-x="774" 
d="M380 -65q93 -4 141 -45.5t48 -118.5q0 -73 -60 -116.5t-184 -43.5q-59 0 -121 12v113q40 -14 103 -14q42 0 73 15t31 46q0 18 -19 33.5t-59 25.5t-94 10v74l40 86h136l-37 -74z" />
    <glyph glyph-name="uni00B9" unicode="&#xb9;" horiz-adv-x="577" 
d="M268 893v604l-137 -95l-95 148l275 186h149v-843h-192z" />
    <glyph glyph-name="ordmasculine" unicode="&#xba;" horiz-adv-x="796" 
d="M387 795q-142 0 -232 88t-90 224t90 223t232 87q141 0 232.5 -86.5t91.5 -223.5q0 -68 -24.5 -126.5t-67.5 -99t-103 -63.5t-129 -23zM387 947q64 0 107 45t43 115t-42.5 115t-107.5 45q-43 0 -77 -21t-52.5 -57.5t-18.5 -81.5q0 -69 41.5 -114.5t106.5 -45.5z" />
    <glyph glyph-name="guillemotright" unicode="&#xbb;" horiz-adv-x="1012" 
d="M60 67l250 437l-253 445h228l252 -445l-248 -437h-229zM451 67l250 437l-253 445h228l252 -445l-248 -437h-229z" />
    <glyph glyph-name="onequarter" unicode="&#xbc;" horiz-adv-x="1655" 
d="M596 -45l-185 80l642 1449l185 -80zM268 613v604l-137 -95l-95 148l275 186h149v-843h-192zM1303 0v131h-354v118l395 594h150v-546h116v-166h-116v-131h-191zM1160 285h158v248z" />
    <glyph glyph-name="onehalf" unicode="&#xbd;" horiz-adv-x="1723" 
d="M1053 1484l185 -80l-642 -1449l-185 80zM460 613h-192v604l-137 -95l-95 148l275 186h149v-843zM1353 175h311v-175h-590l-3 129l272 267q31 31 51 53t35 44.5t22 43t7 41.5q0 44 -29.5 71.5t-76.5 27.5q-38 0 -77 -20.5t-66 -64.5l-143 104q42 71 120.5 115.5
t180.5 44.5q77 0 142 -30t105.5 -89t40.5 -136q0 -53 -11.5 -93.5t-45 -87t-93.5 -102.5l-152 -139v-4z" />
    <glyph glyph-name="threequarters" unicode="&#xbe;" horiz-adv-x="1754" 
d="M1152 1484l185 -80l-642 -1449l-185 80zM665 843q0 -111 -84.5 -178t-219.5 -67q-118 0 -205 54.5t-120 140.5l173 70q17 -49 50 -72.5t88 -23.5q54 0 86 28t32 75q0 30 -15.5 52t-46.5 35t-73 13h-61v144h75q50 0 80 25t30 63q0 43 -29.5 69.5t-79.5 26.5
q-84 0 -116 -75l-160 86q30 70 105.5 114.5t173.5 44.5q125 0 207 -61t82 -169q0 -124 -107 -190v-2q65 -28 100 -79.5t35 -123.5zM1593 297h116v-166h-116v-131h-191v131h-354v118l395 594h150v-546zM1417 285v248l-158 -248h158z" />
    <glyph glyph-name="questiondown" unicode="&#xbf;" horiz-adv-x="916" 
d="M544 1013q65 0 110.5 -44.5t45.5 -107.5t-45.5 -108t-110.5 -45q-63 0 -108.5 45t-45.5 108t45.5 107.5t108.5 44.5zM651 538l1 -103q0 -21 -2.5 -40.5t-10 -39.5t-13 -34.5t-20 -35t-21.5 -31.5t-26 -32.5t-26 -29t-29.5 -31t-28.5 -29.5q-64 -68 -97.5 -124.5
t-33.5 -126.5q0 -85 51 -132.5t133 -47.5q60 0 119 32t97 88l171 -159q-70 -90 -175.5 -139.5t-230.5 -49.5q-66 0 -127.5 15.5t-115.5 48t-94 78.5t-63 111t-23 142q0 58 14.5 110t42 97t56 79t67.5 72q14 14 35 33.5t35.5 33t32 30.5t29 31t22.5 30t16.5 32t6.5 32l5 90
h203z" />
    <glyph glyph-name="Agrave" unicode="&#xc0;" horiz-adv-x="1427" 
d="M820 1611h-233l-254 297l253 -1zM1122 0l-110 313h-594l-109 -313h-258l543 1455h241l546 -1455h-259zM493 527h444l-221 630h-2z" />
    <glyph glyph-name="Aacute" unicode="&#xc1;" horiz-adv-x="1427" 
d="M1100 1908l-254 -297h-233l235 296zM1122 0l-110 313h-594l-109 -313h-258l543 1455h241l546 -1455h-259zM493 527h444l-221 630h-2z" />
    <glyph glyph-name="Acircumflex" unicode="&#xc2;" horiz-adv-x="1427" 
d="M709 1761l-111 -154h-224l231 301h206l241 -301h-225l-112 154h-6zM1122 0l-110 313h-594l-109 -313h-258l543 1455h241l546 -1455h-259zM493 527h444l-221 630h-2z" />
    <glyph glyph-name="Atilde" unicode="&#xc3;" horiz-adv-x="1427" 
d="M583 1716q-76 0 -118 -106l-140 64q32 104 91.5 164.5t141.5 60.5q28 0 53 -4.5t48.5 -14.5t35.5 -17l36 -21q3 -2 13 -8.5t13 -8.5t12 -7.5t13.5 -7.5t12.5 -6t13.5 -5.5t12.5 -3.5t14 -3t14 -1q37 0 67 27.5t50 77.5l138 -46q-20 -75 -53 -129.5t-77.5 -84.5t-96.5 -30
q-34 0 -69.5 11t-56.5 22.5t-53 31.5q-25 15 -40 23t-36 15t-39 7zM1122 0l-110 313h-594l-109 -313h-258l543 1455h241l546 -1455h-259zM493 527h444l-221 630h-2z" />
    <glyph glyph-name="Adieresis" unicode="&#xc4;" horiz-adv-x="1427" 
d="M510 1621q-65 0 -110 44.5t-45 107.5q0 31 12 59t32.5 48.5t49.5 32.5t61 12q41 0 76.5 -20.5t56.5 -55.5t21 -76q0 -63 -45.5 -107.5t-108.5 -44.5zM917 1624q-63 0 -107.5 43.5t-44.5 105.5q0 61 44.5 105.5t107.5 44.5q31 0 59 -12t48.5 -32.5t32.5 -48t12 -57.5
q0 -61 -45 -105t-107 -44zM1122 0l-110 313h-594l-109 -313h-258l543 1455h241l546 -1455h-259zM493 527h444l-221 630h-2z" />
    <glyph glyph-name="Aring" unicode="&#xc5;" horiz-adv-x="1427" 
d="M713 1558q-91 0 -156 62t-65 153q0 90 63 152.5t158 62.5q60 0 111 -27.5t81 -77t30 -110.5q0 -89 -63 -152t-159 -63zM713 1854q-33 0 -56 -23.5t-23 -55.5q0 -33 23 -55.5t56 -22.5q16 0 31 6t25.5 16.5t17 25.5t6.5 31q0 21 -10.5 39t-29 28.5t-40.5 10.5zM1122 0
l-110 313h-594l-109 -313h-258l543 1455h241l546 -1455h-259zM493 527h444l-221 630h-2z" />
    <glyph glyph-name="AE" unicode="&#xc6;" horiz-adv-x="1955" 
d="M1136 222h711v-222h-958v313h-454l-160 -313h-261l748 1455h1044v-222h-670v-399h549v-222h-549v-390zM544 527h345v670h-3z" />
    <glyph glyph-name="Ccedilla" unicode="&#xc7;" horiz-adv-x="1494" 
d="M846 220q118 0 218 53.5t173 144.5l182 -155q-48 -60 -106 -108.5t-128 -86.5t-154 -59t-176 -22l-25 -49l2 -3q93 -4 141 -45.5t48 -118.5q0 -73 -60 -116.5t-184 -43.5q-59 0 -121 12v113q40 -14 103 -14q42 0 73 15t31 46q0 29 -45.5 49t-126.5 20v74l30 64v6
q-129 19 -239 75t-193 146t-130 219.5t-47 285.5q0 125 30.5 237.5t92.5 205.5t149 161.5t205.5 106.5t256.5 38q158 0 308.5 -69t264.5 -210l-182 -154q-73 91 -175.5 145t-215.5 54q-140 0 -248 -64t-168 -181t-60 -270q0 -147 61 -261.5t169.5 -177.5t245.5 -63z" />
    <glyph glyph-name="Egrave" unicode="&#xc8;" horiz-adv-x="1244" 
d="M656 1611l-254 297l253 -1l234 -296h-233zM178 0v1455h915v-222h-668v-401h540v-222h-540v-388h711v-222h-958z" />
    <glyph glyph-name="Eacute" unicode="&#xc9;" horiz-adv-x="1244" 
d="M453 1611l235 296l252 1l-254 -297h-233zM178 0v1455h915v-222h-668v-401h540v-222h-540v-388h711v-222h-958z" />
    <glyph glyph-name="Ecircumflex" unicode="&#xca;" horiz-adv-x="1244" 
d="M651 1761l-111 -154h-224l231 301h206l241 -301h-225l-112 154h-6zM425 222h711v-222h-958v1455h915v-222h-668v-401h540v-222h-540v-388z" />
    <glyph glyph-name="Edieresis" unicode="&#xcb;" horiz-adv-x="1244" 
d="M452 1621q-43 0 -78.5 20.5t-56 55.5t-20.5 76q0 63 45 107.5t110 44.5q41 0 76.5 -20.5t56.5 -55.5t21 -76q0 -63 -45.5 -107.5t-108.5 -44.5zM859 1624q-41 0 -76 20t-55.5 54.5t-20.5 74.5q0 61 44.5 105.5t107.5 44.5q62 0 107 -44.5t45 -105.5q0 -40 -20.5 -74.5
t-55.5 -54.5t-76 -20zM178 0v1455h915v-222h-668v-401h540v-222h-540v-388h711v-222h-958z" />
    <glyph glyph-name="Igrave" unicode="&#xcc;" horiz-adv-x="622" 
d="M187 1611l-254 297l253 -1l234 -296h-233zM187 0v1455h248v-1455h-248z" />
    <glyph glyph-name="Iacute" unicode="&#xcd;" horiz-adv-x="622" 
d="M210 1611l235 296l252 1l-254 -297h-233zM187 0v1455h248v-1455h-248z" />
    <glyph glyph-name="Icircumflex" unicode="&#xce;" horiz-adv-x="622" 
d="M302 1761l-111 -154h-224l231 301h206l241 -301h-225l-112 154h-6zM187 0v1455h248v-1455h-248z" />
    <glyph glyph-name="Idieresis" unicode="&#xcf;" horiz-adv-x="622" 
d="M103 1621q-65 0 -110 44.5t-45 107.5t45 107.5t110 44.5q41 0 76.5 -20.5t56.5 -55.5t21 -76q0 -63 -45.5 -107.5t-108.5 -44.5zM510 1624q-41 0 -76 20t-55.5 54.5t-20.5 74.5q0 61 44.5 105.5t107.5 44.5q62 0 107 -44.5t45 -105.5q0 -40 -20.5 -74.5t-55.5 -54.5
t-76 -20zM187 0v1455h248v-1455h-248z" />
    <glyph glyph-name="Eth" unicode="&#xd0;" horiz-adv-x="1508" 
d="M641 1455q170 0 312 -54t239 -150t150.5 -231t53.5 -295t-52 -294t-147 -229.5t-236.5 -148.5t-313.5 -53h-469v617h-121v210h121v628h463zM632 222q91 0 171 24.5t141.5 70t106 107t67.5 138.5t23 163q0 146 -62.5 262t-176 181t-256.5 65h-221v-406h248v-210h-248v-395
h207z" />
    <glyph glyph-name="Ntilde" unicode="&#xd1;" horiz-adv-x="1563" 
d="M650 1716q-76 0 -118 -106l-140 64q21 68 53 117.5t78.5 78.5t101.5 29q37 0 72 -10t52 -19t49 -28q3 -2 11.5 -7.5t12 -7.5t11 -7t11.5 -7t11 -6t12 -5.5t12 -4t12.5 -3.5t12 -2t12.5 -1q24 0 46 12.5t40 36t31 56.5l138 -46q-30 -114 -89.5 -179t-137.5 -65
q-34 0 -69.5 11t-56.5 22.5t-53 31.5q-25 15 -40 23t-36 15t-39 7zM1138 1455h247v-1455h-252l-704 1029h-4v-1029h-247v1455h245l710 -1044h5v1044z" />
    <glyph glyph-name="Ograve" unicode="&#xd2;" horiz-adv-x="1693" 
d="M731 1611l-254 297l253 -1l234 -296h-233zM848 -16q-161 0 -299 56.5t-233.5 155t-149.5 236t-54 296.5q0 158 54 295.5t149.5 236t233.5 155t299 56.5q156 0 291.5 -54t233 -150.5t153 -235.5t55.5 -303t-55.5 -303.5t-153 -235.5t-233 -150.5t-291.5 -54.5zM848 215
q203 0 339.5 145.5t136.5 367.5t-136.5 367t-339.5 145q-104 0 -194 -40t-152 -109t-97.5 -163t-35.5 -200t35.5 -200.5t97.5 -163.5t152 -109t194 -40z" />
    <glyph glyph-name="Oacute" unicode="&#xd3;" horiz-adv-x="1693" 
d="M743 1611l235 296l252 1l-254 -297h-233zM848 -16q-161 0 -299 56.5t-233.5 155t-149.5 236t-54 296.5q0 158 54 295.5t149.5 236t233.5 155t299 56.5q156 0 291.5 -54t233 -150.5t153 -235.5t55.5 -303t-55.5 -303.5t-153 -235.5t-233 -150.5t-291.5 -54.5zM848 215
q203 0 339.5 145.5t136.5 367.5t-136.5 367t-339.5 145q-104 0 -194 -40t-152 -109t-97.5 -163t-35.5 -200t35.5 -200.5t97.5 -163.5t152 -109t194 -40z" />
    <glyph glyph-name="Ocircumflex" unicode="&#xd4;" horiz-adv-x="1693" 
d="M844 1761l-111 -154h-224l231 301h206l241 -301h-225l-112 154h-6zM848 1471q156 0 291.5 -54t233 -150.5t153 -235.5t55.5 -303t-55.5 -303.5t-153 -235.5t-233 -150.5t-291.5 -54.5q-161 0 -299 56.5t-233.5 155t-149.5 236t-54 296.5q0 158 54 295.5t149.5 236
t233.5 155t299 56.5zM848 215q100 0 188 38.5t151 106t100 163t37 205.5t-37 205.5t-100 162.5t-151 105.5t-188 38.5q-104 0 -194 -40t-152 -109t-97.5 -163t-35.5 -200t35.5 -200.5t97.5 -163.5t152 -109t194 -40z" />
    <glyph glyph-name="Otilde" unicode="&#xd5;" horiz-adv-x="1693" 
d="M1012 1606q-34 0 -69.5 11t-56.5 22.5t-53 31.5q-19 11 -30 17.5t-27 13.5t-30 10.5t-28 3.5q-76 0 -118 -106l-140 64q21 68 53 117.5t78.5 78.5t101.5 29q37 0 72 -10t52 -19t49 -28q3 -2 13 -8.5t13 -8.5t12 -7.5t13.5 -7.5t12.5 -6t13.5 -5.5t12.5 -3.5t14 -3t14 -1
q36 0 66.5 27.5t50.5 77.5l138 -46q-30 -114 -89.5 -179t-137.5 -65zM848 -16q-161 0 -299 56.5t-233.5 155t-149.5 236t-54 296.5q0 158 54 295.5t149.5 236t233.5 155t299 56.5q156 0 291.5 -54t233 -150.5t153 -235.5t55.5 -303t-55.5 -303.5t-153 -235.5t-233 -150.5
t-291.5 -54.5zM848 215q100 0 188 38.5t151 106t100 163t37 205.5t-37 205.5t-100 162.5t-151 105.5t-188 38.5q-104 0 -194 -40t-152 -109t-97.5 -163t-35.5 -200t35.5 -200.5t97.5 -163.5t152 -109t194 -40z" />
    <glyph glyph-name="Odieresis" unicode="&#xd6;" horiz-adv-x="1693" 
d="M645 1621q-65 0 -110 44.5t-45 107.5q0 31 12 59t32.5 48.5t49.5 32.5t61 12q41 0 76.5 -20.5t56.5 -55.5t21 -76q0 -63 -45.5 -107.5t-108.5 -44.5zM1052 1624q-63 0 -107.5 43.5t-44.5 105.5q0 61 44.5 105.5t107.5 44.5q62 0 107 -44.5t45 -105.5q0 -40 -20.5 -74.5
t-55.5 -54.5t-76 -20zM848 -16q-161 0 -299 56.5t-233.5 155t-149.5 236t-54 296.5q0 158 54 295.5t149.5 236t233.5 155t299 56.5q156 0 291.5 -54t233 -150.5t153 -235.5t55.5 -303t-55.5 -303.5t-153 -235.5t-233 -150.5t-291.5 -54.5zM848 215q100 0 188 38.5t151 106
t100 163t37 205.5t-37 205.5t-100 162.5t-151 105.5t-188 38.5q-104 0 -194 -40t-152 -109t-97.5 -163t-35.5 -200t35.5 -200.5t97.5 -163.5t152 -109t194 -40z" />
    <glyph glyph-name="multiply" unicode="&#xd7;" horiz-adv-x="1073" 
d="M249 135l-146 145l288 288l-288 287l145 146l286 -288l289 289l147 -146l-289 -290l288 -288l-145 -143l-288 286z" />
    <glyph glyph-name="Oslash" unicode="&#xd8;" horiz-adv-x="1693" 
d="M1607 1386l-174 -190q148 -194 148 -468q0 -164 -55.5 -303.5t-153 -235.5t-233 -150.5t-291.5 -54.5q-238 0 -420 119l-160 -174l-141 131l157 170q-83 99 -127.5 226t-44.5 272q0 158 54 295.5t149.5 236t233.5 155t299 56.5q260 0 450 -142l170 184zM369 728
q0 -176 90 -308l671 727q-123 93 -282 93q-104 0 -194 -40t-152 -109t-97.5 -163t-35.5 -200zM1324 728q0 153 -69 275l-659 -717q112 -71 252 -71q80 0 152.5 24.5t131 70.5t102 108.5t67 142t23.5 167.5z" />
    <glyph glyph-name="Ugrave" unicode="&#xd9;" horiz-adv-x="1473" 
d="M658 1611l-254 297l253 -1l234 -296h-233zM735 -16q-129 0 -235.5 41t-182.5 118.5t-118 193.5t-42 261v857h247v-838q0 -116 39 -206t114.5 -141.5t177.5 -51.5q149 0 241.5 107t92.5 292v838h247v-857q0 -284 -155 -449t-426 -165z" />
    <glyph glyph-name="Uacute" unicode="&#xda;" horiz-adv-x="1473" 
d="M578 1611l235 296l252 1l-254 -297h-233zM735 -16q-129 0 -235.5 41t-182.5 118.5t-118 193.5t-42 261v857h247v-838q0 -177 89 -288t242 -111q149 0 241.5 107t92.5 292v838h247v-857q0 -284 -155 -449t-426 -165z" />
    <glyph glyph-name="Ucircumflex" unicode="&#xdb;" horiz-adv-x="1473" 
d="M731 1761l-111 -154h-224l231 301h206l241 -301h-225l-112 154h-6zM1069 1455h247v-857q0 -284 -155 -449t-426 -165q-129 0 -235.5 41t-182.5 118.5t-118 193.5t-42 261v857h247v-838q0 -116 39 -206t114.5 -141.5t177.5 -51.5q149 0 241.5 107t92.5 292v838z" />
    <glyph glyph-name="Udieresis" unicode="&#xdc;" horiz-adv-x="1473" 
d="M532 1621q-65 0 -110 44.5t-45 107.5t45 107.5t110 44.5q63 0 108.5 -45t45.5 -107q0 -63 -45.5 -107.5t-108.5 -44.5zM939 1624q-63 0 -107.5 43.5t-44.5 105.5q0 61 44.5 105.5t107.5 44.5q31 0 59 -12t48.5 -32.5t32.5 -48t12 -57.5q0 -61 -45 -105t-107 -44zM735 -16
q-129 0 -235.5 41t-182.5 118.5t-118 193.5t-42 261v857h247v-838q0 -116 39 -206t114.5 -141.5t177.5 -51.5q149 0 241.5 107t92.5 292v838h247v-857q0 -284 -155 -449t-426 -165z" />
    <glyph glyph-name="Yacute" unicode="&#xdd;" horiz-adv-x="1279" 
d="M985 1908l-254 -297h-233l235 296zM965 1455h286l-489 -812v-643h-248v643l-486 812h283l325 -564h6z" />
    <glyph glyph-name="Thorn" unicode="&#xde;" horiz-adv-x="1330" 
d="M178 0v1455h247v-269h322q127 0 223 -35.5t155 -99.5t88 -148.5t29 -188.5q0 -114 -37.5 -202t-107.5 -144t-165.5 -84.5t-214.5 -28.5h-292v-255h-247zM425 477h267q146 0 219.5 66t73.5 176q0 77 -31.5 132t-93.5 84t-151 29h-284v-487z" />
    <glyph glyph-name="germandbls" unicode="&#xdf;" horiz-adv-x="1309" 
d="M982 869q118 -57 185 -169t67 -247q0 -214 -126 -341.5t-330 -127.5h-211v206h155q79 0 143 34t100.5 95.5t36.5 137.5q0 56 -21 107t-59 90.5t-96.5 62.5t-128.5 23h-97v195h86q58 1 103 17t68.5 38t38.5 51t19 50t4 40q0 35 -15 67.5t-43.5 59.5t-76.5 43t-108 16
q-148 0 -222 -74t-74 -242v-1001h-229v995q0 266 132.5 397.5t384.5 131.5q114 0 205.5 -29t150 -80t90 -118t31.5 -145q0 -36 -8 -71.5t-25.5 -74t-50.5 -73.5t-79 -61v-3z" />
    <glyph glyph-name="agrave" unicode="&#xe0;" horiz-adv-x="1252" 
d="M786 1138h-233l-254 297l253 -1zM883 999h229v-999h-219v134h-3q-114 -150 -318 -150q-82 0 -156.5 23t-134 68t-103 106.5t-67 142t-23.5 171.5q0 111 37 208t101 165t153 107t191 39q195 0 309 -135h4v120zM608 192q119 0 201.5 84.5t82.5 217.5t-80.5 222.5
t-202.5 89.5q-60 0 -112.5 -22t-91.5 -61.5t-61.5 -99t-22.5 -129.5q0 -133 80 -217.5t207 -84.5z" />
    <glyph glyph-name="aacute" unicode="&#xe1;" horiz-adv-x="1252" 
d="M966 1435l-254 -297h-233l235 296zM883 999h229v-999h-219v134h-3q-114 -150 -318 -150q-82 0 -156.5 23t-134 68t-103 106.5t-67 142t-23.5 171.5q0 111 37 208t101 165t153 107t191 39q195 0 309 -135h4v120zM608 192q119 0 201.5 84.5t82.5 217.5t-80.5 222.5
t-202.5 89.5q-60 0 -112.5 -22t-91.5 -61.5t-61.5 -99t-22.5 -129.5q0 -133 80 -217.5t207 -84.5z" />
    <glyph glyph-name="acircumflex" unicode="&#xe2;" horiz-adv-x="1252" 
d="M619 1288l-111 -154h-224l231 301h206l241 -301h-225l-112 154h-6zM883 999h229v-999h-219v134h-3q-114 -150 -318 -150q-82 0 -156.5 23.5t-134 68t-103 106t-67 142t-23.5 171.5q0 111 37 208t101 165t153 107t191 39q195 0 309 -135h4v120zM608 192q119 0 201.5 84.5
t82.5 217.5t-80.5 222.5t-202.5 89.5q-60 0 -112.5 -22t-91.5 -61.5t-61.5 -99t-22.5 -129.5q0 -133 80 -217.5t207 -84.5z" />
    <glyph glyph-name="atilde" unicode="&#xe3;" horiz-adv-x="1252" 
d="M493 1243q-76 0 -118 -106l-140 64q32 104 91.5 164.5t141.5 60.5q37 0 72 -10t52 -19t49 -28q3 -2 10 -7q24 -15 36.5 -22t33 -14.5t38.5 -7.5q36 0 66.5 27.5t50.5 77.5l138 -46q-20 -75 -53 -129.5t-77.5 -84.5t-96.5 -30q-34 0 -69.5 11t-56.5 22.5t-53 31.5
q-19 11 -30 17.5t-27 13.5t-30 10.5t-28 3.5zM883 999h229v-999h-219v134h-3q-114 -150 -318 -150q-103 0 -192.5 36.5t-153.5 102.5t-101 162t-37 210q0 111 37 208t101 165t153 107t191 39q195 0 309 -135h4v120zM608 192q119 0 201.5 84.5t82.5 217.5t-80.5 222.5
t-202.5 89.5q-60 0 -112.5 -22t-91.5 -61.5t-61.5 -99t-22.5 -129.5q0 -133 80 -217.5t207 -84.5z" />
    <glyph glyph-name="adieresis" unicode="&#xe4;" horiz-adv-x="1252" 
d="M420 1148q-43 0 -78.5 20.5t-56 55.5t-20.5 76q0 63 45 107.5t110 44.5q63 0 108.5 -45t45.5 -107q0 -21 -5.5 -40.5t-15.5 -36t-24.5 -31t-31.5 -24t-36.5 -15t-40.5 -5.5zM827 1151q-63 0 -107.5 43.5t-44.5 105.5q0 61 44.5 105.5t107.5 44.5q62 0 107 -44.5
t45 -105.5q0 -30 -12 -57.5t-32.5 -47.5t-48.5 -32t-59 -12zM883 999h229v-999h-219v134h-3q-114 -150 -318 -150q-82 0 -156.5 23t-134 68t-103 106.5t-67 142t-23.5 171.5q0 111 37 208t101 165t153 107t191 39q195 0 309 -135h4v120zM608 192q119 0 201.5 84.5
t82.5 217.5t-80.5 222.5t-202.5 89.5q-60 0 -112.5 -22t-91.5 -61.5t-61.5 -99t-22.5 -129.5q0 -133 80 -217.5t207 -84.5z" />
    <glyph glyph-name="aring" unicode="&#xe5;" horiz-adv-x="1252" 
d="M623 1085q-91 0 -156 62t-65 153q0 90 63 152.5t158 62.5q93 0 157.5 -61.5t64.5 -153.5q0 -89 -63 -152t-159 -63zM623 1381q-33 0 -56 -23.5t-23 -55.5q0 -33 23 -55.5t56 -22.5t56.5 23t23.5 56q0 32 -23.5 55t-56.5 23zM883 999h229v-999h-219v134h-3
q-114 -150 -318 -150q-82 0 -156.5 23.5t-134 68t-103 106t-67 142t-23.5 171.5q0 111 37 208t101 165t153 107t191 39q195 0 309 -135h4v120zM608 192q119 0 201.5 84.5t82.5 217.5t-80.5 222.5t-202.5 89.5q-123 0 -205.5 -85.5t-82.5 -226.5q0 -133 80 -217.5t207 -84.5z
" />
    <glyph glyph-name="ae" unicode="&#xe6;" horiz-adv-x="1615" 
d="M1557 511q0 -55 -6 -91h-669q13 -68 47.5 -119t89.5 -80t124 -29q61 0 116.5 33t97.5 85l159 -137q-68 -86 -167 -137.5t-218 -51.5q-214 0 -345 158h-3q-53 -68 -142.5 -113t-211.5 -45q-93 0 -164.5 23.5t-115 65.5t-65.5 97t-22 122q0 151 100.5 235.5t294.5 85.5h199
v12q0 101 -38.5 141.5t-116.5 40.5q-139 0 -278 -68l-87 183q62 34 163 63.5t219 29.5q211 0 288 -152h4q59 72 142 111.5t184 39.5q123 0 219 -65t149 -179.5t53 -258.5zM1119 806q-84 0 -145.5 -51.5t-85.5 -142.5h438q-23 89 -78 141.5t-129 52.5zM450 182q79 0 141.5 50
t65.5 98v93l-177 -1q-188 0 -188 -120q0 -52 41 -86t117 -34z" />
    <glyph glyph-name="ccedilla" unicode="&#xe7;" horiz-adv-x="1090" 
d="M632 -15l-24 -47l2 -3q62 -2 104.5 -22t63.5 -55.5t21 -86.5q0 -73 -60 -116.5t-184 -43.5q-59 0 -121 12v113q40 -14 103 -14q42 0 73 15t31 46q0 29 -45.5 49t-126.5 20v74l28 60v7q-182 33 -294 169.5t-112 335.5q0 151 66 268.5t183.5 182.5t267.5 65q121 0 234 -48
t186 -138l-156 -135q-45 53 -109 83t-143 30q-88 0 -155 -38.5t-104 -108t-37 -159.5q0 -91 37.5 -161t105 -108.5t154.5 -38.5q32 0 63.5 5.5t58.5 15.5t51 23.5t44 29.5t36 34l158 -140q-64 -74 -168 -121.5t-232 -53.5z" />
    <glyph glyph-name="egrave" unicode="&#xe8;" horiz-adv-x="1150" 
d="M757 1138h-233l-254 297l253 -1zM1062 511q0 -55 -6 -91h-728q22 -106 98.5 -167t186.5 -61q155 0 249 118l160 -137q-68 -87 -174.5 -138t-246.5 -51q-145 0 -261 63t-183 181.5t-67 271.5q0 113 37 209t102 163t155 104.5t193 37.5q145 0 256 -65t170 -179t59 -259z
M589 806q-95 0 -164 -52.5t-93 -148.5h500q-15 61 -46.5 105.5t-82 70t-114.5 25.5z" />
    <glyph glyph-name="eacute" unicode="&#xe9;" horiz-adv-x="1150" 
d="M942 1435l-254 -297h-233l235 296zM1062 511q0 -55 -6 -91h-728q22 -106 98.5 -167t186.5 -61q155 0 249 118l160 -137q-68 -87 -174.5 -138t-246.5 -51q-145 0 -261 63t-183 181.5t-67 271.5q0 113 37 209t102 163t155 104.5t193 37.5q145 0 256 -65t170 -179t59 -259z
M589 806q-95 0 -164 -52.5t-93 -148.5h500q-11 46 -32 82.5t-51 63t-71 41t-89 14.5z" />
    <glyph glyph-name="ecircumflex" unicode="&#xea;" horiz-adv-x="1150" 
d="M591 1288l-111 -154h-224l231 301h206l241 -301h-225l-112 154h-6zM1062 511q0 -55 -6 -91h-728q22 -106 98.5 -167t186.5 -61q155 0 249 118l160 -137q-68 -87 -174.5 -138t-246.5 -51q-145 0 -261 63t-183 181.5t-67 271.5q0 113 37 209t102 163t155 104.5t193 37.5
q145 0 256 -65t170 -179t59 -259zM589 806q-95 0 -164 -52.5t-93 -148.5h500q-15 61 -46.5 105.5t-82 70t-114.5 25.5z" />
    <glyph glyph-name="edieresis" unicode="&#xeb;" horiz-adv-x="1150" 
d="M392 1148q-65 0 -110 44.5t-45 107.5t45 107.5t110 44.5q63 0 108.5 -45t45.5 -107q0 -41 -21 -76t-56.5 -55.5t-76.5 -20.5zM799 1151q-63 0 -107.5 43.5t-44.5 105.5q0 61 44.5 105.5t107.5 44.5q62 0 107 -44.5t45 -105.5q0 -30 -12 -57.5t-32.5 -47.5t-48.5 -32
t-59 -12zM1062 511q0 -55 -6 -91h-728q22 -106 98.5 -167t186.5 -61q155 0 249 118l160 -137q-68 -87 -174.5 -138t-246.5 -51q-145 0 -261 63t-183 181.5t-67 271.5q0 113 37 209t102 163t155 104.5t193 37.5q145 0 256 -65t170 -179t59 -259zM589 806q-95 0 -164 -52.5
t-93 -148.5h500q-15 61 -46.5 105.5t-82 70t-114.5 25.5z" />
    <glyph glyph-name="igrave" unicode="&#xec;" horiz-adv-x="558" 
d="M161 1138l-184 297l253 -1l164 -296h-233zM164 0v999h229v-999h-229z" />
    <glyph glyph-name="iacute" unicode="&#xed;" horiz-adv-x="557" 
d="M172 1138l235 296l252 1l-254 -297h-233zM164 0v999h229v-999h-229z" />
    <glyph glyph-name="icircumflex" unicode="&#xee;" horiz-adv-x="557" 
d="M280 1288h-6l-111 -154h-224l231 301h206l241 -301h-225zM164 0v999h229v-999h-229z" />
    <glyph glyph-name="idieresis" unicode="&#xef;" horiz-adv-x="557" 
d="M100 1148q-65 0 -110 44.5t-45 107.5t45 107.5t110 44.5q41 0 76.5 -20.5t56.5 -55.5t21 -76t-21 -76t-56.5 -55.5t-76.5 -20.5zM460 1151q-63 0 -107.5 43.5t-44.5 105.5q0 61 44.5 105.5t107.5 44.5q62 0 107 -44.5t45 -105.5q0 -30 -12 -57.5t-32.5 -47.5t-48.5 -32
t-59 -12zM164 0v999h229v-999h-229z" />
    <glyph glyph-name="eth" unicode="&#xf0;" horiz-adv-x="1220" 
d="M1128 519v-4q0 -154 -66 -275t-185.5 -188.5t-272.5 -67.5q-142 0 -259.5 63t-185 175.5t-67.5 251.5q0 113 37.5 208t103 159t154 99.5t189.5 35.5q117 0 223 -53l2 3q-89 155 -245 264l-136 -105l-100 114l92 73v3q-79 38 -163 66l112 176q125 -43 231 -103l142 112
l100 -121l-104 -80v-3q124 -96 212 -217t137 -271t49 -315zM609 192q124 0 204 84.5t80 212.5q0 124 -81.5 205t-205.5 81q-121 0 -201 -83.5t-80 -202.5q0 -128 81.5 -212.5t202.5 -84.5z" />
    <glyph glyph-name="ntilde" unicode="&#xf1;" horiz-adv-x="1215" 
d="M476 1243q-76 0 -118 -106l-140 64q32 104 91.5 164.5t141.5 60.5q37 0 72 -10t52 -19t49 -28q3 -2 12.5 -8.5t13 -8.5t12.5 -7.5t13.5 -7.5t12.5 -6t13.5 -5.5t12.5 -3.5t14 -3t14 -1q36 0 66.5 27.5t50.5 77.5l138 -46q-20 -75 -53 -129.5t-77.5 -84.5t-96.5 -30
q-34 0 -69.5 11t-56.5 22.5t-53 31.5q-25 15 -40 23t-36 15t-39 7zM716 1014q172 0 269.5 -104.5t97.5 -321.5v-589h-229v530q0 78 -14 132t-43 85.5t-67.5 45.5t-92.5 14q-58 0 -106 -20t-82 -58t-52.5 -96t-18.5 -130v-502h-229v999h229v-137h3q42 49 95.5 83t114 51.5
t125.5 17.5z" />
    <glyph glyph-name="ograve" unicode="&#xf2;" horiz-adv-x="1229" 
d="M524 1138l-254 297l253 -1l234 -296h-233zM615 -16q-116 0 -215 39t-166.5 107.5t-105.5 163.5t-38 204q0 147 64.5 264t185 184.5t275.5 67.5q152 0 271 -64.5t186 -182.5t67 -269q0 -150 -67 -267.5t-186.5 -182t-270.5 -64.5zM615 192q123 0 207 86.5t84 219.5
q0 136 -83 222t-208 86q-130 0 -211 -88t-81 -220q0 -130 82.5 -218t209.5 -88z" />
    <glyph glyph-name="oacute" unicode="&#xf3;" horiz-adv-x="1229" 
d="M492 1138l235 296l252 1l-254 -297h-233zM615 -16q-116 0 -215 39t-166.5 107.5t-105.5 163.5t-38 204q0 147 64.5 264t185 184.5t275.5 67.5q152 0 271 -64.5t186 -182.5t67 -269q0 -150 -67 -267.5t-186.5 -182t-270.5 -64.5zM615 192q123 0 207 86.5t84 219.5
q0 136 -83 222t-208 86q-130 0 -211 -88t-81 -220q0 -130 82.5 -218t209.5 -88z" />
    <glyph glyph-name="ocircumflex" unicode="&#xf4;" horiz-adv-x="1229" 
d="M610 1288l-111 -154h-224l231 301h206l241 -301h-225l-112 154h-6zM615 1014q152 0 271 -64.5t186 -182.5t67 -269q0 -150 -67 -267.5t-186.5 -182t-270.5 -64.5q-116 0 -215 39.5t-166.5 107.5t-105.5 163t-38 204q0 147 64.5 264t185 184.5t275.5 67.5zM615 192
q123 0 207 86.5t84 219.5q0 136 -83 222t-208 86q-129 0 -210.5 -88t-81.5 -220q0 -130 82.5 -218t209.5 -88z" />
    <glyph glyph-name="otilde" unicode="&#xf5;" horiz-adv-x="1229" 
d="M778 1133q-34 0 -69.5 11t-56.5 22.5t-53 31.5q-19 11 -30 17.5t-27 13.5t-30 10.5t-28 3.5q-76 0 -118 -106l-140 64q32 104 91.5 164.5t141.5 60.5q37 0 72 -10t52 -19t49 -28q1 -1 14 -9t15.5 -9.5t13.5 -8t15 -8.5t13.5 -6.5t15.5 -5.5t14.5 -2.5t16.5 -1.5
q36 0 66.5 27.5t50.5 77.5l138 -46q-20 -75 -53 -129.5t-77.5 -84.5t-96.5 -30zM615 -16q-116 0 -215 39t-166.5 107.5t-105.5 163.5t-38 204q0 147 64.5 264t185 184.5t275.5 67.5q152 0 271 -64.5t186 -182.5t67 -269q0 -150 -67 -267.5t-186.5 -182t-270.5 -64.5z
M615 192q123 0 207 86.5t84 219.5q0 136 -83 222t-208 86q-129 0 -210.5 -88t-81.5 -220q0 -130 82.5 -218t209.5 -88z" />
    <glyph glyph-name="odieresis" unicode="&#xf6;" horiz-adv-x="1229" 
d="M411 1148q-65 0 -110 44.5t-45 107.5t45 107.5t110 44.5q63 0 108.5 -45t45.5 -107q0 -63 -45.5 -107.5t-108.5 -44.5zM818 1151q-63 0 -107.5 43.5t-44.5 105.5q0 61 44.5 105.5t107.5 44.5q62 0 107 -44.5t45 -105.5q0 -30 -12 -57.5t-32.5 -47.5t-48.5 -32t-59 -12z
M615 -16q-116 0 -215 39t-166.5 107.5t-105.5 163.5t-38 204q0 147 64.5 264t185 184.5t275.5 67.5q152 0 271 -64.5t186 -182.5t67 -269q0 -150 -67 -267.5t-186.5 -182t-270.5 -64.5zM615 192q123 0 207 86.5t84 219.5q0 136 -83 222t-208 86q-130 0 -211 -88t-81 -220
q0 -130 82.5 -218t209.5 -88z" />
    <glyph glyph-name="divide" unicode="&#xf7;" horiz-adv-x="1173" 
d="M594 813q-65 0 -110 44.5t-45 107.5t45 107.5t110 44.5q63 0 108.5 -45t45.5 -107q0 -63 -45.5 -107.5t-108.5 -44.5zM121 462v210h968v-210h-968zM594 -5q-43 0 -78.5 20.5t-56 55.5t-20.5 76q0 31 12 59t32.5 48.5t49.5 32.5t61 12q41 0 76.5 -20.5t56.5 -55.5t21 -76
q0 -63 -45.5 -107.5t-108.5 -44.5z" />
    <glyph glyph-name="oslash" unicode="&#xf8;" horiz-adv-x="1229" 
d="M1165 941l-121 -130q95 -135 95 -313q0 -150 -67 -267.5t-186.5 -182t-270.5 -64.5q-155 0 -277 69l-104 -112l-123 114l97 104q-118 140 -118 339q0 147 64.5 264t185 184.5t275.5 67.5q177 0 310 -89l120 129zM323 498q0 -94 45 -168l404 432q-71 44 -157 44
q-130 0 -211 -88t-81 -220zM906 498q0 72 -27 136l-387 -416q57 -26 123 -26q123 0 207 86.5t84 219.5z" />
    <glyph glyph-name="ugrave" unicode="&#xf9;" horiz-adv-x="1183" 
d="M752 1138h-233l-254 297l253 -1zM814 999h229v-999h-229v130h-3q-59 -71 -139 -108.5t-169 -37.5q-85 0 -151.5 22.5t-117 69.5t-77.5 126.5t-27 188.5v608h229v-546q0 -75 11.5 -125t36.5 -80t61 -42.5t89 -12.5q51 0 97 21.5t82 61.5t57 103.5t21 141.5v478z" />
    <glyph glyph-name="uacute" unicode="&#xfa;" horiz-adv-x="1183" 
d="M957 1435l-254 -297h-233l235 296zM814 999h229v-999h-229v130h-3q-59 -71 -139 -108.5t-169 -37.5q-85 0 -151.5 22.5t-117 69.5t-77.5 126.5t-27 188.5v608h229v-546q0 -75 11.5 -125t36.5 -80t61 -42.5t89 -12.5q51 0 97 21.5t82 61.5t57 103.5t21 141.5v478z" />
    <glyph glyph-name="ucircumflex" unicode="&#xfb;" horiz-adv-x="1183" 
d="M583 1288l-111 -154h-224l231 301h206l241 -301h-225l-112 154h-6zM814 999h229v-999h-229v130h-3q-40 -47 -89.5 -80t-104.5 -49.5t-114 -16.5q-85 0 -151.5 22.5t-117 69.5t-77.5 126.5t-27 188.5v608h229v-546q0 -99 21.5 -156.5t63.5 -80.5t113 -23q107 0 182 87
t75 241v478z" />
    <glyph glyph-name="udieresis" unicode="&#xfc;" horiz-adv-x="1183" 
d="M384 1148q-65 0 -110 44.5t-45 107.5t45 107.5t110 44.5q31 0 59.5 -12t49 -32.5t33 -48.5t12.5 -59q0 -63 -45.5 -107.5t-108.5 -44.5zM791 1151q-63 0 -107.5 43.5t-44.5 105.5q0 61 44.5 105.5t107.5 44.5q41 0 76 -20.5t55.5 -55t20.5 -74.5q0 -61 -45 -105t-107 -44
zM814 999h229v-999h-229v130h-3q-59 -71 -139 -108.5t-169 -37.5q-85 0 -151.5 22.5t-117 69.5t-77.5 126.5t-27 188.5v608h229v-546q0 -75 11.5 -125t36.5 -80t61 -42.5t89 -12.5q51 0 97 21.5t82 61.5t57 103.5t21 141.5v478z" />
    <glyph glyph-name="yacute" unicode="&#xfd;" horiz-adv-x="1095" 
d="M879 1435l-254 -297h-233l235 296zM815 999h240l-549 -1404h-241l180 461l-406 943h241l276 -674h2z" />
    <glyph glyph-name="thorn" unicode="&#xfe;" horiz-adv-x="1271" 
d="M699 1014q81 0 155.5 -25t133.5 -71t102.5 -109.5t67 -144t23.5 -169.5q0 -91 -23.5 -171.5t-67 -142t-103 -106t-134 -68t-156.5 -23.5q-201 0 -315 138h-4v-527h-229v1913h229v-630h4q116 136 317 136zM661 192q127 0 207 84.5t80 217.5q0 141 -82.5 226.5t-205.5 85.5
q-128 0 -209.5 -89t-81.5 -223t84 -218t208 -84z" />
    <glyph glyph-name="ydieresis" unicode="&#xff;" horiz-adv-x="1095" 
d="M345 1148q-65 0 -110 44.5t-45 107.5t45 107.5t110 44.5q63 0 108.5 -45t45.5 -107q0 -63 -45.5 -107.5t-108.5 -44.5zM752 1151q-63 0 -107.5 43.5t-44.5 105.5q0 61 44.5 105.5t107.5 44.5q62 0 107 -44.5t45 -105.5t-45 -105t-107 -44zM815 999h240l-549 -1404h-241
l180 461l-406 943h241l276 -674h2z" />
    <glyph glyph-name="Amacron" unicode="&#x100;" horiz-adv-x="1427" 
d="M1019 1862v-193h-610v193h610zM1122 0l-110 313h-594l-109 -313h-258l543 1455h241l546 -1455h-259zM493 527h444l-221 630h-2z" />
    <glyph glyph-name="amacron" unicode="&#x101;" horiz-adv-x="1252" 
d="M929 1389v-193h-610v193h610zM883 999h229v-999h-219v134h-3q-114 -150 -318 -150q-82 0 -156.5 23t-134 68t-103 106.5t-67 142t-23.5 171.5q0 111 37 208t101 165t153 107t191 39q195 0 309 -135h4v120zM608 192q119 0 201.5 84.5t82.5 217.5t-80.5 222.5t-202.5 89.5
q-60 0 -112.5 -22t-91.5 -61.5t-61.5 -99t-22.5 -129.5q0 -133 80 -217.5t207 -84.5z" />
    <glyph glyph-name="Abreve" unicode="&#x102;" horiz-adv-x="1427" 
d="M714 1601q-83 0 -152.5 34t-115 103t-52.5 163h180q4 -61 41 -100t99 -39q59 0 97.5 38t41.5 101h180q-5 -65 -30 -120.5t-65.5 -95t-98.5 -62t-125 -22.5zM1122 0l-110 313h-594l-109 -313h-258l543 1455h241l546 -1455h-259zM493 527h444l-221 630h-2z" />
    <glyph glyph-name="abreve" unicode="&#x103;" horiz-adv-x="1252" 
d="M624 1128q-83 0 -152.5 34t-115 103t-52.5 163h180q4 -61 41 -100t99 -39q39 0 70 17t49 48.5t20 73.5h180q-7 -87 -47.5 -155t-111 -106.5t-160.5 -38.5zM883 999h229v-999h-219v134h-3q-114 -150 -318 -150q-82 0 -156.5 23.5t-134 68t-103 106t-67 142t-23.5 171.5
q0 111 37 208t101 165t153 107t191 39q195 0 309 -135h4v120zM608 192q119 0 201.5 84.5t82.5 217.5t-80.5 222.5t-202.5 89.5q-60 0 -112.5 -22t-91.5 -61.5t-61.5 -99t-22.5 -129.5q0 -133 80 -217.5t207 -84.5z" />
    <glyph glyph-name="Aogonek" unicode="&#x104;" horiz-adv-x="1427" 
d="M1259 -237q24 0 39.5 2t23 4.5t21.5 8.5l13 -138q-57 -25 -146 -25q-102 0 -162 49.5t-60 131.5q0 50 35.5 106t98.5 99l-110 312h-594l-109 -313h-258l543 1455h241l546 -1455h-49q-73 -16 -117 -60t-44 -93q0 -39 22.5 -61.5t65.5 -22.5zM493 527h444l-221 630h-2z" />
    <glyph glyph-name="aogonek" unicode="&#x105;" horiz-adv-x="1252" 
d="M1101 -222l13 -138q-57 -25 -146 -25q-102 0 -162 49.5t-60 131.5q0 53 39 111.5t108 101.5v125h-3q-114 -150 -318 -150q-82 0 -156.5 23t-134 68t-103 106.5t-67 142t-23.5 171.5q0 111 37 208t101 165t153 107t191 39q195 0 309 -135h4v120h229v-999h-22
q-73 -16 -117 -60t-44 -93q0 -39 22.5 -61.5t65.5 -22.5q24 0 39.5 2t23 4.5t21.5 8.5zM608 192q119 0 201.5 84.5t82.5 217.5t-80.5 222.5t-202.5 89.5q-123 0 -205.5 -85.5t-82.5 -226.5q0 -133 80 -217.5t207 -84.5z" />
    <glyph glyph-name="Cacute" unicode="&#x106;" horiz-adv-x="1494" 
d="M716 1611l235 296l252 1l-254 -297h-233zM846 -13q-119 0 -228 30t-201.5 91.5t-160 148t-106 206t-38.5 259.5q0 125 30.5 237.5t92.5 205.5t149 161.5t205.5 106.5t256.5 38q158 0 308.5 -69t264.5 -210l-182 -154q-73 91 -175.5 145t-215.5 54q-140 0 -248 -64
t-168 -181t-60 -270q0 -147 61 -261.5t169.5 -177.5t245.5 -63q118 0 218 53.5t173 144.5l182 -155q-100 -126 -245.5 -201t-327.5 -75z" />
    <glyph glyph-name="cacute" unicode="&#x107;" horiz-adv-x="1090" 
d="M464 1138l235 296l252 1l-254 -297h-233zM600 -16q-146 0 -262 64t-181.5 181.5t-65.5 268.5t66 268.5t183.5 182.5t267.5 65q121 0 234 -48t186 -138l-156 -135q-45 53 -109 83t-143 30q-88 0 -155 -38.5t-104 -108t-37 -159.5q0 -91 37.5 -161t105 -108.5t154.5 -38.5
q32 0 63.5 5.5t58.5 15.5t51 23.5t44 29.5t36 34l158 -140q-69 -78 -181.5 -127t-250.5 -49z" />
    <glyph glyph-name="Ccircumflex" unicode="&#x108;" horiz-adv-x="1494" 
d="M836 1761l-111 -154h-224l231 301h206l241 -301h-225l-112 154h-6zM846 220q80 0 153.5 26t132 69.5t105.5 102.5l182 -155q-100 -126 -245.5 -201t-327.5 -75q-119 0 -228 30t-201.5 91.5t-160.5 148t-106 206t-38 259.5q0 125 30.5 237.5t92.5 205.5t149 161.5
t205.5 106.5t256.5 38q158 0 308.5 -69t264.5 -210l-182 -154q-73 91 -175.5 145t-215.5 54q-140 0 -248 -64t-168 -181t-60 -270q0 -147 61 -261.5t169.5 -177.5t245.5 -63z" />
    <glyph glyph-name="ccircumflex" unicode="&#x109;" horiz-adv-x="1090" 
d="M608 1288l-111 -154h-224l231 301h206l241 -301h-225l-112 154h-6zM874 300l158 -140q-69 -78 -181.5 -127t-250.5 -49q-146 0 -262 64t-181.5 181.5t-65.5 268.5t66 268.5t183.5 182.5t267.5 65q121 0 234 -48t186 -138l-156 -135q-45 53 -109 83t-143 30
q-88 0 -155 -38.5t-104 -108t-37 -159.5q0 -91 37.5 -161t105 -108.5t154.5 -38.5q79 0 144.5 30t108.5 78z" />
    <glyph glyph-name="Cdotaccent" unicode="&#x10a;" horiz-adv-x="1494" 
d="M842 1621q-65 0 -110 44.5t-45 107.5q0 31 12 59t32.5 48.5t49.5 32.5t61 12q41 0 76.5 -20.5t56.5 -55.5t21 -76q0 -63 -45.5 -107.5t-108.5 -44.5zM846 -13q-119 0 -228 30t-201.5 91.5t-160.5 148t-106 206t-38 259.5q0 125 30.5 237.5t92.5 205.5t149 161.5
t205.5 106.5t256.5 38q158 0 308.5 -69t264.5 -210l-182 -154q-73 91 -175.5 145t-215.5 54q-140 0 -248 -64t-168 -181t-60 -270q0 -147 61 -261.5t169.5 -177.5t245.5 -63q118 0 218 53.5t173 144.5l182 -155q-100 -126 -245.5 -201t-327.5 -75z" />
    <glyph glyph-name="cdotaccent" unicode="&#x10b;" horiz-adv-x="1090" 
d="M614 1148q-65 0 -110 44.5t-45 107.5q0 41 20.5 76t56 55.5t78.5 20.5q63 0 108.5 -45t45.5 -107q0 -63 -45.5 -107.5t-108.5 -44.5zM600 -16q-146 0 -262 64t-181.5 181.5t-65.5 268.5t66 268.5t183.5 182.5t267.5 65q121 0 234 -48t186 -138l-156 -135q-45 53 -109 83
t-143 30q-88 0 -155 -38.5t-104 -108t-37 -159.5q0 -91 37.5 -161t105 -108.5t154.5 -38.5q32 0 63.5 5.5t58.5 15.5t51 23.5t44 29.5t36 34l158 -140q-69 -78 -181.5 -127t-250.5 -49z" />
    <glyph glyph-name="Ccaron" unicode="&#x10c;" horiz-adv-x="1494" 
d="M938 1607h-206l-231 301h224l111 -154h6l112 154h225zM846 220q80 0 153.5 26t132 69.5t105.5 102.5l182 -155q-100 -126 -245.5 -201t-327.5 -75q-119 0 -228 30t-201.5 91.5t-160.5 148t-106 206t-38 259.5q0 125 30.5 237.5t92.5 205.5t149 161.5t205.5 106.5
t256.5 38q158 0 308.5 -69t264.5 -210l-182 -154q-73 91 -175.5 145t-215.5 54q-140 0 -248 -64t-168 -181t-60 -270q0 -147 61 -261.5t169.5 -177.5t245.5 -63z" />
    <glyph glyph-name="ccaron" unicode="&#x10d;" horiz-adv-x="1090" 
d="M710 1134h-206l-231 301h224l111 -154h6l112 154h225zM874 300l158 -140q-69 -78 -181.5 -127t-250.5 -49q-146 0 -262 64t-181.5 181.5t-65.5 268.5t66 268.5t183.5 182.5t267.5 65q121 0 234 -48t186 -138l-156 -135q-45 53 -109 83t-143 30q-88 0 -155 -38.5
t-104 -108t-37 -159.5q0 -91 37.5 -161t105 -108.5t154.5 -38.5q79 0 144.5 30t108.5 78z" />
    <glyph glyph-name="Dcaron" unicode="&#x10e;" horiz-adv-x="1508" 
d="M858 1607h-206l-231 301h224l111 -154h6l112 154h225zM641 1455q170 0 312 -54t239 -150t150.5 -231t53.5 -295t-52 -294t-147 -229.5t-236.5 -148.5t-313.5 -53h-469v1455h463zM632 222q91 0 171 24.5t141.5 70t106 107t67.5 138.5t23 163q0 146 -62.5 262t-176 181
t-256.5 65h-221v-1011h207z" />
    <glyph glyph-name="dcaron" unicode="&#x10f;" horiz-adv-x="1439" 
d="M1315 1600h222l-120 -406h-163zM892 879v629h229v-1508h-219v134h-4q-114 -150 -325 -150q-103 0 -192.5 36.5t-153.5 102.5t-101 162t-37 210q0 111 37 208t101 165t153 107t191 39q202 0 316 -135h5zM609 192q124 0 208 84t84 218t-81.5 223t-209.5 89
q-60 0 -112.5 -22t-91.5 -61.5t-61.5 -99t-22.5 -129.5q0 -133 80 -217.5t207 -84.5z" />
    <glyph glyph-name="Dcroat" unicode="&#x110;" horiz-adv-x="1508" 
d="M641 1455q170 0 312 -54t239 -150t150.5 -231t53.5 -295t-52 -294t-147 -229.5t-236.5 -148.5t-313.5 -53h-469v617h-121v210h121v628h463zM632 222q91 0 171 24.5t141.5 70t106 107t67.5 138.5t23 163q0 146 -62.5 262t-176 181t-256.5 65h-221v-406h248v-210h-248v-395
h207z" />
    <glyph glyph-name="dcroat" unicode="&#x111;" horiz-adv-x="1248" 
d="M1247 1307v-157h-126v-1150h-219v134h-4q-114 -150 -325 -150q-82 0 -156.5 23t-134 68t-103 106.5t-67 142t-23.5 171.5q0 111 37 208t101 165t153 107t191 39q202 0 316 -135h5v271h-222v157h222v201h229v-201h126zM609 192q124 0 208 84t84 218t-81.5 223t-209.5 89
q-60 0 -112.5 -22t-91.5 -61.5t-61.5 -99t-22.5 -129.5q0 -133 80 -217.5t207 -84.5z" />
    <glyph glyph-name="Emacron" unicode="&#x112;" horiz-adv-x="1244" 
d="M351 1669v193h610v-193h-610zM178 0v1455h915v-222h-668v-401h540v-222h-540v-388h711v-222h-958z" />
    <glyph glyph-name="emacron" unicode="&#x113;" horiz-adv-x="1150" 
d="M901 1389v-193h-610v193h610zM1062 511q0 -55 -6 -91h-728q22 -106 98.5 -167t186.5 -61q155 0 249 118l160 -137q-68 -87 -174.5 -138t-246.5 -51q-145 0 -261 63t-183 181.5t-67 271.5q0 113 37 209t102 163t155 104.5t193 37.5q145 0 256 -65t170 -179t59 -259z
M589 806q-95 0 -164 -52.5t-93 -148.5h500q-15 61 -46.5 105.5t-82 70t-114.5 25.5z" />
    <glyph glyph-name="Ebreve" unicode="&#x114;" horiz-adv-x="1244" 
d="M656 1601q-83 0 -152.5 34t-115 103t-52.5 163h180q4 -61 41 -100t99 -39q59 0 97.5 38t41.5 101h180q-5 -65 -30 -120.5t-65.5 -95t-98.5 -62t-125 -22.5zM178 0v1455h915v-222h-668v-401h540v-222h-540v-388h711v-222h-958z" />
    <glyph glyph-name="ebreve" unicode="&#x115;" horiz-adv-x="1150" 
d="M596 1128q-83 0 -152.5 34t-115 103t-52.5 163h180q4 -61 41 -100t99 -39q59 0 97.5 38t41.5 101h180q-10 -133 -97 -216.5t-222 -83.5zM1062 511q0 -55 -6 -91h-728q22 -106 98.5 -167t186.5 -61q155 0 249 118l160 -137q-68 -87 -174.5 -138t-246.5 -51q-145 0 -261 63
t-183 181.5t-67 271.5q0 113 37 209t102 163t155 104.5t193 37.5q145 0 256 -65t170 -179t59 -259zM589 806q-95 0 -164 -52.5t-93 -148.5h500q-15 61 -46.5 105.5t-82 70t-114.5 25.5z" />
    <glyph glyph-name="Edotaccent" unicode="&#x116;" horiz-adv-x="1244" 
d="M657 1621q-43 0 -78.5 20.5t-56 55.5t-20.5 76q0 63 45 107.5t110 44.5q41 0 76.5 -20.5t56.5 -55.5t21 -76q0 -63 -45.5 -107.5t-108.5 -44.5zM178 0v1455h915v-222h-668v-401h540v-222h-540v-388h711v-222h-958z" />
    <glyph glyph-name="edotaccent" unicode="&#x117;" horiz-adv-x="1150" 
d="M597 1148q-43 0 -78.5 20.5t-56 55.5t-20.5 76t20.5 76t56 55.5t78.5 20.5q63 0 108.5 -45t45.5 -107q0 -63 -45.5 -107.5t-108.5 -44.5zM1062 511q0 -55 -6 -91h-728q22 -106 98.5 -167t186.5 -61q155 0 249 118l160 -137q-68 -87 -174.5 -138t-246.5 -51
q-145 0 -261 63t-183 181.5t-67 271.5q0 113 37 209t102 163t155 104.5t193 37.5q145 0 256 -65t170 -179t59 -259zM589 806q-95 0 -164 -52.5t-93 -148.5h500q-15 61 -46.5 105.5t-82 70t-114.5 25.5z" />
    <glyph glyph-name="Eogonek" unicode="&#x118;" horiz-adv-x="1244" 
d="M1111 0q-73 -16 -117 -60t-44 -93q0 -39 22.5 -61.5t65.5 -22.5q24 0 39.5 2t23 4.5t21.5 8.5l13 -138q-57 -25 -146 -25q-102 0 -162 49.5t-60 131.5q0 50 34 104.5t95 96.5v3h-718v1455h915v-222h-668v-401h540v-222h-540v-388h711v-222h-25z" />
    <glyph glyph-name="eogonek" unicode="&#x119;" horiz-adv-x="1150" 
d="M1062 511q0 -55 -6 -91h-728q22 -106 98.5 -167t186.5 -61q155 0 249 118l160 -137q-92 -118 -244 -164q-175 -62 -175 -153q0 -33 23 -54.5t65 -21.5q46 0 79 13q3 1 5 2l13 -145q-56 -26 -146 -26q-76 0 -130.5 22.5t-82 63.5t-27.5 96q0 28 11.5 59t35 63t56.5 59v5
q-185 31 -300 167.5t-115 340.5q0 113 37 209t102 163t155 104.5t193 37.5q145 0 256 -65t170 -179t59 -259zM589 806q-95 0 -164 -52.5t-93 -148.5h500q-15 61 -46.5 105.5t-82 70t-114.5 25.5z" />
    <glyph glyph-name="Ecaron" unicode="&#x11a;" horiz-adv-x="1244" 
d="M753 1607h-206l-231 301h224l111 -154h6l112 154h225zM425 222h711v-222h-958v1455h915v-222h-668v-401h540v-222h-540v-388z" />
    <glyph glyph-name="ecaron" unicode="&#x11b;" horiz-adv-x="1150" 
d="M693 1134h-206l-231 301h224l111 -154h6l112 154h225zM1062 511q0 -55 -6 -91h-728q22 -106 98.5 -167t186.5 -61q155 0 249 118l160 -137q-68 -87 -174.5 -138t-246.5 -51q-145 0 -261 63t-183 181.5t-67 271.5q0 113 37 209t102 163t155 104.5t193 37.5q145 0 256 -65
t170 -179t59 -259zM589 806q-95 0 -164 -52.5t-93 -148.5h500q-15 61 -46.5 105.5t-82 70t-114.5 25.5z" />
    <glyph glyph-name="Gcircumflex" unicode="&#x11c;" horiz-adv-x="1555" 
d="M827 1761l-111 -154h-224l231 301h206l241 -301h-225l-112 154h-6zM814 777h602v-608q-101 -84 -252.5 -133t-317.5 -49q-156 0 -290.5 51t-233 144.5t-154.5 233.5t-56 309q0 106 23 203.5t65.5 180t106.5 149.5t143.5 114.5t178 73t208.5 25.5q159 0 309 -61t259 -180
l-175 -150q-161 158 -394 158q-98 0 -183.5 -36t-148 -101.5t-98.5 -162.5t-36 -213q0 -145 57.5 -261t167 -183.5t251.5 -67.5q180 0 324 97v245h-356v222z" />
    <glyph glyph-name="gcircumflex" unicode="&#x11d;" horiz-adv-x="1244" 
d="M596 1288l-111 -154h-224l231 301h206l241 -301h-225l-112 154h-6zM876 999h229v-896q0 -93 -17 -171t-55.5 -144t-97 -111.5t-144.5 -71t-195 -25.5q-113 0 -218 27t-189 77l54 202q96 -51 169.5 -75t170.5 -24q142 0 220 70t78 176v106h-4q-117 -122 -303 -122
q-139 0 -250 60.5t-174.5 173.5t-63.5 259q0 144 60.5 259.5t169.5 180.5t246 65q87 0 167.5 -31t142.5 -90h4v105zM604 228q125 0 203.5 82.5t78.5 209.5q0 63 -22 116.5t-59.5 90t-89.5 57t-111 20.5q-127 0 -206 -80t-79 -207q0 -132 80.5 -210.5t204.5 -78.5z" />
    <glyph glyph-name="Gbreve" unicode="&#x11e;" horiz-adv-x="1555" 
d="M832 1601q-83 0 -152.5 34t-115 103t-52.5 163h180q4 -61 41 -100t99 -39q59 0 97.5 38t41.5 101h180q-10 -133 -97 -216.5t-222 -83.5zM846 -13q-156 0 -290.5 51t-233 144.5t-154.5 233.5t-56 309q0 106 23 203.5t65.5 180t106.5 149.5t143.5 114.5t178 73t208.5 25.5
q159 0 309 -61t259 -180l-175 -150q-161 158 -394 158q-98 0 -183.5 -36t-148 -101.5t-98.5 -162.5t-36 -213q0 -145 57.5 -261t167 -183.5t251.5 -67.5q180 0 324 97v245h-356v222h602v-608q-101 -84 -252.5 -133t-317.5 -49z" />
    <glyph glyph-name="gbreve" unicode="&#x11f;" horiz-adv-x="1244" 
d="M601 1128q-83 0 -152.5 34t-115 103t-52.5 163h180q3 -40 19.5 -71t48 -49.5t72.5 -18.5q39 0 70 17t49 48.5t20 73.5h180q-7 -87 -47.5 -155t-111 -106.5t-160.5 -38.5zM876 999h229v-896q0 -93 -17 -171t-55.5 -144t-97 -111.5t-144.5 -71t-195 -25.5q-113 0 -218 27
t-189 77l54 202q96 -51 169.5 -75t170.5 -24q142 0 220 70t78 176v106h-4q-117 -122 -303 -122q-139 0 -250 60.5t-174.5 173.5t-63.5 259q0 144 60.5 259.5t169.5 180.5t246 65q87 0 167.5 -31t142.5 -90h4v105zM604 228q125 0 203.5 82.5t78.5 209.5q0 63 -22 116.5
t-59.5 90t-89.5 57t-111 20.5q-127 0 -206 -80t-79 -207q0 -132 80.5 -210.5t204.5 -78.5z" />
    <glyph glyph-name="Gdotaccent" unicode="&#x120;" horiz-adv-x="1555" 
d="M833 1621q-65 0 -110 44.5t-45 107.5q0 41 20.5 76t56 55.5t78.5 20.5q63 0 108.5 -45t45.5 -107q0 -63 -45.5 -107.5t-108.5 -44.5zM846 -13q-156 0 -290.5 51t-233 144.5t-154.5 233.5t-56 309q0 106 23 203.5t65.5 180t106.5 149.5t143.5 114.5t178 73t208.5 25.5
q159 0 309 -61t259 -180l-175 -150q-161 158 -394 158q-98 0 -183.5 -36t-148 -101.5t-98.5 -162.5t-36 -213q0 -145 57.5 -261t167 -183.5t251.5 -67.5q180 0 324 97v245h-356v222h602v-608q-101 -84 -252.5 -133t-317.5 -49z" />
    <glyph glyph-name="gdotaccent" unicode="&#x121;" horiz-adv-x="1244" 
d="M602 1148q-65 0 -110 44.5t-45 107.5q0 41 20.5 76t56 55.5t78.5 20.5q63 0 108.5 -45t45.5 -107q0 -41 -21 -76t-56.5 -55.5t-76.5 -20.5zM876 999h229v-896q0 -93 -17 -171t-55.5 -144t-97 -111.5t-144.5 -71t-195 -25.5q-113 0 -218 27t-189 77l54 202
q96 -51 169.5 -75t170.5 -24q142 0 220 70t78 176v106h-4q-117 -122 -303 -122q-139 0 -250 60.5t-174.5 173.5t-63.5 259q0 144 60.5 259.5t169.5 180.5t246 65q87 0 167.5 -31t142.5 -90h4v105zM604 228q125 0 203.5 82.5t78.5 209.5q0 63 -22 116.5t-59.5 90t-89.5 57
t-111 20.5q-127 0 -206 -80t-79 -207q0 -132 80.5 -210.5t204.5 -78.5z" />
    <glyph glyph-name="Gcommaaccent" unicode="&#x122;" horiz-adv-x="1555" 
d="M846 -13q-156 0 -290.5 51t-233 144.5t-154.5 233.5t-56 309q0 106 23 203.5t65.5 180t106.5 149.5t143.5 114.5t178 73t208.5 25.5q159 0 309 -61t259 -180l-175 -150q-161 158 -394 158q-98 0 -183.5 -36t-148 -101.5t-98.5 -162.5t-36 -213q0 -145 57.5 -261
t167 -183.5t251.5 -67.5q180 0 324 97v245h-356v222h602v-608q-101 -84 -252.5 -133t-317.5 -49zM688 -449l-54 134q62 22 87.5 50t25.5 76q0 29 -12 81h209q8 -35 8 -97q0 -56 -21.5 -101t-59 -74t-83.5 -46.5t-100 -22.5z" />
    <glyph glyph-name="gcommaaccent" unicode="&#x123;" horiz-adv-x="1244" 
d="M714 1144h-209q-8 35 -8 97q0 45 14 83.5t38.5 65.5t58.5 47.5t72 32t81 15.5l54 -134q-62 -22 -87.5 -50t-25.5 -76q0 -29 12 -81zM876 999h229v-896q0 -93 -17 -171t-55.5 -144t-97 -111.5t-144.5 -71t-195 -25.5q-113 0 -218 27t-189 77l54 202q96 -51 169.5 -75
t170.5 -24q142 0 220 70t78 176v106h-4q-117 -122 -303 -122q-139 0 -250 60.5t-174.5 173.5t-63.5 259q0 144 60.5 259.5t169.5 180.5t246 65q87 0 167.5 -31t142.5 -90h4v105zM604 228q125 0 203.5 82.5t78.5 209.5q0 63 -22 116.5t-59.5 90t-89.5 57t-111 20.5
q-127 0 -206 -80t-79 -207q0 -132 80.5 -210.5t204.5 -78.5z" />
    <glyph glyph-name="Hcircumflex" unicode="&#x124;" horiz-adv-x="1508" 
d="M755 1761l-111 -154h-224l231 301h206l241 -301h-225l-112 154h-6zM1083 1455h247v-1455h-247v583h-658v-583h-247v1455h247v-650h658v650z" />
    <glyph glyph-name="hcircumflex" unicode="&#x125;" horiz-adv-x="1225" 
d="M489 1781l-111 -154h-224l231 301h206l241 -301h-225l-112 154h-6zM720 1014q85 0 151.5 -23.5t117 -72.5t77.5 -130t27 -190v-599h-229v540q0 144 -54.5 205.5t-162.5 61.5q-126 0 -197.5 -76.5t-71.5 -221.5v-508h-229v1508h229v-634h4q62 69 149.5 104.5t188.5 35.5z
" />
    <glyph glyph-name="Hbar" unicode="&#x126;" horiz-adv-x="1508" 
d="M1444 1227v-170h-114v-1057h-247v583h-658v-583h-247v1057h-103v170h103v228h247v-228h658v228h247v-228h114zM1083 805v252h-658v-252h658z" />
    <glyph glyph-name="hbar" unicode="&#x127;" horiz-adv-x="1225" 
d="M720 1014q85 0 151.5 -23.5t117 -72.5t77.5 -130t27 -190v-599h-229v540q0 144 -54.5 205.5t-162.5 61.5q-126 0 -197.5 -76.5t-71.5 -221.5v-508h-229v1150h-136v157h136v201h229v-201h212v-157h-212v-276h4q62 69 149.5 104.5t188.5 35.5z" />
    <glyph glyph-name="Itilde" unicode="&#x128;" horiz-adv-x="622" 
d="M470 1606q-26 0 -51 5t-49 16t-39.5 20t-39.5 24q-25 15 -40 23t-36 15t-39 7q-76 0 -118 -106l-140 64q32 104 91.5 164.5t141.5 60.5q28 0 53 -4.5t48.5 -14.5t35.5 -17l36 -21q3 -2 10 -7q18 -11 27.5 -16.5t24.5 -13t28.5 -11t27.5 -3.5q36 0 66.5 27.5t50.5 77.5
l138 -46q-30 -114 -89.5 -179t-137.5 -65zM187 0v1455h248v-1455h-248z" />
    <glyph glyph-name="itilde" unicode="&#x129;" horiz-adv-x="557" 
d="M442 1133q-26 0 -51 5t-49 16t-39.5 20t-39.5 24q-8 5 -21 13.5t-20.5 13t-18 9.5t-21.5 7t-24 2q-16 0 -34 -13t-34.5 -37t-29.5 -56l-140 64q21 67 52.5 117t73 79t87.5 29q17 0 31.5 -1.5t28.5 -5.5t23.5 -7t22.5 -9.5t18.5 -10t20 -12t18.5 -11.5q1 -1 14 -9
t15.5 -9.5t13.5 -8t15 -8.5t13.5 -6.5t15.5 -5.5t14.5 -2.5t16.5 -1.5q36 0 66.5 27.5t50.5 77.5l138 -46q-30 -114 -89.5 -179t-137.5 -65zM164 0v999h229v-999h-229z" />
    <glyph glyph-name="Imacron" unicode="&#x12a;" horiz-adv-x="622" 
d="M2 1669v193h610v-193h-610zM187 0v1455h248v-1455h-248z" />
    <glyph glyph-name="imacron" unicode="&#x12b;" horiz-adv-x="557" 
d="M-26 1196v193h610v-193h-610zM164 0v999h229v-999h-229z" />
    <glyph glyph-name="Ibreve" unicode="&#x12c;" horiz-adv-x="622" 
d="M307 1601q-83 0 -152.5 34t-115 103t-52.5 163h180q4 -61 41 -100t99 -39q59 0 97.5 38t41.5 101h180q-10 -133 -97 -216.5t-222 -83.5zM187 0v1455h248v-1455h-248z" />
    <glyph glyph-name="ibreve" unicode="&#x12d;" horiz-adv-x="557" 
d="M279 1128q-119 0 -199.5 79t-90.5 221h180q4 -62 32 -100.5t78 -38.5q46 0 76 38t33 101h180q-10 -135 -86 -217.5t-203 -82.5zM164 0v999h229v-999h-229z" />
    <glyph glyph-name="Iogonek" unicode="&#x12e;" horiz-adv-x="622" 
d="M395 0q-73 -16 -117 -60t-44 -93q0 -39 22.5 -61.5t65.5 -22.5q24 0 39.5 2t23 4.5t21.5 8.5l13 -138q-57 -25 -146 -25q-102 0 -162 49.5t-60 131.5q0 51 36 107.5t100 98.5v1453h248v-1455h-40z" />
    <glyph glyph-name="iogonek" unicode="&#x12f;" horiz-adv-x="557" 
d="M280 1148q-65 0 -110 44.5t-45 107.5t45 107.5t110 44.5q63 0 108.5 -45t45.5 -107q0 -41 -21 -76t-56.5 -55.5t-76.5 -20.5zM299 -237q24 0 39.5 2t23 4.5t21.5 8.5l13 -138q-57 -25 -146 -25q-102 0 -162 49.5t-60 131.5q0 51 36 107.5t100 98.5v997h229v-999h-21
q-73 -16 -117 -60t-44 -93q0 -39 22.5 -61.5t65.5 -22.5z" />
    <glyph glyph-name="Idotaccent" unicode="&#x130;" horiz-adv-x="622" 
d="M308 1621q-43 0 -78.5 20.5t-56 55.5t-20.5 76q0 63 45 107.5t110 44.5q31 0 59.5 -12t49 -32.5t33 -48.5t12.5 -59q0 -63 -45.5 -107.5t-108.5 -44.5zM187 0v1455h248v-1455h-248z" />
    <glyph glyph-name="dotlessi" unicode="&#x131;" horiz-adv-x="557" 
d="M164 0v999h229v-999h-229z" />
    <glyph glyph-name="IJ" unicode="&#x132;" horiz-adv-x="1660" 
d="M187 0v1455h248v-1455h-248zM1070 -13q-108 0 -212.5 47.5t-172.5 136.5l139 179q44 -53 108.5 -90.5t127.5 -37.5q196 0 196 277v956h249v-958q0 -97 -15 -175t-47.5 -141.5t-83 -106t-123 -65t-166.5 -22.5z" />
    <glyph glyph-name="ij" unicode="&#x133;" horiz-adv-x="1067" 
d="M280 1148q-65 0 -110 44.5t-45 107.5t45 107.5t110 44.5q63 0 108.5 -45t45.5 -107q0 -41 -21 -76t-56.5 -55.5t-76.5 -20.5zM813 1148q-65 0 -110 44.5t-45 107.5t45 107.5t110 44.5q63 0 108.5 -45t45.5 -107q0 -63 -45.5 -107.5t-108.5 -44.5zM164 0v999h229v-999
h-229zM651 -421q-39 0 -66 2.5t-59.5 10.5t-69.5 23l39 199q47 -29 91 -29q51 0 83 37.5t32 109.5v1067h229v-1067q0 -169 -78.5 -261t-200.5 -92z" />
    <glyph glyph-name="Jcircumflex" unicode="&#x134;" horiz-adv-x="1038" 
d="M752 1761l-111 -154h-224l231 301h206l241 -301h-225l-112 154h-6zM634 499v956h249v-958q0 -97 -15 -175t-47.5 -141.5t-83 -106t-123 -65t-166.5 -22.5q-108 0 -212.5 47.5t-172.5 136.5l139 179q44 -53 108.5 -90.5t127.5 -37.5q196 0 196 277z" />
    <glyph glyph-name="jcircumflex" unicode="&#x135;" horiz-adv-x="510" 
d="M250 1288l-111 -154h-224l231 301h206l241 -301h-225l-112 154h-6zM144 -68v1067h229v-1067q0 -169 -78.5 -261t-200.5 -92q-58 0 -99.5 7t-95.5 29l39 199q47 -29 91 -29q51 0 83 37.5t32 109.5z" />
    <glyph glyph-name="Kcommaaccent" unicode="&#x136;" horiz-adv-x="1360" 
d="M756 806l563 -806h-307l-419 607h-4l-164 -195v-412h-247v1455h247v-697h4l559 697h314zM589 -108h209q8 -35 8 -97q0 -56 -21.5 -101t-59 -74t-83.5 -46.5t-100 -22.5l-54 134q62 22 87.5 50t25.5 76q0 29 -12 81z" />
    <glyph glyph-name="kcommaaccent" unicode="&#x137;" horiz-adv-x="1095" 
d="M701 595l365 -595h-258l-259 420h-4l-167 -187v-233h-229v1508h229v-965h3l408 456h272zM477 -108h209q8 -35 8 -97q0 -56 -21.5 -101t-59 -74t-83.5 -46.5t-100 -22.5l-54 134q42 15 66 31.5t35.5 39.5t11.5 55q0 28 -12 81z" />
    <glyph glyph-name="kgreenlandic" unicode="&#x138;" horiz-adv-x="1097" 
d="M549 420h-4l-167 -187v-233h-229v999h229v-458h3l408 458h273l-360 -403l366 -596h-259z" />
    <glyph glyph-name="Lacute" unicode="&#x139;" horiz-adv-x="1173" 
d="M399 1611l235 296l252 1l-254 -297h-233zM178 0v1455h247v-1233h674v-222h-921z" />
    <glyph glyph-name="lacute" unicode="&#x13a;" horiz-adv-x="557" 
d="M166 1639l235 296l252 1l-254 -297h-233zM164 0v1508h229v-1508h-229z" />
    <glyph glyph-name="Lcommaaccent" unicode="&#x13b;" horiz-adv-x="1173" 
d="M178 0v1455h247v-1233h674v-222h-921zM470 -449l-54 134q62 22 87.5 50t25.5 76q0 28 -12 81h209q8 -35 8 -97q0 -56 -21.5 -101t-59 -74t-83.5 -46.5t-100 -22.5z" />
    <glyph glyph-name="lcommaaccent" unicode="&#x13c;" horiz-adv-x="557" 
d="M164 0v1508h229v-1508h-229zM121 -449l-54 134q62 22 87.5 50t25.5 76q0 28 -12 81h209q8 -35 8 -97q0 -56 -21.5 -101t-59 -74t-83.5 -46.5t-100 -22.5z" />
    <glyph glyph-name="Lcaron" unicode="&#x13d;" horiz-adv-x="1173" 
d="M656 1194l62 406h221l-119 -406h-164zM178 0v1455h247v-1233h674v-222h-921z" />
    <glyph glyph-name="lcaron" unicode="&#x13e;" horiz-adv-x="709" 
d="M525 1194l61 406h221l-119 -406h-163zM164 0v1508h229v-1508h-229z" />
    <glyph glyph-name="Ldot" unicode="&#x13f;" horiz-adv-x="1173" 
d="M178 0v1455h247v-1233h674v-222h-921zM897 543q-32 0 -61 12t-50 32.5t-33 48.5t-12 59q0 63 45.5 108t110.5 45q63 0 108.5 -45t45.5 -108t-45.5 -107.5t-108.5 -44.5z" />
    <glyph glyph-name="ldot" unicode="&#x140;" horiz-adv-x="928" 
d="M164 0v1508h229v-1508h-229zM738 350q-65 0 -110.5 44.5t-45.5 107.5t45.5 108t110.5 45q41 0 76.5 -20.5t56.5 -56t21 -76.5q0 -63 -45.5 -107.5t-108.5 -44.5z" />
    <glyph glyph-name="Lslash" unicode="&#x141;" horiz-adv-x="1186" 
d="M438 222h674v-222h-921v559l-149 -70v202l149 71v693h247v-576l171 81v-204l-171 -81v-453z" />
    <glyph glyph-name="lslash" unicode="&#x142;" horiz-adv-x="605" 
d="M545 883v-214l-119 -56v-613h-229v504l-127 -60v214l127 60v790h229v-681z" />
    <glyph glyph-name="Nacute" unicode="&#x143;" horiz-adv-x="1563" 
d="M1065 1908l-254 -297h-233l235 296zM1138 1455h247v-1455h-252l-704 1029h-4v-1029h-247v1455h245l710 -1044h5v1044z" />
    <glyph glyph-name="nacute" unicode="&#x144;" horiz-adv-x="1215" 
d="M920 1435l-254 -297h-233l235 296zM716 1014q172 0 269.5 -104.5t97.5 -321.5v-589h-229v530q0 78 -14 132t-43 85.5t-67.5 45.5t-92.5 14q-58 0 -106 -20t-82 -58t-52.5 -96t-18.5 -130v-502h-229v999h229v-137h3q42 49 95.5 83t114 51.5t125.5 17.5z" />
    <glyph glyph-name="Ncommaaccent" unicode="&#x145;" horiz-adv-x="1563" 
d="M1138 1455h247v-1455h-252l-704 1029h-4v-1029h-247v1455h245l710 -1044h5v1044zM668 -108h209q8 -35 8 -97q0 -56 -21.5 -101t-59 -74t-83.5 -46.5t-100 -22.5l-54 134q62 22 87.5 50t25.5 76q0 28 -12 81z" />
    <glyph glyph-name="ncommaaccent" unicode="&#x146;" horiz-adv-x="1215" 
d="M716 1014q172 0 269.5 -104.5t97.5 -321.5v-589h-229v530q0 78 -14 132t-43 85.5t-67.5 45.5t-92.5 14q-58 0 -106 -20t-82 -58t-52.5 -96t-18.5 -130v-502h-229v999h229v-137h3q63 74 150 113t185 39zM494 -108h209q8 -35 8 -97q0 -56 -21.5 -101t-59 -74t-83.5 -46.5
t-100 -22.5l-54 134q62 22 87.5 50t25.5 76q0 28 -12 81z" />
    <glyph glyph-name="Ncaron" unicode="&#x147;" horiz-adv-x="1563" 
d="M878 1607h-206l-231 301h224l111 -154h6l112 154h225zM1138 1455h247v-1455h-252l-704 1029h-4v-1029h-247v1455h245l710 -1044h5v1044z" />
    <glyph glyph-name="ncaron" unicode="&#x148;" horiz-adv-x="1215" 
d="M704 1134h-206l-231 301h224l111 -154h6l112 154h225zM716 1014q172 0 269.5 -104.5t97.5 -321.5v-589h-229v530q0 78 -14 132t-43 85.5t-67.5 45.5t-92.5 14q-58 0 -106 -20t-82 -58t-52.5 -96t-18.5 -130v-502h-229v999h229v-137h3q42 49 95.5 83t114 51.5t125.5 17.5z
" />
    <glyph glyph-name="napostrophe" unicode="&#x149;" horiz-adv-x="1385" 
d="M-18 1029l61 426h221l-119 -426h-163zM886 1014q172 0 269.5 -104.5t97.5 -321.5v-589h-229v530q0 78 -14 132t-43 85.5t-67.5 45.5t-92.5 14q-118 0 -188.5 -80t-70.5 -224v-502h-229v999h229v-137h3q63 74 150 113t185 39z" />
    <glyph glyph-name="Eng" unicode="&#x14a;" horiz-adv-x="1564" 
d="M1139 1455h247v-1523q0 -170 -81 -261.5t-216 -91.5q-56 0 -99 7.5t-96 28.5l39 189q47 -29 91 -29q24 0 45 10.5t36.5 29t24.5 46.5t9 61v74l-712 1035h-2v-1031h-247v1455h242l716 -1048h3v1048z" />
    <glyph glyph-name="eng" unicode="&#x14b;" horiz-adv-x="1175" 
d="M699 1014q165 0 254.5 -102t89.5 -318v-662q0 -169 -78.5 -261t-200.5 -92q-39 0 -66 2.5t-59.5 10.5t-69.5 23l39 189q47 -29 91 -29q49 0 82 40.5t33 106.5v604q0 156 -44 218t-152 62q-99 0 -169.5 -83.5t-70.5 -224.5v-498h-229v999h229v-134h3q62 70 150 109.5
t168 39.5z" />
    <glyph glyph-name="Omacron" unicode="&#x14c;" horiz-adv-x="1693" 
d="M544 1669v193h610v-193h-610zM848 -16q-161 0 -299 56.5t-233.5 155t-149.5 236t-54 296.5q0 158 54 295.5t149.5 236t233.5 155t299 56.5q156 0 291.5 -54t233 -150.5t153 -235.5t55.5 -303t-55.5 -303.5t-153 -235.5t-233 -150.5t-291.5 -54.5zM848 215q100 0 188 38.5
t151 106t100 163t37 205.5t-37 205.5t-100 162.5t-151 105.5t-188 38.5q-104 0 -194 -40t-152 -109t-97.5 -163t-35.5 -200t35.5 -200.5t97.5 -163.5t152 -109t194 -40z" />
    <glyph glyph-name="omacron" unicode="&#x14d;" horiz-adv-x="1229" 
d="M310 1196v193h610v-193h-610zM615 -16q-116 0 -215 39t-166.5 107.5t-105.5 163.5t-38 204q0 147 64.5 264t185 184.5t275.5 67.5q152 0 271 -64.5t186 -182.5t67 -269q0 -150 -67 -267.5t-186.5 -182t-270.5 -64.5zM615 192q123 0 207 86.5t84 219.5q0 136 -83 222
t-208 86q-130 0 -211 -88t-81 -220q0 -130 82.5 -218t209.5 -88z" />
    <glyph glyph-name="Obreve" unicode="&#x14e;" horiz-adv-x="1693" 
d="M849 1601q-83 0 -152.5 34t-115 103t-52.5 163h180q4 -61 41 -100t99 -39q59 0 97.5 38t41.5 101h180q-10 -133 -97 -216.5t-222 -83.5zM848 -16q-161 0 -299 56.5t-233.5 155t-149.5 236t-54 296.5q0 158 54 295.5t149.5 236t233.5 155t299 56.5q156 0 291.5 -54
t233 -150.5t153 -235.5t55.5 -303t-55.5 -303.5t-153 -235.5t-233 -150.5t-291.5 -54.5zM848 215q100 0 188 38.5t151 106t100 163t37 205.5t-37 205.5t-100 162.5t-151 105.5t-188 38.5q-104 0 -194 -40t-152 -109t-97.5 -163t-35.5 -200t35.5 -200.5t97.5 -163.5t152 -109
t194 -40z" />
    <glyph glyph-name="obreve" unicode="&#x14f;" horiz-adv-x="1229" 
d="M615 1128q-83 0 -152.5 34t-115 103t-52.5 163h180q4 -61 41 -100t99 -39q59 0 97.5 38t41.5 101h180q-7 -87 -47.5 -155t-111 -106.5t-160.5 -38.5zM615 -16q-116 0 -215 39t-166.5 107.5t-105.5 163.5t-38 204q0 147 64.5 264t185 184.5t275.5 67.5q152 0 271 -64.5
t186 -182.5t67 -269q0 -150 -67 -267.5t-186.5 -182t-270.5 -64.5zM615 192q80 0 146.5 38.5t105.5 109t39 158.5q0 136 -83 222t-208 86q-130 0 -211 -88t-81 -220q0 -130 82 -218t210 -88z" />
    <glyph glyph-name="Ohungarumlaut" unicode="&#x150;" horiz-adv-x="1693" 
d="M546 1611l235 296l234 1l-254 -297h-215zM936 1611l234 296l234 1l-254 -297h-214zM848 -16q-161 0 -299 56.5t-233.5 155t-149.5 236t-54 296.5q0 158 54 295.5t149.5 236t233.5 155t299 56.5q156 0 291.5 -54t233 -150.5t153 -235.5t55.5 -303t-55.5 -303.5
t-153 -235.5t-233 -150.5t-291.5 -54.5zM848 215q100 0 188 38.5t151.5 106t100 163t36.5 205.5t-36.5 205.5t-100 162.5t-151.5 105.5t-188 38.5q-104 0 -194 -40t-152 -109t-97.5 -163t-35.5 -200t35.5 -200.5t97.5 -163.5t152 -109t194 -40z" />
    <glyph glyph-name="ohungarumlaut" unicode="&#x151;" horiz-adv-x="1229" 
d="M290 1138l235 296l234 1l-254 -297h-215zM680 1138l234 296l234 1l-254 -297h-214zM615 -16q-116 0 -215 39t-166.5 107.5t-105.5 163.5t-38 204q0 147 64.5 264t185 184.5t275.5 67.5q152 0 271 -64.5t186 -182.5t67 -269q0 -150 -67 -267.5t-186.5 -182t-270.5 -64.5z
M615 192q123 0 207 86.5t84 219.5q0 136 -83 222t-208 86q-129 0 -210.5 -88t-81.5 -220q0 -130 82.5 -218t209.5 -88z" />
    <glyph glyph-name="OE" unicode="&#x152;" horiz-adv-x="1980" 
d="M1158 222h714v-222h-1020q-162 0 -301 56.5t-234.5 154t-150 231.5t-54.5 287t54.5 287t150 231t234.5 153t301 55h979v-222h-673v-403h551v-222h-551v-386zM852 230l69 1v994h-69q-101 0 -190.5 -37.5t-154 -103t-102 -158t-37.5 -197.5q0 -84 24 -161t68 -138.5
t103.5 -106.5t133.5 -69.5t155 -23.5z" />
    <glyph glyph-name="oe" unicode="&#x153;" horiz-adv-x="1643" 
d="M1585 511q0 -51 -6 -91h-611q7 -41 20 -76t32.5 -63t45 -48t57.5 -30.5t68 -10.5q56 0 108.5 33.5t85.5 84.5l159 -137q-58 -84 -157 -136.5t-208 -52.5q-105 0 -192 43.5t-148 122.5h-3q-59 -80 -144 -123t-185 -43q-132 0 -234 67.5t-156.5 184t-54.5 262.5
q0 109 35 205t95 164t144.5 107.5t180.5 39.5t178.5 -43t140.5 -122h4q60 79 146 122t188 43q88 0 164.5 -38t130.5 -104t85 -159.5t31 -201.5zM506 192q45 0 86 22.5t71.5 62.5t48.5 97.5t18 123.5q0 136 -60 222t-154 86q-92 0 -156.5 -89t-64.5 -219q0 -131 58 -218.5
t153 -87.5zM1167 806q-75 0 -125.5 -51t-69.5 -143h385q-19 90 -68 142t-122 52z" />
    <glyph glyph-name="Racute" unicode="&#x154;" horiz-adv-x="1350" 
d="M955 1908l-254 -297h-233l235 296zM1265 0h-297l-347 519h-196v-519h-247v1455h537q101 0 183.5 -23t140.5 -65t97 -101t57.5 -130t18.5 -153q0 -175 -83.5 -285.5t-235.5 -152.5v-4zM425 1233v-492h236q145 0 220 67t75 180q0 115 -72.5 180t-205.5 65h-253z" />
    <glyph glyph-name="racute" unicode="&#x155;" horiz-adv-x="762" 
d="M739 1435l-254 -297h-233l235 296zM381 849q59 80 139.5 122.5t171.5 42.5q20 0 28 -1v-255q-39 3 -69 3q-85 0 -147.5 -38t-94 -102.5t-31.5 -146.5v-474h-229v999h229v-150h3z" />
    <glyph glyph-name="Rcommaaccent" unicode="&#x156;" horiz-adv-x="1350" 
d="M893 541l372 -541h-297l-347 519h-196v-519h-247v1455h537q101 0 183.5 -23t140.5 -65t97 -101t57.5 -130t18.5 -153q0 -175 -83.5 -285.5t-235.5 -152.5v-4zM425 1233v-492h236q145 0 220 67t75 180q0 115 -72.5 180t-205.5 65h-253zM558 -108h209q8 -35 8 -97
q0 -56 -21.5 -101t-59 -74t-83.5 -46.5t-100 -22.5l-54 134q62 22 87.5 50t25.5 76q0 28 -12 81z" />
    <glyph glyph-name="rcommaaccent" unicode="&#x157;" horiz-adv-x="762" 
d="M692 1014q20 0 28 -1v-255q-39 3 -69 3q-85 0 -147.5 -38t-94 -102.5t-31.5 -146.5v-474h-229v999h229v-150h3q59 80 139.5 122.5t171.5 42.5zM158 -108h209q8 -35 8 -97q0 -45 -14 -83.5t-38.5 -65.5t-58.5 -47.5t-72 -32t-81 -15.5l-54 134q31 11 52 23t35 27t20 33.5
t6 42.5q0 29 -12 81z" />
    <glyph glyph-name="Rcaron" unicode="&#x158;" horiz-adv-x="1350" 
d="M768 1607h-206l-231 301h224l111 -154h6l112 154h225zM1265 0h-297l-347 519h-196v-519h-247v1455h537q101 0 183.5 -23t140.5 -65t97 -101t57.5 -130t18.5 -153q0 -175 -83.5 -285.5t-235.5 -152.5v-4zM425 1233v-492h236q145 0 220 67t75 180q0 115 -72.5 180
t-205.5 65h-253z" />
    <glyph glyph-name="rcaron" unicode="&#x159;" horiz-adv-x="762" 
d="M552 1134h-206l-231 301h224l111 -154h6l112 154h225zM381 849q59 80 139.5 122.5t171.5 42.5q20 0 28 -1v-255q-39 3 -69 3q-85 0 -147.5 -38t-94 -102.5t-31.5 -146.5v-474h-229v999h229v-150h3z" />
    <glyph glyph-name="Sacute" unicode="&#x15a;" horiz-adv-x="1211" 
d="M474 1611l235 296l252 1l-254 -297h-233zM613 -16q-144 0 -280.5 57t-247.5 171l156 192q31 -38 67.5 -69t74 -54t77 -38.5t78.5 -23t76 -7.5q118 0 180 47.5t62 130.5q0 27 -6.5 49.5t-16.5 40t-30 34.5t-39.5 29t-53 26.5t-61.5 25.5t-74 27q-54 19 -94 35t-88.5 40
t-83 48.5t-69.5 58t-56 71t-34.5 86t-13.5 103.5q0 112 62 206t167.5 147.5t229.5 53.5q253 1 482 -179l-147 -194q-179 149 -335 149q-57 0 -102 -19.5t-72.5 -58.5t-28.5 -92q-1 -74 72 -122q47 -30 200 -89q181 -71 244 -106q138 -76 181 -191q25 -65 25 -150
q0 -87 -30 -160t-79.5 -123t-115 -85t-135.5 -51t-141 -16z" />
    <glyph glyph-name="sacute" unicode="&#x15b;" horiz-adv-x="919" 
d="M318 1138l235 296l252 1l-254 -297h-233zM469 -16q-238 0 -404 146l116 172q61 -61 129.5 -89.5t158.5 -28.5q65 0 102.5 27t37.5 71q0 36 -42.5 59.5t-155.5 62.5q-55 19 -95.5 37t-82 46t-68 60.5t-43 79.5t-16.5 104q0 122 99.5 202.5t252.5 80.5q198 0 354 -125
l-115 -180q-39 36 -83 60.5t-85.5 35.5t-82.5 11q-40 0 -74.5 -22t-34.5 -64q0 -24 21 -45.5t53 -38.5t85 -38q159 -63 198 -83q99 -53 130 -129q18 -47 18 -109q0 -64 -23 -118.5t-68 -96t-117 -65t-165 -23.5z" />
    <glyph glyph-name="Scircumflex" unicode="&#x15c;" horiz-adv-x="1211" 
d="M596 1761l-111 -154h-224l231 301h206l241 -301h-225l-112 154h-6zM664 866q181 -71 244 -106q138 -76 181 -191q25 -65 25 -150q0 -87 -30 -160t-79.5 -123t-115 -85t-135.5 -51t-141 -16q-144 0 -280 57t-248 171l156 192q77 -93 176.5 -142.5t196.5 -49.5
q118 0 180 47.5t62 130.5q0 23 -4 43t-14.5 37.5t-22 31t-31.5 27.5t-39 24.5t-49 23t-55.5 22t-65.5 23.5q-54 19 -94 35t-88.5 40t-83 48.5t-69.5 58t-56 71t-34.5 86t-13.5 103.5q0 112 62 206t167.5 147.5t229.5 53.5q253 1 482 -179l-147 -194q-179 149 -335 149
q-87 0 -144.5 -45.5t-58.5 -124.5q-1 -74 72 -122q47 -30 200 -89z" />
    <glyph glyph-name="scircumflex" unicode="&#x15d;" horiz-adv-x="919" 
d="M469 1288l-111 -154h-224l231 301h206l241 -301h-225l-112 154h-6zM496 608q159 -63 198 -83q99 -53 130 -129q18 -46 18 -109q0 -64 -23 -118.5t-68 -96t-117 -65t-165 -23.5q-238 0 -404 146l116 172q61 -61 129.5 -89.5t158.5 -28.5q65 0 102.5 27t37.5 71
q0 36 -42.5 59.5t-155.5 62.5q-45 15 -80 30t-71.5 35.5t-62.5 45.5t-47.5 56.5t-32.5 71.5t-11 88q0 122 99.5 202.5t252.5 80.5q198 0 354 -125l-115 -180q-39 36 -83.5 60.5t-85.5 35.5t-82 11q-40 0 -74.5 -22t-34.5 -64q0 -35 39.5 -62.5t119.5 -59.5z" />
    <glyph glyph-name="Scedilla" unicode="&#x15e;" horiz-adv-x="1211" 
d="M639 -15l-23 -47l2 -3q93 -4 141 -45.5t48 -118.5q0 -35 -14 -63.5t-43 -50.5t-76.5 -34t-110.5 -12q-59 0 -121 12v113q40 -14 103 -14q42 0 73 15t31 46q0 29 -45.5 49t-126.5 20v74l31 66q-243 35 -423 220l156 192q77 -93 176.5 -142.5t196.5 -49.5q118 0 180 47.5
t62 130.5q0 27 -6.5 49.5t-16.5 40t-30 34.5t-39.5 29t-53 26.5t-61.5 25.5t-74 27q-54 19 -94 35t-88.5 40t-83 48.5t-69.5 58t-56 71t-34.5 86t-13.5 103.5q0 112 62 206t167.5 147.5t229.5 53.5q253 1 482 -179l-147 -194q-179 149 -335 149q-87 0 -144.5 -45.5
t-58.5 -124.5q-1 -74 72 -122q47 -30 200 -89q181 -71 244 -106q138 -76 181 -191q25 -65 25 -150q0 -84 -28 -155t-74 -120.5t-108 -85t-128.5 -53t-136.5 -20.5z" />
    <glyph glyph-name="scedilla" unicode="&#x15f;" horiz-adv-x="919" 
d="M472 -16l-23 -46l2 -3q93 -4 141 -45.5t48 -118.5q0 -73 -60 -116.5t-184 -43.5q-59 0 -121 12v113q40 -14 103 -14q42 0 73 15t31 46q0 29 -45.5 49t-126.5 20v74l32 70q-159 30 -277 134l116 172q61 -61 129.5 -89.5t158.5 -28.5q65 0 102.5 27t37.5 71
q0 36 -42.5 59.5t-155.5 62.5q-33 11 -60 22t-56.5 25t-52.5 29.5t-45 34.5t-38 41.5t-28.5 48.5t-18.5 58t-6 68q0 122 99.5 202.5t252.5 80.5q198 0 354 -125l-115 -180q-39 36 -83.5 60.5t-85.5 35.5t-82 11q-40 0 -74.5 -22t-34.5 -64q0 -24 21 -45.5t53 -38.5t85 -38
q159 -63 198 -83q99 -53 130 -129q18 -47 18 -109q0 -51 -14 -95.5t-44 -83t-73 -66t-104 -43t-135 -15.5z" />
    <glyph glyph-name="Scaron" unicode="&#x160;" horiz-adv-x="1211" 
d="M698 1607h-206l-231 301h224l111 -154h6l112 154h225zM664 866q181 -71 244 -106q138 -76 181 -191q25 -65 25 -150q0 -87 -30 -160t-79.5 -123t-115 -85t-135.5 -51t-141 -16q-144 0 -280 57t-248 171l156 192q77 -93 176.5 -142.5t196.5 -49.5q118 0 180 47.5t62 130.5
q0 27 -6.5 49.5t-16.5 40t-30 34.5t-39.5 29t-53 26.5t-61.5 25.5t-74 27q-54 19 -94 35t-88.5 40t-83 48.5t-69.5 58t-56 71t-34.5 86t-13.5 103.5q0 112 62 206t167.5 147.5t229.5 53.5q253 1 482 -179l-147 -194q-179 149 -335 149q-87 0 -144.5 -45.5t-58.5 -124.5
q-1 -74 72 -122q47 -30 200 -89z" />
    <glyph glyph-name="scaron" unicode="&#x161;" horiz-adv-x="919" 
d="M571 1134h-206l-231 301h224l111 -154h6l112 154h225zM496 608q159 -63 198 -83q99 -53 130 -129q18 -46 18 -109q0 -64 -23 -118.5t-68 -96t-117 -65t-165 -23.5q-238 0 -404 146l116 172q61 -61 129.5 -89.5t158.5 -28.5q65 0 102.5 27t37.5 71q0 36 -42.5 59.5
t-155.5 62.5q-55 19 -95.5 37t-82 46t-68 60.5t-43 79.5t-16.5 104q0 122 99.5 202.5t252.5 80.5q198 0 354 -125l-115 -180q-39 36 -83.5 60.5t-85.5 35.5t-82 11q-40 0 -74.5 -22t-34.5 -64q0 -35 39.5 -62.5t119.5 -59.5z" />
    <glyph glyph-name="uni0162" unicode="&#x162;" horiz-adv-x="1207" 
d="M612 0l-31 -62l2 -3q93 -4 141 -45.5t48 -118.5q0 -73 -60 -116.5t-184 -43.5q-59 0 -121 12v113q40 -14 103 -14q42 0 73 15t31 46q0 29 -45.5 49t-126.5 20v74l36 77v1230h-413v222h1077v-222h-417v-1233h-113z" />
    <glyph glyph-name="uni0163" unicode="&#x163;" horiz-adv-x="747" 
d="M427 -65q93 -4 141 -45.5t48 -118.5q0 -73 -60 -116.5t-184 -43.5q-59 0 -121 12v113q40 -14 103 -14q42 0 73 15t31 46q0 29 -45.5 49t-126.5 20v74l38 81q-75 33 -115.5 111t-40.5 198v488h-122v195h122v332l229 25v-357h294v-195h-294v-467q0 -75 23.5 -107t72.5 -32
q67 0 148 43l60 -198q-54 -29 -109.5 -44t-143.5 -15l-23 -46z" />
    <glyph glyph-name="Tcaron" unicode="&#x164;" horiz-adv-x="1207" 
d="M698 1607h-206l-231 301h224l111 -154h6l112 154h225zM65 1455h1077v-222h-417v-1233h-247v1233h-413v222z" />
    <glyph glyph-name="tcaron" unicode="&#x165;" horiz-adv-x="747" 
d="M523 1194l62 406h221l-119 -406h-164zM447 -16q-132 0 -205.5 84t-73.5 248v488h-122v195h122v332l229 25v-357h294v-195h-294v-467q0 -75 23.5 -107t72.5 -32q67 0 148 43l60 -198q-54 -29 -109.5 -44t-144.5 -15z" />
    <glyph glyph-name="Tbar" unicode="&#x166;" horiz-adv-x="1207" 
d="M1142 1233h-417v-405h239v-211h-239v-617h-247v617h-236v211h236v405h-413v222h1077v-222z" />
    <glyph glyph-name="tbar" unicode="&#x167;" horiz-adv-x="747" 
d="M641 241l60 -198q-54 -29 -109.5 -44t-144.5 -15q-132 0 -205.5 84t-73.5 248v147h-111v157h111v184h-122v195h122v332l229 25v-357h294v-195h-294v-184h237v-157h-237v-126q0 -75 23.5 -107t72.5 -32q67 0 148 43z" />
    <glyph glyph-name="Utilde" unicode="&#x168;" horiz-adv-x="1473" 
d="M899 1606q-26 0 -51 5t-49 16t-39.5 20t-39.5 24q-19 11 -30 17.5t-27 13.5t-30 10.5t-28 3.5q-76 0 -118 -106l-140 64q32 104 91.5 164.5t141.5 60.5q28 0 53 -4.5t48.5 -14.5t35.5 -17l36 -21q3 -2 13 -8.5t13 -8.5t12 -7.5t13.5 -7.5t12.5 -6t13.5 -5.5t12.5 -3.5
t14 -3t14 -1q36 0 66.5 27.5t50.5 77.5l138 -46q-30 -114 -89.5 -179t-137.5 -65zM735 -16q-129 0 -235.5 41t-182.5 118.5t-118 193.5t-42 261v857h247v-838q0 -116 39 -206t114.5 -141.5t177.5 -51.5q149 0 241.5 107t92.5 292v838h247v-857q0 -284 -155 -449t-426 -165z
" />
    <glyph glyph-name="utilde" unicode="&#x169;" horiz-adv-x="1183" 
d="M457 1243q-76 0 -118 -106l-140 64q32 104 91.5 164.5t141.5 60.5q37 0 72 -10t52 -19t49 -28q1 -1 14 -9t15.5 -9.5t13.5 -8t15 -8.5t13.5 -6.5t15.5 -5.5t14.5 -2.5t16.5 -1.5q36 0 66.5 27.5t50.5 77.5l138 -46q-20 -75 -53 -129.5t-77.5 -84.5t-96.5 -30
q-34 0 -69.5 11t-56.5 22.5t-53 31.5q-19 11 -30 17.5t-27 13.5t-30 10.5t-28 3.5zM814 999h229v-999h-229v130h-3q-59 -71 -139 -108.5t-169 -37.5q-85 0 -151.5 22.5t-117 69.5t-77.5 126.5t-27 188.5v608h229v-546q0 -75 11 -125t36.5 -80t61.5 -42.5t89 -12.5
q51 0 97 21.5t82 61.5t57 103.5t21 141.5v478z" />
    <glyph glyph-name="Umacron" unicode="&#x16a;" horiz-adv-x="1473" 
d="M431 1669v193h610v-193h-610zM735 -16q-129 0 -235.5 41t-182.5 118.5t-118 193.5t-42 261v857h247v-838q0 -116 39 -206t114.5 -141.5t177.5 -51.5q149 0 241.5 107t92.5 292v838h247v-857q0 -284 -155 -449t-426 -165z" />
    <glyph glyph-name="umacron" unicode="&#x16b;" horiz-adv-x="1183" 
d="M893 1389v-193h-610v193h610zM814 999h229v-999h-229v130h-3q-59 -71 -139 -108.5t-169 -37.5q-85 0 -151.5 22.5t-117 69.5t-77.5 126.5t-27 188.5v608h229v-546q0 -75 11.5 -125t36.5 -80t61 -42.5t89 -12.5q51 0 97 21.5t82 61.5t57 103.5t21 141.5v478z" />
    <glyph glyph-name="Ubreve" unicode="&#x16c;" horiz-adv-x="1473" 
d="M736 1601q-83 0 -152.5 34t-115 103t-52.5 163h180q4 -61 41 -100t99 -39q59 0 97.5 38t41.5 101h180q-10 -133 -97 -216.5t-222 -83.5zM735 -16q-129 0 -235.5 41t-182.5 118.5t-118 193.5t-42 261v857h247v-838q0 -116 39 -206t114.5 -141.5t177.5 -51.5
q149 0 241.5 107t92.5 292v838h247v-857q0 -284 -155 -449t-426 -165z" />
    <glyph glyph-name="ubreve" unicode="&#x16d;" horiz-adv-x="1183" 
d="M588 1128q-62 0 -117.5 20t-99 57t-71 94.5t-32.5 128.5h180q4 -61 41 -100t99 -39q59 0 97.5 38t41.5 101h180q-10 -133 -97 -216.5t-222 -83.5zM814 999h229v-999h-229v130h-3q-40 -47 -89.5 -80t-104.5 -49.5t-114 -16.5q-85 0 -151.5 22.5t-117 69.5t-77.5 126.5
t-27 188.5v608h229v-546q0 -99 21.5 -156.5t63.5 -80.5t113 -23q51 0 97 21.5t82 61.5t57 103.5t21 141.5v478z" />
    <glyph glyph-name="Uring" unicode="&#x16e;" horiz-adv-x="1473" 
d="M735 1558q-91 0 -156 62t-65 153q0 90 63 152.5t158 62.5q60 0 111 -27.5t81 -77t30 -110.5q0 -89 -63 -152t-159 -63zM735 1697q33 0 56.5 23t23.5 56q0 32 -23.5 55t-56.5 23t-56 -23.5t-23 -55.5q0 -33 23 -55.5t56 -22.5zM735 -16q-129 0 -235.5 41t-182.5 118.5
t-118 193.5t-42 261v857h247v-838q0 -116 39 -206t114.5 -141.5t177.5 -51.5q149 0 241.5 107t92.5 292v838h247v-857q0 -284 -155 -449t-426 -165z" />
    <glyph glyph-name="uring" unicode="&#x16f;" horiz-adv-x="1183" 
d="M587 1085q-44 0 -85 16.5t-71 44.5t-47.5 68.5t-17.5 85.5q0 90 63 152.5t158 62.5q93 0 157.5 -61.5t64.5 -153.5q0 -89 -63 -152t-159 -63zM587 1381q-33 0 -56 -23.5t-23 -55.5q0 -33 23 -55.5t56 -22.5t56.5 23t23.5 56q0 32 -23.5 55t-56.5 23zM814 999h229v-999
h-229v130h-3q-59 -71 -139 -108.5t-169 -37.5q-85 0 -151.5 22.5t-117 69.5t-77.5 126.5t-27 188.5v608h229v-546q0 -99 21.5 -156.5t63.5 -80.5t113 -23q51 0 97 21.5t82 61.5t57 103.5t21 141.5v478z" />
    <glyph glyph-name="Uhungarumlaut" unicode="&#x170;" horiz-adv-x="1473" 
d="M424 1611l235 296l234 1l-254 -297h-215zM814 1611l234 296l234 1l-254 -297h-214zM735 -16q-129 0 -235.5 41t-182.5 118.5t-118 193.5t-42 261v857h247v-838q0 -116 39 -206t114.5 -141.5t177.5 -51.5q149 0 241.5 107t92.5 292v838h247v-857q0 -284 -155 -449
t-426 -165z" />
    <glyph glyph-name="uhungarumlaut" unicode="&#x171;" horiz-adv-x="1183" 
d="M739 1435l-254 -297h-215l235 296zM874 1138h-214l234 296l234 1zM814 521v478h229v-999h-229v130h-3q-59 -71 -139 -108.5t-169 -37.5q-85 0 -151.5 22.5t-117 69.5t-77.5 126.5t-27 188.5v608h229v-546q0 -75 11.5 -125t36.5 -80t61 -42.5t89 -12.5q51 0 97 21.5
t82 61.5t57 103.5t21 141.5z" />
    <glyph glyph-name="Uogonek" unicode="&#x172;" horiz-adv-x="1473" 
d="M1069 1455h247v-857q0 -231 -104.5 -385.5t-293.5 -205.5q-75 -25 -117.5 -65t-42.5 -86q0 -39 22.5 -61.5t65.5 -22.5q24 0 39.5 2t23 4.5t21.5 8.5l13 -138q-57 -25 -146 -25q-51 0 -92.5 13t-70 36.5t-44 57t-15.5 74.5q0 28 11 58.5t33.5 61.5t54.5 58v3
q-237 19 -377 180t-140 432v857h247v-838q0 -116 39 -206t114.5 -141.5t177.5 -51.5q149 0 241.5 107t92.5 292v838z" />
    <glyph glyph-name="uogonek" unicode="&#x173;" horiz-adv-x="1183" 
d="M1019 0q-73 -16 -117 -60t-44 -93q0 -39 22.5 -61.5t65.5 -22.5q24 0 39.5 2t23 4.5t21.5 8.5l13 -138q-57 -25 -146 -25q-102 0 -162 49.5t-60 131.5q0 51 36.5 108t102.5 100v126h-3q-59 -71 -139 -108.5t-169 -37.5q-85 0 -151.5 22.5t-117 69.5t-77.5 126.5
t-27 188.5v608h229v-546q0 -75 11 -125t36.5 -80t61.5 -42.5t89 -12.5q51 0 97 21.5t82 61.5t57 103.5t21 141.5v478h229v-999h-24z" />
    <glyph glyph-name="Wcircumflex" unicode="&#x174;" horiz-adv-x="2119" 
d="M1058 1761l-111 -154h-224l231 301h206l241 -301h-225l-112 154h-6zM1791 1455h263l-461 -1455h-231l-298 1094h-3l-304 -1094h-231l-461 1455h264l312 -1050h2l286 1050h263l284 -1053h2z" />
    <glyph glyph-name="wcircumflex" unicode="&#x175;" horiz-adv-x="1579" 
d="M784 1288l-111 -154h-224l231 301h206l241 -301h-225l-112 154h-6zM1299 999h232l-343 -999h-212l-187 629h-4l-187 -629h-207l-343 999h232l216 -657h4l193 657h191l196 -658h3z" />
    <glyph glyph-name="Ycircumflex" unicode="&#x176;" horiz-adv-x="1279" 
d="M638 1761l-111 -154h-224l231 301h206l241 -301h-225l-112 154h-6zM965 1455h286l-489 -812v-643h-248v643l-486 812h283l325 -564h6z" />
    <glyph glyph-name="ycircumflex" unicode="&#x177;" horiz-adv-x="1095" 
d="M544 1288l-111 -154h-224l231 301h206l241 -301h-225l-112 154h-6zM815 999h240l-549 -1404h-241l180 461l-406 943h241l276 -674h2z" />
    <glyph glyph-name="Ydieresis" unicode="&#x178;" horiz-adv-x="1279" 
d="M439 1621q-65 0 -110 44.5t-45 107.5t45 107.5t110 44.5q63 0 108.5 -45t45.5 -107q0 -63 -45.5 -107.5t-108.5 -44.5zM846 1624q-63 0 -107.5 43.5t-44.5 105.5q0 61 44.5 105.5t107.5 44.5q62 0 107 -44.5t45 -105.5q0 -40 -20.5 -74.5t-55.5 -54.5t-76 -20zM965 1455
h286l-489 -812v-643h-248v643l-486 812h283l325 -564h6z" />
    <glyph glyph-name="Zacute" unicode="&#x179;" horiz-adv-x="1283" 
d="M924 1908l-254 -297h-233l235 296zM431 222h730v-222h-1044v194l716 1035v4h-684v222h1009v-191l-727 -1039v-3z" />
    <glyph glyph-name="zacute" unicode="&#x17a;" horiz-adv-x="1001" 
d="M789 1435l-254 -297h-233l235 296zM912 841l-522 -643v-3h514v-195h-822v161l514 640v3h-480v195h796v-158z" />
    <glyph glyph-name="Zdotaccent" unicode="&#x17b;" horiz-adv-x="1283" 
d="M641 1621q-65 0 -110 44.5t-45 107.5q0 41 20.5 76t56 55.5t78.5 20.5q63 0 108.5 -45t45.5 -107q0 -63 -45.5 -107.5t-108.5 -44.5zM431 222h730v-222h-1044v194l716 1035v4h-684v222h1009v-191l-727 -1039v-3z" />
    <glyph glyph-name="zdotaccent" unicode="&#x17c;" horiz-adv-x="1001" 
d="M506 1148q-65 0 -110 44.5t-45 107.5t45 107.5t110 44.5q63 0 108.5 -45t45.5 -107q0 -63 -45.5 -107.5t-108.5 -44.5zM912 841l-522 -643v-3h514v-195h-822v161l514 640v3h-480v195h796v-158z" />
    <glyph glyph-name="Zcaron" unicode="&#x17d;" horiz-adv-x="1283" 
d="M737 1607h-206l-231 301h224l111 -154h6l112 154h225zM431 222h730v-222h-1044v194l716 1035v4h-684v222h1009v-191l-727 -1039v-3z" />
    <glyph glyph-name="zcaron" unicode="&#x17e;" horiz-adv-x="1001" 
d="M602 1134h-206l-231 301h224l111 -154h6l112 154h225zM912 841l-522 -643v-3h514v-195h-822v161l514 640v3h-480v195h796v-158z" />
    <glyph glyph-name="longs" unicode="&#x17f;" horiz-adv-x="690" 
d="M187 0v804h-112v195h112v183q0 167 77.5 254.5t224.5 87.5q140 0 251 -69l-51 -194q-107 51 -167 51q-35 0 -58 -16t-35.5 -50.5t-12.5 -88.5v-1157h-229z" />
    <glyph glyph-name="uni018F" unicode="&#x18f;" horiz-adv-x="1479" 
d="M713 1471q141 0 262.5 -54.5t207.5 -151.5t135 -237t49 -306q0 -160 -48 -298t-132.5 -234.5t-203.5 -151t-257 -54.5q-103 0 -195.5 29t-170 88.5t-134.5 143.5t-89 200t-32 252q0 39 6 93h999q-17 206 -125.5 328.5t-278.5 122.5q-164 0 -308 -84l-112 208
q48 27 106 49t145.5 39.5t175.5 17.5zM717 219q146 0 248.5 96t134.5 262h-746q27 -163 123.5 -260.5t239.5 -97.5z" />
    <glyph glyph-name="florin" unicode="&#x192;" horiz-adv-x="1124" 
d="M225 -293q-104 0 -177.5 26t-109.5 60l83 161q78 -39 162 -39q71 0 113.5 43t55.5 143l86 664h-155l28 195h155l29 224q46 339 358 339q101 0 175 -26.5t112 -59.5l-84 -162q-83 40 -163 40q-71 0 -113.5 -43.5t-54.5 -143.5l-21 -168h284l-27 -195h-285l-94 -718
q-22 -172 -110.5 -256t-246.5 -84z" />
    <glyph glyph-name="uni019D" unicode="&#x19d;" horiz-adv-x="1563" 
d="M1138 1455h247v-1455h-252l-704 1029h-4v-1097q0 -86 -22 -153.5t-61.5 -111t-93.5 -66t-120 -22.5q-56 0 -99 7.5t-96 28.5l39 189q47 -29 91 -29q49 0 82 40.5t33 106.5v1533h245l710 -1044h5v1044z" />
    <glyph glyph-name="Ohorn" unicode="&#x1a0;" horiz-adv-x="1782" 
d="M1500 1587h234v-147q0 -92 -25 -165.5t-75.5 -125.5t-123.5 -77l-1 -2q72 -157 72 -342q0 -164 -55.5 -303.5t-153 -235.5t-233 -150.5t-291.5 -54.5q-161 0 -299 56.5t-233.5 155t-149.5 236t-54 296.5q0 158 54 295.5t149.5 236t233.5 155t299 56.5q176 0 323.5 -67
t247.5 -190q14 7 25 16t19 17.5t14 23.5t10 24t6.5 29t4 29t2 33.5t0.5 33.5v36v131zM848 215q100 0 188 38.5t151 106t100 163t37 205.5t-37 205.5t-100 162.5t-151 105.5t-188 38.5q-104 0 -194 -40t-152 -109t-97.5 -163t-35.5 -200t35.5 -200.5t97.5 -163.5t152 -109
t194 -40z" />
    <glyph glyph-name="ohorn" unicode="&#x1a1;" horiz-adv-x="1394" 
d="M1137 1159h234v-147q0 -146 -63 -244t-183 -131l-1 -1q16 -63 16 -138q0 -150 -67 -267.5t-186.5 -182t-270.5 -64.5q-116 0 -215 39t-166.5 107.5t-105.5 163.5t-38 204q0 147 64.5 264t185 184.5t275.5 67.5q145 0 260.5 -59.5t183.5 -166.5q15 8 26 17t19 23l14 24
q6 11 9.5 31.5t5 31t2.5 37t1 36.5v40v131zM616 192q123 0 207 86.5t84 219.5q0 136 -83 222t-208 86q-130 0 -211 -88t-81 -220q0 -130 82 -218t210 -88z" />
    <glyph glyph-name="Uhorn" unicode="&#x1af;" horiz-adv-x="1677" 
d="M1441 1587h234v-147q0 -178 -93 -282t-266 -108v-452q0 -284 -155 -449t-426 -165q-129 0 -235.5 41t-182.5 118.5t-118 193.5t-42 261v857h247v-838q0 -116 39 -206t114.5 -141.5t177.5 -51.5q149 0 241.5 107t92.5 292v838h247v-255q21 4 37.5 11.5t29 15.5t21.5 21.5
t15.5 24.5t10.5 30t6.5 31.5t3.5 36t1 37.5v40v2v3v3v131z" />
    <glyph glyph-name="uhorn" unicode="&#x1b0;" horiz-adv-x="1407" 
d="M1151 1159h234v-147q0 -173 -88.5 -277t-253.5 -113v-622h-229v130h-3q-59 -71 -139 -108.5t-169 -37.5q-85 0 -151.5 22.5t-117 69.5t-77.5 126.5t-27 188.5v608h229v-546q0 -75 11.5 -125t36.5 -80t61 -42.5t89 -12.5q51 0 97 21.5t82 61.5t57 103.5t21 141.5v478h229
v-223q23 7 40 18t28.5 23t19.5 32.5t12 35.5t5.5 43t2 44.5t0.5 49.5v6v131z" />
    <glyph glyph-name="Gcaron" unicode="&#x1e6;" horiz-adv-x="1555" 
d="M929 1607h-206l-231 301h224l111 -154h6l112 154h225zM814 777h602v-608q-101 -84 -252.5 -133t-317.5 -49q-156 0 -290.5 51t-233 144.5t-154.5 233.5t-56 309q0 106 23 203.5t65.5 180t106.5 149.5t143.5 114.5t178 73t208.5 25.5q159 0 309 -61t259 -180l-175 -150
q-161 158 -394 158q-98 0 -183.5 -36t-148 -101.5t-98.5 -162.5t-36 -213q0 -145 57.5 -261t167 -183.5t251.5 -67.5q180 0 324 97v245h-356v222z" />
    <glyph glyph-name="gcaron" unicode="&#x1e7;" horiz-adv-x="1244" 
d="M698 1134h-206l-231 301h224l111 -154h6l112 154h225zM876 999h229v-896q0 -93 -17 -171t-55.5 -144t-97 -111.5t-144.5 -71t-195 -25.5q-113 0 -218 27t-189 77l54 202q96 -51 169.5 -75t170.5 -24q142 0 220 70t78 176v106h-4q-117 -122 -303 -122q-139 0 -250 60.5
t-174.5 173.5t-63.5 259q0 144 60.5 259.5t169.5 180.5t246 65q87 0 167.5 -31t142.5 -90h4v105zM604 228q125 0 203.5 82.5t78.5 209.5q0 63 -22 116.5t-59.5 90t-89.5 57t-111 20.5q-127 0 -206 -80t-79 -207q0 -132 80.5 -210.5t204.5 -78.5z" />
    <glyph glyph-name="uni01EA" unicode="&#x1ea;" horiz-adv-x="1693" 
d="M975 -6q-63 -21 -100 -61.5t-37 -85.5q0 -39 22.5 -61.5t65.5 -22.5q24 0 39.5 2t23 4.5t21.5 8.5l13 -138q-57 -25 -146 -25q-102 0 -162 49.5t-60 131.5q0 46 28.5 96t81.5 91v5q-145 14 -267 75.5t-206.5 158.5t-132 227.5t-47.5 278.5q0 158 54 295.5t149.5 236
t233.5 155t299 56.5q156 0 291.5 -54t233 -150.5t153 -235.5t55.5 -303q0 -98 -20.5 -188.5t-58 -166.5t-91.5 -140.5t-121 -112.5t-147 -80.5t-168 -45.5zM369 728q0 -85 22.5 -163t65 -141t100 -110t132.5 -73t159 -26q80 0 152.5 24.5t131 70.5t102 108.5t67 142
t23.5 167.5q0 110 -36.5 205.5t-100 162.5t-151.5 105.5t-188 38.5q-104 0 -194 -40t-152 -109t-97.5 -163t-35.5 -200z" />
    <glyph glyph-name="uni01EB" unicode="&#x1eb;" horiz-adv-x="1229" 
d="M693 -11q-57 -21 -90 -60.5t-33 -81.5q0 -26 10 -44.5t29.5 -29t48.5 -10.5q24 0 39.5 2t23 4.5t21.5 8.5l13 -138q-57 -25 -146 -25q-102 0 -162 49.5t-60 131.5q0 47 31.5 99.5t87.5 94.5v3q-190 34 -303 172.5t-113 332.5q0 147 64.5 264t185 184.5t275.5 67.5
q152 0 271 -64.5t186 -182.5t67 -269q0 -206 -123 -345t-323 -164zM323 498q0 -130 82.5 -218t209.5 -88q123 0 207 86.5t84 219.5q0 136 -83 222t-208 86q-130 0 -211 -88t-81 -220z" />
    <glyph glyph-name="Aringacute" unicode="&#x1fa;" horiz-adv-x="1427" 
d="M715 1558q-91 0 -156 62t-65 153q0 90 63 152.5t158 62.5q93 0 159 -63l117 87l259 1l-313 -242q0 -58 -28.5 -106.5t-79.5 -77.5t-114 -29zM715 1854q-33 0 -56 -23.5t-23 -55.5q0 -33 23 -55.5t56 -22.5q22 0 40.5 10.5t29 28.5t10.5 40q0 21 -10.5 39t-29 28.5
t-40.5 10.5zM1122 0l-110 313h-594l-109 -313h-258l543 1455h241l546 -1455h-259zM493 527h444l-221 630h-2z" />
    <glyph glyph-name="aringacute" unicode="&#x1fb;" horiz-adv-x="1252" 
d="M623 1085q-60 0 -110.5 28t-80.5 77.5t-30 109.5q0 90 63 152.5t158 62.5q85 0 146 -52l124 91l259 1l-308 -237q1 -6 1 -18q0 -89 -63 -152t-159 -63zM623 1381q-33 0 -56 -23.5t-23 -55.5q0 -33 23 -55.5t56 -22.5t56.5 23t23.5 56q0 32 -23.5 55t-56.5 23zM883 879
v120h229v-999h-219v134h-3q-114 -150 -318 -150q-82 0 -156.5 23.5t-134 68t-103 106t-67 142t-23.5 171.5q0 111 37 208t101 165t153 107t191 39q195 0 309 -135h4zM608 192q119 0 201.5 84.5t82.5 217.5t-80.5 222.5t-202.5 89.5q-123 0 -205.5 -85.5t-82.5 -226.5
q0 -133 80 -217.5t207 -84.5z" />
    <glyph glyph-name="AEacute" unicode="&#x1fc;" horiz-adv-x="1955" 
d="M1332 1908l-254 -297h-233l235 296zM1136 222h711v-222h-958v313h-454l-160 -313h-261l748 1455h1044v-222h-670v-399h549v-222h-549v-390zM544 527h345v670h-3z" />
    <glyph glyph-name="aeacute" unicode="&#x1fd;" horiz-adv-x="1615" 
d="M1170 1435l-254 -297h-233l235 296zM1557 511q0 -55 -6 -91h-669q13 -68 47.5 -119t89.5 -80t124 -29q61 0 116.5 33t97.5 85l159 -137q-68 -86 -167 -137.5t-218 -51.5q-214 0 -345 158h-3q-53 -68 -142.5 -113t-211.5 -45q-93 0 -164.5 23.5t-115 65.5t-65.5 97
t-22 122q0 151 100.5 235.5t294.5 85.5h199v12q0 101 -38.5 141.5t-116.5 40.5q-139 0 -278 -68l-87 183q62 34 163 63.5t219 29.5q211 0 288 -152h4q59 72 142 111.5t184 39.5q123 0 219 -65t149 -179.5t53 -258.5zM1119 806q-84 0 -145.5 -51.5t-85.5 -142.5h438
q-23 89 -78 141.5t-129 52.5zM450 182q79 0 141.5 50t65.5 98v93l-177 -1q-188 0 -188 -120q0 -52 41 -86t117 -34z" />
    <glyph glyph-name="Oslashacute" unicode="&#x1fe;" horiz-adv-x="1693" 
d="M1208 1908l-254 -297h-233l235 296zM1607 1386l-174 -190q148 -194 148 -468q0 -164 -55.5 -303.5t-153 -235.5t-233 -150.5t-291.5 -54.5q-238 0 -420 119l-160 -174l-141 131l157 170q-83 99 -127.5 226t-44.5 272q0 158 54 295.5t149.5 236t233.5 155t299 56.5
q260 0 450 -142l170 184zM369 728q0 -176 90 -308l671 727q-123 93 -282 93q-104 0 -194 -40t-152 -109t-97.5 -163t-35.5 -200zM1324 728q0 153 -69 275l-659 -717q112 -71 252 -71q80 0 152.5 24.5t131 70.5t102 108.5t67 142t23.5 167.5z" />
    <glyph glyph-name="oslashacute" unicode="&#x1ff;" horiz-adv-x="1229" 
d="M984 1435l-254 -297h-233l235 296zM1165 941l-121 -130q95 -135 95 -313q0 -150 -67 -267.5t-186.5 -182t-270.5 -64.5q-155 0 -277 69l-104 -112l-123 114l97 104q-118 140 -118 339q0 147 64.5 264t185 184.5t275.5 67.5q177 0 310 -89l120 129zM323 498q0 -94 45 -168
l404 432q-71 44 -157 44q-130 0 -211 -88t-81 -220zM906 498q0 72 -27 136l-387 -416q57 -26 123 -26q123 0 207 86.5t84 219.5z" />
    <glyph glyph-name="Scommaaccent" unicode="&#x218;" horiz-adv-x="1211" 
d="M613 -16q-144 0 -280 57t-248 171l156 192q77 -93 176.5 -142.5t196.5 -49.5q118 0 180 47.5t62 130.5q0 27 -6.5 49.5t-16.5 40t-30 34.5t-39.5 29t-53 26.5t-61.5 25.5t-74 27q-54 19 -94 35t-88.5 40t-83 48.5t-69.5 58t-56 71t-34.5 86t-13.5 103.5q0 112 62 206
t167.5 147.5t229.5 53.5q253 1 482 -179l-147 -194q-179 149 -335 149q-87 0 -144.5 -45.5t-58.5 -124.5q-1 -74 72 -122q47 -30 200 -89q181 -71 244 -106q138 -76 181 -191q25 -65 25 -150q0 -87 -30 -160t-79.5 -123t-115 -85t-135.5 -51t-141 -16zM472 -449l-54 134
q62 22 87.5 50t25.5 76q0 29 -12 81h209q8 -35 8 -97q0 -56 -21.5 -101t-59 -74t-83.5 -46.5t-100 -22.5z" />
    <glyph glyph-name="scommaaccent" unicode="&#x219;" horiz-adv-x="919" 
d="M469 -16q-238 0 -404 146l116 172q61 -61 129.5 -89.5t158.5 -28.5q65 0 102.5 27t37.5 71q0 36 -42.5 59.5t-155.5 62.5q-45 15 -80 30t-71.5 35.5t-62.5 45.5t-47.5 56.5t-32.5 71.5t-11 88q0 122 99.5 202.5t252.5 80.5q198 0 354 -125l-115 -180q-39 36 -83.5 60.5
t-85.5 35.5t-82 11q-40 0 -74.5 -22t-34.5 -64q0 -24 21 -45.5t53 -38.5t85 -38q159 -63 198 -83q99 -53 130 -129q18 -47 18 -109q0 -64 -23 -118.5t-68 -96t-117 -65t-165 -23.5zM305 -449l-54 134q62 22 87.5 50t25.5 76q0 29 -12 81h209q8 -35 8 -97q0 -56 -21.5 -101
t-59 -74t-83.5 -46.5t-100 -22.5z" />
    <glyph glyph-name="uni021A" unicode="&#x21a;" horiz-adv-x="1207" 
d="M478 0v1233h-413v222h1077v-222h-417v-1233h-247zM437 -449l-54 134q62 22 87.5 50t25.5 76q0 29 -12 81h209q8 -35 8 -97q0 -56 -21.5 -101t-59 -74t-83.5 -46.5t-100 -22.5z" />
    <glyph glyph-name="uni021B" unicode="&#x21b;" horiz-adv-x="747" 
d="M447 -16q-132 0 -205.5 84t-73.5 248v488h-122v195h122v332l229 25v-357h294v-195h-294v-467q0 -75 23.5 -107t72.5 -32q67 0 148 43l60 -198q-54 -29 -109.5 -44t-144.5 -15zM281 -449l-54 134q42 15 66 31.5t35.5 39.5t11.5 55q0 29 -12 81h209q8 -35 8 -97
q0 -56 -21.5 -101t-59 -74t-83.5 -46.5t-100 -22.5z" />
    <glyph glyph-name="uni0232" unicode="&#x232;" horiz-adv-x="1279" 
d="M948 1862v-193h-610v193h610zM965 1455h286l-489 -812v-643h-248v643l-486 812h283l325 -564h6z" />
    <glyph glyph-name="uni0233" unicode="&#x233;" horiz-adv-x="1095" 
d="M854 1389v-193h-610v193h610zM815 999h240l-549 -1404h-241l180 461l-406 943h241l276 -674h2z" />
    <glyph glyph-name="uni0237" unicode="&#x237;" horiz-adv-x="510" 
d="M94 -421q-58 0 -99.5 7t-95.5 29l39 199q47 -29 91 -29q51 0 83 37.5t32 109.5v1067h229v-1067q0 -169 -78.5 -261t-200.5 -92z" />
    <glyph glyph-name="uni0259" unicode="&#x259;" horiz-adv-x="1150" 
d="M534 1015q106 0 200.5 -35t167.5 -99.5t115.5 -163.5t42.5 -219q0 -113 -37 -209t-102 -163t-155 -104.5t-193 -37.5q-145 0 -256 64.5t-170 178.5t-59 260q0 57 6 91h736q-23 111 -104.5 169.5t-203.5 58.5q-132 0 -269 -68l-87 183q185 94 368 94zM561 192
q102 0 171.5 52.5t94.5 149.5h-506q9 -64 43.5 -110t85 -69t111.5 -23z" />
    <glyph glyph-name="uni0272" unicode="&#x272;" horiz-adv-x="1215" 
d="M716 1014q172 0 269.5 -104.5t97.5 -321.5v-589h-229v530q0 78 -14 132t-43 85.5t-67.5 45.5t-92.5 14q-118 0 -188.5 -80t-70.5 -224v-570q0 -169 -78.5 -261t-200.5 -92q-58 0 -99.5 7t-95.5 29l39 189q47 -29 91 -29q49 0 82 40.5t33 106.5v1077h229v-137h3
q63 74 150 113t185 39z" />
    <glyph glyph-name="circumflex" unicode="&#x2c6;" horiz-adv-x="976" 
d="M602 1097l-112 154h-6l-111 -154h-224l231 301h206l241 -301h-225z" />
    <glyph glyph-name="caron" unicode="&#x2c7;" horiz-adv-x="976" 
d="M602 1398h225l-241 -301h-206l-231 301h224l111 -154h6z" />
    <glyph glyph-name="breve" unicode="&#x2d8;" horiz-adv-x="942" 
d="M471 1091q-83 0 -152.5 34t-115 103t-52.5 163h180q4 -61 41 -100t99 -39q59 0 97.5 38t41.5 101h180q-10 -133 -97 -216.5t-222 -83.5z" />
    <glyph glyph-name="dotaccent" unicode="&#x2d9;" horiz-adv-x="1025" 
d="M513 1111q-65 0 -110 44.5t-45 107.5t45 107.5t110 44.5q63 0 108.5 -45t45.5 -107q0 -63 -45.5 -107.5t-108.5 -44.5z" />
    <glyph glyph-name="ring" unicode="&#x2da;" horiz-adv-x="965" 
d="M482 1048q-91 0 -156 62t-65 153q0 90 63 152.5t158 62.5q93 0 157.5 -61.5t64.5 -153.5q0 -89 -63 -152t-159 -63zM482 1187q22 0 40.5 10.5t29 28.5t10.5 40q0 32 -23.5 55t-56.5 23t-56 -23.5t-23 -55.5q0 -33 23 -55.5t56 -22.5z" />
    <glyph glyph-name="ogonek" unicode="&#x2db;" horiz-adv-x="960" 
d="M558 -385q-102 0 -162 49.5t-60 131.5q0 60 48.5 125t132.5 107l173 -26q-51 -10 -91 -34.5t-60 -56t-20 -64.5q0 -39 22.5 -61.5t65.5 -22.5q24 0 39.5 2t23 4.5t21.5 8.5l13 -138q-57 -25 -146 -25z" />
    <glyph glyph-name="tilde" unicode="&#x2dc;" horiz-adv-x="1013" 
d="M669 1096q-34 0 -69.5 11t-56.5 22.5t-53 31.5q-25 15 -40 23t-36 15t-39 7q-76 0 -118 -106l-140 64q32 104 91.5 164.5t141.5 60.5q37 0 72 -10t52 -19t49 -28q3 -2 13 -8.5t13 -8.5t12 -7.5t13.5 -7.5t12.5 -6t13.5 -5.5t12.5 -3.5t14 -3t14 -1q36 0 66.5 27.5
t50.5 77.5l138 -46q-20 -75 -53 -129.5t-77.5 -84.5t-96.5 -30z" />
    <glyph glyph-name="hungarumlaut" unicode="&#x2dd;" horiz-adv-x="1060" 
d="M107 1101l235 296l234 1l-254 -297h-215zM497 1101l234 296l234 1l-254 -297h-214z" />
    <glyph glyph-name="gravecomb" unicode="&#x300;" horiz-adv-x="0" 
d="M0 1101l-254 297l253 -1l234 -296h-233z" />
    <glyph glyph-name="acutecomb" unicode="&#x301;" horiz-adv-x="0" 
d="M-203 1101l235 296l252 1l-254 -297h-233z" />
    <glyph glyph-name="uni0302" unicode="&#x302;" horiz-adv-x="0" 
d="M113 1097l-112 154h-6l-111 -154h-224l231 301h206l241 -301h-225z" />
    <glyph glyph-name="tildecomb" unicode="&#x303;" horiz-adv-x="0" 
d="M162 1096q-34 0 -69.5 11t-56.5 22.5t-53 31.5q-25 15 -40 23t-36 15t-39 7q-76 0 -118 -106l-140 64q32 104 91.5 164.5t141.5 60.5q37 0 72 -10t52 -19t49 -28q3 -2 13 -8.5t13 -8.5t12 -7.5t13.5 -7.5t12.5 -6t13.5 -5.5t12.5 -3.5t14 -3t14 -1q36 0 66.5 27.5
t50.5 77.5l138 -46q-30 -114 -89.5 -179t-137.5 -65z" />
    <glyph glyph-name="uni0304" unicode="&#x304;" horiz-adv-x="0" 
d="M-305 1159v193h610v-193h-610z" />
    <glyph glyph-name="uni0306" unicode="&#x306;" horiz-adv-x="0" 
d="M0 1091q-83 0 -152.5 34t-115 103t-52.5 163h180q4 -61 41 -100t99 -39q59 0 97.5 38t41.5 101h180q-10 -133 -97 -216.5t-222 -83.5z" />
    <glyph glyph-name="uni0307" unicode="&#x307;" horiz-adv-x="0" 
d="M1 1111q-65 0 -110 44.5t-45 107.5t45 107.5t110 44.5q41 0 76.5 -20.5t56.5 -55.5t21 -76q0 -63 -45.5 -107.5t-108.5 -44.5z" />
    <glyph glyph-name="uni0308" unicode="&#x308;" horiz-adv-x="0" 
d="M-204 1111q-65 0 -110 44.5t-45 107.5q0 41 20.5 76t56 55.5t78.5 20.5q63 0 108.5 -45t45.5 -107q0 -63 -45.5 -107.5t-108.5 -44.5zM203 1114q-63 0 -107.5 43.5t-44.5 105.5q0 40 20.5 74.5t55.5 55t76 20.5t76 -20.5t55.5 -55t20.5 -74.5q0 -61 -45 -105t-107 -44z
" />
    <glyph glyph-name="hookabovecomb" unicode="&#x309;" horiz-adv-x="0" 
d="M-64 1055q-20 18 -30 31.5t-10 30.5q0 15 12.5 29t32 24t41.5 21.5t41.5 22t32 25.5t12.5 31q0 41 -60 41q-85 0 -146 -64l-92 87q42 43 112 70.5t140 27.5q65 0 111.5 -21t69.5 -57t23 -82q0 -62 -47 -104t-135 -60l-18 -53h-90z" />
    <glyph glyph-name="uni030A" unicode="&#x30a;" horiz-adv-x="0" 
d="M-2 1048q-91 0 -156 62t-65 153q0 59 28 108t79 78t114 29q93 0 157.5 -61.5t64.5 -153.5q0 -89 -63 -152t-159 -63zM-2 1187q22 0 40 10.5t29 28.5t11 40q0 32 -23.5 55t-56.5 23t-56 -23.5t-23 -55.5q0 -33 23 -55.5t56 -22.5z" />
    <glyph glyph-name="uni030B" unicode="&#x30b;" horiz-adv-x="0" 
d="M-303 1101l235 296l234 1l-254 -297h-215zM87 1101l234 296l234 1l-254 -297h-214z" />
    <glyph glyph-name="uni030C" unicode="&#x30c;" horiz-adv-x="0" 
d="M112 1398h225l-241 -301h-206l-231 301h224l111 -154h6z" />
    <glyph glyph-name="uni0312" unicode="&#x312;" horiz-adv-x="0" 
d="M160 1448l54 -134q-62 -22 -87.5 -50t-25.5 -76q0 -29 12 -81h-209q-8 35 -8 97q0 45 14 83.5t38.5 65.5t58.5 47.5t72 32t81 15.5z" />
    <glyph glyph-name="uni031B" unicode="&#x31b;" horiz-adv-x="0" 
d="M-43 918l-5 144q118 9 149 92q16 53 16 170v131h234v-147q0 -187 -102 -292t-292 -98z" />
    <glyph glyph-name="dotbelowcomb" unicode="&#x323;" horiz-adv-x="0" 
d="M-1 -200q65 0 110 -44.5t45 -107.5t-45 -107.5t-110 -44.5q-41 0 -76.5 20.5t-56.5 55.5t-21 76q0 31 12.5 59t33 48.5t49 32.5t59.5 12z" />
    <glyph glyph-name="uni0326" unicode="&#x326;" horiz-adv-x="0" 
d="M-160 -449l-54 134q62 22 87.5 50t25.5 76q0 29 -12 81h209q8 -35 8 -97q0 -56 -21.5 -101t-59 -74t-83.5 -46.5t-100 -22.5z" />
    <glyph glyph-name="uni0327" unicode="&#x327;" horiz-adv-x="0" 
d="M-15 -65q62 -2 104.5 -22t63.5 -55.5t21 -86.5q0 -35 -14 -63.5t-43 -50.5t-76.5 -34t-110.5 -12q-59 0 -121 12v113q40 -14 103 -14q42 0 73 15t31 46q0 29 -45.5 49t-126.5 20v74l40 86h136l-37 -74z" />
    <glyph glyph-name="uni0328" unicode="&#x328;" horiz-adv-x="0" 
d="M-146 -385q-51 0 -92.5 13t-70 36.5t-44 57t-15.5 74.5q0 60 48.5 125t132.5 107l173 -26q-77 -15 -124 -59.5t-47 -95.5q0 -39 22.5 -61.5t65.5 -22.5q24 0 39.5 2t23 4.5t21.5 8.5l13 -138q-57 -25 -146 -25z" />
    <glyph glyph-name="uni0335" unicode="&#x335;" horiz-adv-x="0" 
d="M-284 463v157h577v-157h-577z" />
    <glyph glyph-name="uni0374" unicode="&#x374;" horiz-adv-x="532" 
d="M70 972l106 519h238l-146 -519h-198z" />
    <glyph glyph-name="uni0375" unicode="&#x375;" horiz-adv-x="555" 
d="M131 -310l106 519h238l-146 -519h-198z" />
    <glyph glyph-name="uni037E" unicode="&#x37e;" horiz-adv-x="507" 
d="M242 709q-65 0 -110.5 44.5t-45.5 107.5t45.5 108t110.5 45q63 0 108.5 -45t45.5 -108t-45.5 -107.5t-108.5 -44.5zM56 -270l65 518h245l-142 -518h-168z" />
    <glyph glyph-name="tonos" unicode="&#x384;" horiz-adv-x="956" 
d="M306 1101l117 346h265l-162 -346h-220z" />
    <glyph glyph-name="dieresistonos" unicode="&#x385;" horiz-adv-x="1085" 
d="M380 1121l27 346h213l-66 -346h-174zM185 1111q-64 0 -109.5 44.5t-45.5 107.5q0 62 45.5 107t109.5 45t109.5 -45t45.5 -107q0 -63 -45.5 -107.5t-109.5 -44.5zM788 1114q-63 0 -107.5 43.5t-44.5 105.5q0 60 45 105t107 45t107 -44.5t45 -105.5t-45 -105t-107 -44z" />
    <glyph glyph-name="Alphatonos" unicode="&#x386;" horiz-adv-x="1427" 
d="M1122 0l-110 313h-594l-109 -313h-258l543 1455h241l546 -1455h-259zM371 1447l-192 -346h-216l147 346h261zM493 527h444l-221 630h-2z" />
    <glyph glyph-name="anoteleia" unicode="&#x387;" horiz-adv-x="552" 
d="M277 709q-65 0 -110.5 44.5t-45.5 107.5t45.5 108t110.5 45q63 0 108.5 -45t45.5 -108t-45.5 -107.5t-108.5 -44.5z" />
    <glyph glyph-name="Epsilontonos" unicode="&#x388;" horiz-adv-x="1244" 
d="M178 0v1455h915v-222h-668v-401h540v-222h-540v-388h711v-222h-958zM-352 1108l147 346h261l-192 -346h-216z" />
    <glyph glyph-name="Etatonos" unicode="&#x389;" horiz-adv-x="1508" 
d="M178 0v1455h247v-650h658v650h247v-1455h-247v583h-658v-583h-247zM-354 1108l147 346h261l-192 -346h-216z" />
    <glyph glyph-name="Iotatonos" unicode="&#x38a;" horiz-adv-x="622" 
d="M187 0v1455h248v-1455h-248zM-362 1108l147 346h261l-192 -346h-216z" />
    <glyph glyph-name="Omicrontonos" unicode="&#x38c;" horiz-adv-x="1693" 
d="M848 -16q-161 0 -299 56.5t-233.5 155t-149.5 236t-54 296.5q0 158 54 295.5t149.5 236t233.5 155t299 56.5q156 0 291.5 -54t233 -150.5t153 -235.5t55.5 -303t-55.5 -303.5t-153 -235.5t-233 -150.5t-291.5 -54.5zM-224 1108l147 346h261l-192 -346h-216zM848 215
q100 0 188 38.5t151 106t100 163t37 205.5t-37 205.5t-100 162.5t-151 105.5t-188 38.5q-104 0 -194 -40t-152 -109t-97.5 -163t-35.5 -200t35.5 -200.5t97.5 -163.5t152 -109t194 -40z" />
    <glyph glyph-name="Upsilontonos" unicode="&#x38e;" horiz-adv-x="1279" 
d="M965 1455h286l-489 -812v-643h-248v643l-486 812h283l325 -564h6zM-466 1108l147 346h261l-192 -346h-216z" />
    <glyph glyph-name="Omegatonos" unicode="&#x38f;" horiz-adv-x="1582" 
d="M1207 226v-4h247v-222h-561v222q323 236 323 566q0 201 -117.5 326t-307.5 125q-190 -1 -307.5 -125.5t-117.5 -325.5q0 -331 323 -566v-222h-561v222h247v4q-126 106 -196 252t-70 315q0 143 49.5 268t138 215t216.5 142t278 52t278 -52t216 -142t137.5 -215t49.5 -268
q0 -113 -32 -217.5t-91 -192t-142 -157.5zM-100 1454h261l-192 -346h-216z" />
    <glyph glyph-name="iotadieresistonos" unicode="&#x390;" horiz-adv-x="604" 
d="M184 1158l27 346h213l-66 -346h-174zM-11 1148q-42 0 -78 20.5t-56.5 55.5t-20.5 76q0 62 45.5 107t109.5 45t109.5 -45t45.5 -107q0 -63 -45.5 -107.5t-109.5 -44.5zM592 1151q-63 0 -107.5 43.5t-44.5 105.5q0 60 45 105t107 45t107 -44.5t45 -105.5t-45 -105t-107 -44
zM390 -16q-237 0 -237 253v762h229v-698q0 -45 5.5 -66.5t19 -30t41.5 -8.5q45 0 94 15l23 -191q-51 -19 -88.5 -27.5t-86.5 -8.5z" />
    <glyph glyph-name="Alpha" unicode="&#x391;" horiz-adv-x="1427" 
d="M1122 0l-110 313h-594l-109 -313h-258l543 1455h241l546 -1455h-259zM493 527h444l-221 630h-2z" />
    <glyph glyph-name="Beta" unicode="&#x392;" horiz-adv-x="1327" 
d="M944 768q131 -33 208.5 -128t77.5 -241q0 -88 -29.5 -160.5t-87.5 -126t-150 -83t-210 -29.5h-575v1455h506q228 0 350.5 -89.5t122.5 -265.5q0 -107 -53.5 -196.5t-159.5 -131.5v-4zM425 1233v-381h236q48 0 90.5 11t77.5 33.5t55.5 60.5t20.5 88q0 89 -65.5 139
t-203.5 49h-211zM680 222q134 1 213 52.5t79 151.5q0 99 -74 155.5t-213 56.5h-260v-416h255z" />
    <glyph glyph-name="Gamma" unicode="&#x393;" horiz-adv-x="1188" 
d="M178 0v1455h941v-222h-694v-1233h-247z" />
    <glyph glyph-name="uni0394" unicode="&#x394;" horiz-adv-x="1398" 
d="M822 1455l498 -1264v-191h-1242v190l496 1265h248zM356 222h682l-338 926h-2z" />
    <glyph glyph-name="Epsilon" unicode="&#x395;" horiz-adv-x="1244" 
d="M178 0v1455h915v-222h-668v-401h540v-222h-540v-388h711v-222h-958z" />
    <glyph glyph-name="Zeta" unicode="&#x396;" horiz-adv-x="1283" 
d="M431 222h730v-222h-1044v194l716 1035v4h-684v222h1009v-191l-727 -1039v-3z" />
    <glyph glyph-name="Eta" unicode="&#x397;" horiz-adv-x="1508" 
d="M178 0v1455h247v-650h658v650h247v-1455h-247v583h-658v-583h-247z" />
    <glyph glyph-name="Theta" unicode="&#x398;" horiz-adv-x="1717" 
d="M848 -16q-161 0 -299 56.5t-233.5 155t-149.5 236t-54 296.5q0 158 54 295.5t149.5 236t233.5 155t299 56.5q156 0 291.5 -54t233 -150.5t153 -235.5t55.5 -303t-55.5 -303.5t-153 -235.5t-233 -150.5t-291.5 -54.5zM848 215q100 0 188 38.5t151 106t100 163t37 205.5
t-37 205.5t-100 162.5t-151 105.5t-188 38.5q-104 0 -194 -40t-152 -109t-97.5 -163t-35.5 -200t35.5 -200.5t97.5 -163.5t152 -109t194 -40zM559 606v222h604v-222h-604z" />
    <glyph glyph-name="Iota" unicode="&#x399;" horiz-adv-x="622" 
d="M187 0v1455h248v-1455h-248z" />
    <glyph glyph-name="Kappa" unicode="&#x39a;" horiz-adv-x="1360" 
d="M593 607h-4l-164 -195v-412h-247v1455h247v-697h4l559 697h314l-546 -649l563 -806h-307z" />
    <glyph glyph-name="Lambda" unicode="&#x39b;" horiz-adv-x="1400" 
d="M1078 0l-378 1106h-2l-378 -1106h-267l522 1455h247l524 -1455h-268z" />
    <glyph glyph-name="Mu" unicode="&#x39c;" horiz-adv-x="1814" 
d="M1388 1455h248v-1455h-247v975h-3l-398 -695h-162l-398 695h-3v-975h-247v1455h248l480 -871h4z" />
    <glyph glyph-name="Nu" unicode="&#x39d;" horiz-adv-x="1563" 
d="M1138 1455h247v-1455h-252l-704 1029h-4v-1029h-247v1455h245l710 -1044h5v1044z" />
    <glyph glyph-name="Xi" unicode="&#x39e;" horiz-adv-x="1314" 
d="M141 1224v231h1032v-231h-1032zM248 607v222h814v-222h-814zM127 0v230h1061v-230h-1061z" />
    <glyph glyph-name="Omicron" unicode="&#x39f;" horiz-adv-x="1693" 
d="M848 -16q-161 0 -299 56.5t-233.5 155t-149.5 236t-54 296.5q0 158 54 295.5t149.5 236t233.5 155t299 56.5q156 0 291.5 -54t233 -150.5t153 -235.5t55.5 -303t-55.5 -303.5t-153 -235.5t-233 -150.5t-291.5 -54.5zM848 215q100 0 188 38.5t151 106t100 163t37 205.5
t-37 205.5t-100 162.5t-151 105.5t-188 38.5q-104 0 -194 -40t-152 -109t-97.5 -163t-35.5 -200t35.5 -200.5t97.5 -163.5t152 -109t194 -40z" />
    <glyph glyph-name="Pi" unicode="&#x3a0;" horiz-adv-x="1452" 
d="M178 0v1455h1096v-1455h-247v1233h-602v-1233h-247z" />
    <glyph glyph-name="Rho" unicode="&#x3a1;" horiz-adv-x="1289" 
d="M178 0v1455h527q85 0 157 -16t126.5 -46t95.5 -72t66.5 -95t38.5 -113.5t13 -129.5q0 -93 -24.5 -169t-70 -130.5t-110.5 -91.5t-145.5 -55t-175.5 -18h-251v-519h-247zM425 742h227q147 0 220.5 66.5t73.5 179.5q0 116 -72 180.5t-205 64.5h-244v-491z" />
    <glyph glyph-name="Sigma" unicode="&#x3a3;" horiz-adv-x="1206" 
d="M1121 1233h-680v-3l359 -500l-359 -504v-4h680v-222h-1013v174l393 556l-393 544v181h1013v-222z" />
    <glyph glyph-name="Tau" unicode="&#x3a4;" horiz-adv-x="1207" 
d="M478 0v1233h-413v222h1077v-222h-417v-1233h-247z" />
    <glyph glyph-name="Upsilon" unicode="&#x3a5;" horiz-adv-x="1279" 
d="M965 1455h286l-489 -812v-643h-248v643l-486 812h283l325 -564h6z" />
    <glyph glyph-name="Phi" unicode="&#x3a6;" horiz-adv-x="1667" 
d="M1578 732q0 -251 -163 -410.5t-454 -189.5v-132h-248v132q-294 28 -459 188t-165 412q0 168 73.5 301.5t215 218t335.5 105.5v122h248v-123q192 -21 332 -105.5t212.5 -217.5t72.5 -301zM346 732q0 -103 44 -182.5t127.5 -129t200.5 -65.5v777q-176 -27 -274 -133.5
t-98 -266.5zM956 355q174 26 269.5 124.5t95.5 252.5q0 159 -96.5 265.5t-268.5 134.5v-777z" />
    <glyph glyph-name="Chi" unicode="&#x3a7;" horiz-adv-x="1422" 
d="M1067 0l-354 536h-4l-355 -536h-289l484 729l-473 726h285l349 -532h4l348 532h283l-471 -726l483 -729h-290z" />
    <glyph glyph-name="Psi" unicode="&#x3a8;" horiz-adv-x="1632" 
d="M1258 1455h247l-1 -525q-1 -288 -142.5 -443t-423.5 -157v-330h-248v330q-276 3 -420 157t-143 443l1 525h248l-1 -498q-1 -205 73.5 -302.5t241.5 -103.5v904h248v-904q163 5 240.5 102t78.5 304z" />
    <glyph glyph-name="uni03A9" unicode="&#x3a9;" horiz-adv-x="1582" 
d="M1207 226v-4h247v-222h-561v222q323 236 323 566q0 201 -117.5 326t-307.5 125q-190 -1 -307.5 -125.5t-117.5 -325.5q0 -331 323 -566v-222h-561v222h247v4q-126 106 -196 252t-70 315q0 143 49.5 268t138 215t216.5 142t278 52t278 -52t216 -142t137.5 -215t49.5 -268
q0 -113 -32 -217.5t-91 -192t-142 -157.5z" />
    <glyph glyph-name="Iotadieresis" unicode="&#x3aa;" horiz-adv-x="622" 
d="M94 1621q-65 0 -110 44.5t-45 107.5t45 107.5t110 44.5q63 0 109 -45t46 -107q0 -63 -46 -107.5t-109 -44.5zM531 1624q-63 0 -107.5 43.5t-44.5 105.5q0 60 45 105t107 45t107 -44.5t45 -105.5q0 -24 -8 -47t-22 -41t-32.5 -32t-42 -21.5t-47.5 -7.5zM187 0v1455h248
v-1455h-248z" />
    <glyph glyph-name="Upsilondieresis" unicode="&#x3ab;" horiz-adv-x="1279" 
d="M414 1621q-65 0 -110 44.5t-45 107.5t45 107.5t110 44.5q63 0 109 -45t46 -107q0 -63 -46 -107.5t-109 -44.5zM851 1624q-63 0 -107.5 43.5t-44.5 105.5q0 60 45 105t107 45t107 -44.5t45 -105.5q0 -40 -20.5 -74.5t-55.5 -54.5t-76 -20zM965 1455h286l-489 -812v-643
h-248v643l-486 812h283l325 -564h6z" />
    <glyph glyph-name="alphatonos" unicode="&#x3ac;" horiz-adv-x="1215" 
d="M885 1484l-162 -346h-220l117 346h265zM1167 204l23 -186q-83 -34 -165 -34q-74 0 -121 37.5t-60 107.5h-4q-106 -144 -302 -144q-138 0 -241 64.5t-157.5 180t-54.5 265.5q0 149 59 267.5t165.5 185t241.5 66.5q204 0 312 -166h3l5 151h216l-50 -494v-191
q0 -66 13.5 -93t54.5 -27q26 0 62 10zM565 192q116 0 191.5 82.5t90.5 219.5q-1 147 -72 229.5t-192 82.5q-114 0 -189 -85.5t-75 -226.5q0 -135 66.5 -218.5t179.5 -83.5z" />
    <glyph glyph-name="epsilontonos" unicode="&#x3ad;" horiz-adv-x="1040" 
d="M793 1484l-162 -346h-220l117 346h265zM877 274l107 -165q-77 -51 -159 -79.5t-154.5 -37t-170.5 -8.5q-185 0 -292.5 75.5t-107.5 214.5q0 84 42.5 148t125.5 99q-34 18 -60 42t-43.5 51t-26.5 56.5t-9 59.5q0 85 43 147.5t130.5 98.5t211.5 39q38 1 78.5 -1.5t89 -9.5
t95 -19t96.5 -31.5t93 -44.5l-96 -169q-78 33 -164 50.5t-158 16.5q-185 -3 -185 -97q0 -40 43.5 -70.5t130.5 -31.5l171 -1v-195h-186q-48 0 -85.5 -11.5t-57 -29.5t-29.5 -36t-10 -36q0 -107 220 -107q90 0 166 18t151 64z" />
    <glyph glyph-name="etatonos" unicode="&#x3ae;" horiz-adv-x="1208" 
d="M875 1484l-162 -346h-220l117 346h265zM711 1014q172 0 268 -105t96 -321v-993h-229v934q0 145 -55 211t-162 66q-111 0 -180 -82t-69 -226v-498h-229v999h229v-137h3q64 74 149.5 113t178.5 39z" />
    <glyph glyph-name="iotatonos" unicode="&#x3af;" horiz-adv-x="579" 
d="M160 1138l117 346h265l-162 -346h-220zM390 -16q-237 0 -237 253v762h229v-698q0 -45 5.5 -66.5t19 -30t41.5 -8.5q45 0 94 15l23 -191q-25 -9 -42 -14.5t-39 -11t-45 -8t-49 -2.5z" />
    <glyph glyph-name="upsilondieresistonos" unicode="&#x3b0;" horiz-adv-x="1154" 
d="M480 1158l27 346h213l-66 -346h-174zM285 1148q-64 0 -109.5 44.5t-45.5 107.5q0 62 45.5 107t109.5 45t109.5 -45t45.5 -107q0 -31 -12.5 -59t-33 -48.5t-49.5 -32.5t-60 -12zM888 1151q-41 0 -76 20t-55.5 54.5t-20.5 74.5q0 60 45 105t107 45t107 -44.5t45 -105.5
q0 -30 -12 -57.5t-32.5 -47.5t-48.5 -32t-59 -12zM576 -16q-101 0 -183 31.5t-142 92.5t-93 156.5t-33 218.5v516h229v-494q0 -156 61.5 -234.5t160.5 -78.5q105 0 164.5 77.5t59.5 235.5v494h229v-516q0 -245 -120 -372t-333 -127z" />
    <glyph glyph-name="alpha" unicode="&#x3b1;" horiz-adv-x="1215" 
d="M1167 204l23 -186q-84 -34 -165 -34q-74 0 -121 37.5t-60 107.5h-4q-106 -144 -302 -144q-138 0 -241 64.5t-157.5 180t-54.5 265.5q0 149 59 267.5t165.5 185t241.5 66.5q204 0 312 -166h3l5 151h216l-50 -494v-191q0 -66 13.5 -93t54.5 -27q26 0 62 10zM565 192
q77 0 137.5 38t97.5 106t47 158q-1 147 -72 229.5t-192 82.5q-114 0 -189 -85.5t-75 -226.5q0 -135 66.5 -218.5t179.5 -83.5z" />
    <glyph glyph-name="beta" unicode="&#x3b2;" horiz-adv-x="1224" 
d="M899 819q56 -26 101 -66t76 -88t47.5 -103.5t16.5 -113.5q0 -214 -128 -339t-340 -125q-180 0 -290 109h-2v-498h-229v1410q0 129 34.5 229t97.5 163t147.5 95t187.5 32q104 0 189 -29t141.5 -80.5t87 -121.5t30.5 -151q0 -225 -167 -320v-3zM648 190q118 0 189 67
t71 181q0 49 -19.5 93.5t-55.5 80t-93 57t-127 21.5h-84v195h73q44 0 79.5 9t60 22.5t42.5 33.5t28.5 40t17 44.5t8.5 44t2 40.5q0 84 -55 141t-159 57q-50 0 -93.5 -17t-78 -51t-54.5 -92.5t-20 -135.5v-560q0 -53 20 -102t55 -86.5t85.5 -60t107.5 -22.5z" />
    <glyph glyph-name="gamma" unicode="&#x3b3;" horiz-adv-x="1092" 
d="M1052 999l-391 -1001q9 -35 14.5 -72.5t8 -88.5t3.5 -74.5t1 -90.5v-77h-226q0 16 -0.5 64.5t-1 72.5t-3.5 71t-9 80.5t-17 78t-27 86.5l-364 951h248l258 -730h5l254 730h247z" />
    <glyph glyph-name="delta" unicode="&#x3b4;" horiz-adv-x="1178" 
d="M796 955q45 -23 85.5 -53t81 -74t69.5 -94t47.5 -116.5t18.5 -138.5q0 -112 -38 -205.5t-105 -156.5t-158 -98t-196 -35q-150 0 -268 64.5t-183 179.5t-65 261q0 157 77.5 274.5t213.5 186.5q-152 111 -152 274q0 125 106 211t269 89q70 1 141 -6.5t158.5 -33
t157.5 -66.5l-96 -180q-146 77 -333 77q-36 0 -66 -5.5t-55 -17t-39.5 -32.5t-14.5 -50t16 -52t50.5 -46.5t105.5 -61.5q10 -6 70 -39.5t102 -55.5zM601 192q54 0 102 19t84.5 54.5t57.5 90.5t21 123q0 63 -20 116t-57.5 94t-82 72t-101.5 58q-30 14 -52 27
q-110 -53 -172.5 -146t-62.5 -211q0 -130 78 -213.5t205 -83.5z" />
    <glyph glyph-name="epsilon" unicode="&#x3b5;" horiz-adv-x="1040" 
d="M877 274l107 -165q-77 -51 -159 -79.5t-154.5 -37t-170.5 -8.5q-185 0 -292.5 75.5t-107.5 214.5q0 84 42.5 148t125.5 99q-34 18 -60 42t-43.5 51t-26.5 56.5t-9 59.5q0 85 43 147.5t130.5 98.5t211.5 39q38 1 78.5 -1.5t89 -9.5t95 -19t96.5 -31.5t93 -44.5l-96 -169
q-78 33 -164 50.5t-158 16.5q-185 -3 -185 -97q0 -40 43.5 -70.5t130.5 -31.5l171 -1v-195h-186q-48 0 -85.5 -11.5t-57 -29.5t-29.5 -36t-10 -36q0 -107 220 -107q90 0 166 18t151 64z" />
    <glyph glyph-name="zeta" unicode="&#x3b6;" horiz-adv-x="958" 
d="M959 1336q-88 -67 -167.5 -136.5t-152 -143t-130.5 -148t-101 -147t-66.5 -144.5t-24.5 -137q0 -31 5.5 -57t17.5 -47.5t26.5 -39.5t38 -33t45 -27t53.5 -24t58 -21t64 -20q99 -30 163 -61.5t101 -69.5t51 -80t14 -99q0 -91 -50.5 -184t-123.5 -168l-192 104q4 4 22 23.5
t23.5 26t21 25t21.5 28t16.5 26t14.5 29t8 28t4 30.5q0 26 -8 43.5t-32.5 38t-74.5 40t-130 41.5q-47 13 -85 26.5t-79.5 34t-73.5 44.5t-61 58t-48.5 74.5t-30.5 94t-11 116.5q3 364 547 829v4h-469v195h796v-172z" />
    <glyph glyph-name="eta" unicode="&#x3b7;" horiz-adv-x="1208" 
d="M711 1014q172 0 268 -105t96 -321v-993h-229v934q0 145 -55 211t-162 66q-111 0 -180 -82t-69 -226v-498h-229v999h229v-137h3q43 49 96 83t111.5 51.5t120.5 17.5z" />
    <glyph glyph-name="theta" unicode="&#x3b8;" horiz-adv-x="1212" 
d="M606 1524q91 0 169 -28.5t143 -89t111 -150t71.5 -217t25.5 -284.5q0 -133 -18 -246.5t-57.5 -211.5t-99 -166.5t-147.5 -107.5t-198 -39q-76 0 -142.5 19.5t-125 59.5t-104.5 103t-79.5 147.5t-51 196.5t-17.5 245q0 130 18 242.5t57.5 210.5t99 167.5t147.5 109
t198 39.5zM606 1316q-125 0 -197 -120.5t-87 -334.5h569q-14 218 -87.5 336.5t-197.5 118.5zM606 192q86 0 147.5 57t96 162t42.5 255h-571q12 -230 85 -352t200 -122z" />
    <glyph glyph-name="iota" unicode="&#x3b9;" horiz-adv-x="579" 
d="M390 -16q-237 0 -237 253v762h229v-698q0 -45 5.5 -66.5t19 -30t41.5 -8.5q45 0 94 15l23 -191q-51 -19 -88.5 -27.5t-86.5 -8.5z" />
    <glyph glyph-name="kappa" unicode="&#x3ba;" horiz-adv-x="1179" 
d="M543 416h-2l-163 -166v-250h-229v999h229v-458h3l447 458h287l-410 -416l449 -583h-285z" />
    <glyph glyph-name="lambda" unicode="&#x3bb;" horiz-adv-x="1133" 
d="M849 0l-257 730h-4l-290 -730h-249l431 1026l-49 136q-29 86 -67.5 122t-90.5 36q-51 0 -114 -19l-31 190q108 33 205 33q114 0 189 -79.5t138 -253.5l431 -1191h-242z" />
    <glyph glyph-name="uni03BC" unicode="&#x3bc;" horiz-adv-x="1187" 
d="M822 999h229v-999h-210l-13 132h-2q-57 -71 -132 -109.5t-159 -38.5q-115 0 -178 66l-3 -1q13 -92 13 -220v-234h-229v1404h229v-519q0 -288 217 -288q104 0 171 82.5t67 225.5v499z" />
    <glyph glyph-name="nu" unicode="&#x3bd;" horiz-adv-x="1093" 
d="M806 999h247l-396 -999h-219l-398 999h245l261 -712h4z" />
    <glyph glyph-name="xi" unicode="&#x3be;" horiz-adv-x="1015" 
d="M654 203q180 -69 251 -136.5t71 -171.5q0 -55 -28.5 -124t-67 -125t-78.5 -97l-192 104q133 140 133 216q0 46 -44 79t-159 74q-52 18 -94.5 35.5t-90 42t-84.5 50t-71.5 59.5t-57.5 71t-36.5 84.5t-13.5 99.5q0 105 67 199.5t184 150.5v5q-181 105 -181 317
q0 57 13.5 107t37 89t55.5 71t69.5 54t79 37.5t83 22.5t82.5 7q243 0 422 -106l-96 -180q-146 77 -296 77q-53 0 -95.5 -15.5t-68.5 -42t-40 -60.5t-14 -73q0 -59 24 -101.5t71.5 -70t116.5 -40.5t161 -13h120v-195h-226q-79 0 -144 -19.5t-106 -51t-63 -71.5t-22 -82
q0 -33 9.5 -61t30.5 -52.5t47 -45t65.5 -41.5t79.5 -38t96 -39z" />
    <glyph glyph-name="omicron" unicode="&#x3bf;" horiz-adv-x="1196" 
d="M598 -16q-148 0 -265 64.5t-182.5 182t-65.5 267.5q0 151 65.5 269t182 182.5t265.5 64.5t265.5 -64.5t182 -182.5t65.5 -269q0 -150 -65.5 -267.5t-182.5 -182t-265 -64.5zM598 192q119 0 199.5 86.5t80.5 219.5q0 136 -80 222t-200 86t-200 -86t-80 -222
q0 -133 80.5 -219.5t199.5 -86.5z" />
    <glyph glyph-name="pi" unicode="&#x3c0;" horiz-adv-x="1252" 
d="M1206 999v-195h-166v-804h-229v804h-372v-804h-229v804h-155v195h1151z" />
    <glyph glyph-name="rho" unicode="&#x3c1;" horiz-adv-x="1233" 
d="M628 1014q109 0 205.5 -39t166 -107t109.5 -165t40 -208q0 -112 -36.5 -208t-99.5 -162t-150 -103.5t-185 -37.5q-191 0 -311 115h-5v-504h-229v900q0 111 35 207t98.5 165t157 108t204.5 39zM629 192q125 0 206 86t81 216q0 138 -83 225t-205 87q-78 0 -141 -41
t-99 -112.5t-36 -158.5q0 -88 38 -158t100.5 -107t138.5 -37z" />
    <glyph glyph-name="uni03C2" unicode="&#x3c2;" horiz-adv-x="1040" 
d="M772 -452l-193 105q8 8 26.5 28t27 29.5t23.5 27t22 30t15.5 30t12 35t3.5 36.5q0 47 -39 79t-148 70q-55 19 -99.5 38t-92 45.5t-83.5 55t-70 67.5t-55.5 83t-34 101t-12.5 123q0 142 65 252t184 170.5t275 60.5q117 0 227 -48t184 -138l-155 -135q-30 34 -68 59
t-85 39.5t-97 14.5q-136 0 -216.5 -77t-80.5 -199q0 -62 22 -111.5t68 -88.5t107 -69t148 -59q84 -28 140 -59t89 -69t47 -80.5t14 -98.5q0 -23 -3.5 -46t-7 -41.5t-13 -40.5t-15.5 -36.5t-20 -36t-20 -31.5t-23 -32t-22.5 -28.5t-24.5 -28.5t-22 -26z" />
    <glyph glyph-name="sigma" unicode="&#x3c3;" horiz-adv-x="1230" 
d="M1193 804h-241v-4q153 -146 153 -343q0 -81 -23 -154t-67.5 -131t-106 -100t-141.5 -65t-170 -23q-147 0 -262 61.5t-180 177t-65 266.5q0 148 65.5 264.5t183 181t267.5 64.5h587v-195zM599 192q125 0 197.5 83t72.5 214q0 96 -42 177t-114 138h-107q-123 0 -203 -90
t-80 -225t79.5 -216t196.5 -81z" />
    <glyph glyph-name="tau" unicode="&#x3c4;" horiz-adv-x="957" 
d="M587 -16q-269 0 -269 320v500h-277v195h863v-195h-357v-452q0 -42 4.5 -69.5t16.5 -48t34.5 -30t57.5 -9.5q62 0 152 46l59 -198q-129 -59 -284 -59z" />
    <glyph glyph-name="upsilon" unicode="&#x3c5;" horiz-adv-x="1154" 
d="M576 -16q-101 0 -183 31.5t-142 92.5t-93 156.5t-33 218.5v516h229v-494q0 -156 61.5 -234.5t160.5 -78.5q105 0 164.5 77.5t59.5 235.5v494h229v-516q0 -245 -120 -372t-333 -127z" />
    <glyph glyph-name="phi" unicode="&#x3c6;" horiz-adv-x="1462" 
d="M1375 544q0 -90 -23.5 -171.5t-70 -149.5t-111.5 -118.5t-152 -79.5t-187 -32v-398h-229v398q-147 4 -262 66.5t-180 177t-65 261.5q0 90 15 166.5t44 141.5t62.5 115.5t80.5 106.5l231 -63q-94 -95 -147 -214t-53 -232q0 -129 74 -216t200 -101v401q0 103 25.5 182.5
t71.5 129t106.5 75t132.5 25.5q129 0 229.5 -63t154 -170t53.5 -238zM831 200q100 8 171.5 55.5t105.5 120t34 162.5q0 64 -21.5 125t-65.5 103.5t-100 42.5q-28 0 -49.5 -9t-34.5 -26.5t-21.5 -37t-12.5 -48t-5 -51t-1 -53.5v-384z" />
    <glyph glyph-name="chi" unicode="&#x3c7;" horiz-adv-x="1075" 
d="M1049 -208l25 -179q-39 -19 -70 -26.5t-79 -7.5t-86.5 15t-69.5 46t-55 69t-49 93l-130 283h-2l-253 -490h-249l396 719l-200 388q-20 38 -36.5 59.5t-37.5 34t-48 12.5q-20 0 -52 -8l-28 181q69 34 157 34q47 0 85 -16t68 -47.5t53 -69t46 -90.5l111 -252h3l241 459h245
l-379 -683l217 -424q29 -57 55.5 -83t59.5 -26q23 0 62 9z" />
    <glyph glyph-name="psi" unicode="&#x3c8;" horiz-adv-x="1470" 
d="M1121 999h229v-521q0 -121 -36.5 -215t-103.5 -154t-158 -91.5t-202 -33.5v-389h-229v389q-112 2 -203 33.5t-158 91.5t-103.5 154t-36.5 215v521h229v-498q0 -75 21 -133t59 -94t86 -54.5t106 -20.5v1117h229v-1117q57 2 105.5 20.5t86 54.5t58.5 94t21 133v498z" />
    <glyph glyph-name="omega" unicode="&#x3c9;" horiz-adv-x="1568" 
d="M1277 1030q45 -50 78 -100t61.5 -116.5t43.5 -151.5t15 -186q0 -91 -20.5 -170t-57 -137.5t-85 -100.5t-106 -63t-119.5 -21q-216 0 -302 188h-3q-87 -188 -302 -188q-78 0 -148 34t-123.5 95.5t-85 155.5t-31.5 207q0 101 15 186t43.5 151.5t61.5 116.5t78 100l207 -47
q-70 -91 -121 -225t-51 -261q0 -145 50 -224.5t134 -79.5q47 0 83.5 36t57 106t20.5 165v248h227v-248q0 -143 44.5 -225t116.5 -82q84 0 134 79.5t50 224.5q0 127 -51 261t-121 225z" />
    <glyph glyph-name="iotadieresis" unicode="&#x3ca;" horiz-adv-x="579" 
d="M57 1148q-65 0 -110 44.5t-45 107.5t45 107.5t110 44.5q63 0 109 -45t46 -107q0 -63 -46 -107.5t-109 -44.5zM494 1151q-41 0 -76 20t-55.5 54.5t-20.5 74.5q0 60 45 105t107 45q41 0 76 -20.5t55.5 -55t20.5 -74.5q0 -61 -45 -105t-107 -44zM390 -16q-237 0 -237 253
v762h229v-698q0 -45 5.5 -66.5t19 -30t41.5 -8.5q45 0 94 15l23 -191q-51 -19 -88.5 -27.5t-86.5 -8.5z" />
    <glyph glyph-name="upsilondieresis" unicode="&#x3cb;" horiz-adv-x="1154" 
d="M360 1148q-43 0 -78.5 20.5t-56 55.5t-20.5 76q0 63 45 107.5t110 44.5q63 0 109 -45t46 -107q0 -63 -46 -107.5t-109 -44.5zM797 1151q-63 0 -107.5 43.5t-44.5 105.5q0 60 45 105t107 45q41 0 76 -20.5t55.5 -55t20.5 -74.5q0 -61 -45 -105t-107 -44zM576 -16
q-101 0 -183 31.5t-142 92.5t-93 156.5t-33 218.5v516h229v-494q0 -156 61.5 -234.5t160.5 -78.5q105 0 164.5 77.5t59.5 235.5v494h229v-516q0 -245 -120 -372t-333 -127z" />
    <glyph glyph-name="omicrontonos" unicode="&#x3cc;" horiz-adv-x="1196" 
d="M483 1138l117 346h265l-162 -346h-220zM598 -16q-148 0 -265 64.5t-182.5 182t-65.5 267.5q0 151 65.5 269t182 182.5t265.5 64.5t265.5 -64.5t182 -182.5t65.5 -269q0 -150 -65.5 -267.5t-182.5 -182t-265 -64.5zM598 192q119 0 199.5 86.5t80.5 219.5q0 136 -80 222
t-200 86t-200 -86t-80 -222q0 -133 80.5 -219.5t199.5 -86.5z" />
    <glyph glyph-name="upsilontonos" unicode="&#x3cd;" horiz-adv-x="1154" 
d="M463 1138l117 346h265l-162 -346h-220zM576 -16q-101 0 -183 31.5t-142 92.5t-93 156.5t-33 218.5v516h229v-494q0 -156 61.5 -234.5t160.5 -78.5q105 0 164.5 77.5t59.5 235.5v494h229v-516q0 -245 -120 -372t-333 -127z" />
    <glyph glyph-name="omegatonos" unicode="&#x3ce;" horiz-adv-x="1568" 
d="M1054 1484l-162 -346h-220l117 346h265zM1277 1030q45 -50 78 -100t61.5 -116.5t43.5 -151.5t15 -186q0 -91 -20.5 -170t-57 -137.5t-85 -100.5t-106 -63t-119.5 -21q-216 0 -302 188h-3q-87 -188 -302 -188q-78 0 -148 34t-123.5 95.5t-85 155.5t-31.5 207q0 101 15 186
t43.5 151.5t61.5 116.5t78 100l207 -47q-70 -91 -121 -225t-51 -261q0 -145 50 -224.5t134 -79.5q47 0 83.5 36t57 106t20.5 165v248h227v-248q0 -143 44.5 -225t116.5 -82q84 0 134 79.5t50 224.5q0 127 -51 261t-121 225z" />
    <glyph glyph-name="uni03D7" unicode="&#x3d7;" horiz-adv-x="1224" 
d="M703 579q39 -97 78.5 -162.5t95 -117.5t128 -85t173.5 -55v-134q-95 -103 -165 -171.5t-147 -129.5t-147 -95t-149.5 -53t-168.5 -19q-222 0 -391 102l45 204q70 -54 155 -82t159 -28q124 0 249 59.5t265 179.5v5q-251 123 -343 408h-3l-159 -173v-232h-229v999h229v-466
h3l427 466h277l-382 -414v-6z" />
    <glyph glyph-name="Wgrave" unicode="&#x1e80;" horiz-adv-x="2119" 
d="M1172 1611h-233l-254 297l253 -1zM1791 1455h263l-461 -1455h-231l-298 1094h-3l-304 -1094h-231l-461 1455h264l312 -1050h2l286 1050h263l284 -1053h2z" />
    <glyph glyph-name="wgrave" unicode="&#x1e81;" horiz-adv-x="1579" 
d="M903 1138h-233l-254 297l253 -1zM1299 999h232l-343 -999h-212l-187 629h-4l-187 -629h-207l-343 999h232l216 -657h4l193 657h191l196 -658h3z" />
    <glyph glyph-name="Wacute" unicode="&#x1e82;" horiz-adv-x="2119" 
d="M1444 1908l-254 -297h-233l235 296zM1791 1455h263l-461 -1455h-231l-298 1094h-3l-304 -1094h-231l-461 1455h264l312 -1050h2l286 1050h263l284 -1053h2z" />
    <glyph glyph-name="wacute" unicode="&#x1e83;" horiz-adv-x="1579" 
d="M1165 1435l-254 -297h-233l235 296zM1299 999h232l-343 -999h-212l-187 629h-4l-187 -629h-207l-343 999h232l216 -657h4l193 657h191l196 -658h3z" />
    <glyph glyph-name="Wdieresis" unicode="&#x1e84;" horiz-adv-x="2119" 
d="M859 1621q-65 0 -110 44.5t-45 107.5q0 41 20.5 76t56 55.5t78.5 20.5q41 0 76.5 -20.5t56.5 -55.5t21 -76q0 -63 -45.5 -107.5t-108.5 -44.5zM1266 1624q-63 0 -107.5 43.5t-44.5 105.5q0 40 20.5 74.5t55.5 55t76 20.5q31 0 59 -12t48.5 -32.5t32.5 -48t12 -57.5
q0 -61 -45 -105t-107 -44zM1791 1455h263l-461 -1455h-231l-298 1094h-3l-304 -1094h-231l-461 1455h264l312 -1050h2l286 1050h263l284 -1053h2z" />
    <glyph glyph-name="wdieresis" unicode="&#x1e85;" horiz-adv-x="1579" 
d="M585 1148q-65 0 -110 44.5t-45 107.5t45 107.5t110 44.5q31 0 59.5 -12t49 -32.5t33 -48.5t12.5 -59q0 -41 -21 -76t-56.5 -55.5t-76.5 -20.5zM992 1151q-63 0 -107.5 43.5t-44.5 105.5q0 61 44.5 105.5t107.5 44.5q62 0 107 -44.5t45 -105.5t-45 -105t-107 -44z
M1299 999h232l-343 -999h-212l-187 629h-4l-187 -629h-207l-343 999h232l216 -657h4l193 657h191l196 -658h3z" />
    <glyph glyph-name="uni1E9E" unicode="&#x1e9e;" horiz-adv-x="1561" 
d="M1073 862q180 -70 246 -108q136 -78 175 -199q20 -61 20 -136q0 -87 -29.5 -160t-78.5 -123t-112 -85t-129.5 -51t-131.5 -16q-110 0 -225.5 42t-216.5 125l115 224q50 -53 109.5 -90.5t114.5 -55t104 -17.5q52 0 93.5 12.5t70 36t43.5 56.5t15 73q0 27 -6.5 49.5
t-16.5 40t-30 34.5t-39.5 29t-53 26.5t-61.5 25.5t-74 27q-94 33 -230 96l255 499v6q-195 25 -290 25q-163 0 -240 -63.5t-78 -216.5l-1 -968h-247l1 982q0 128 37.5 222.5t109 152.5t169 86t222.5 28q104 0 291 -27.5t365 -68.5l-266 -507v-6z" />
    <glyph glyph-name="uni1EA0" unicode="&#x1ea0;" horiz-adv-x="1427" 
d="M1381 0h-259l-110 313h-594l-109 -313h-258l543 1455h241zM493 527h444l-221 630h-2zM717 -200q65 0 110 -44.5t45 -107.5t-45 -107.5t-110 -44.5q-63 0 -108.5 45t-45.5 107q0 31 12.5 59t33 48.5t49 32.5t59.5 12z" />
    <glyph glyph-name="uni1EA1" unicode="&#x1ea1;" horiz-adv-x="1252" 
d="M883 999h229v-999h-219v134h-3q-114 -150 -318 -150q-82 0 -156.5 23t-134 68t-103 106.5t-67 142t-23.5 171.5q0 111 37 208t101 165t153 107t191 39q195 0 309 -135h4v120zM608 192q119 0 201.5 84.5t82.5 217.5t-80.5 222.5t-202.5 89.5q-60 0 -112.5 -22t-91.5 -61.5
t-61.5 -99t-22.5 -129.5q0 -133 80 -217.5t207 -84.5zM602 -200q65 0 110 -44.5t45 -107.5t-45 -107.5t-110 -44.5q-41 0 -76.5 20.5t-56.5 55.5t-21 76q0 63 45.5 107.5t108.5 44.5z" />
    <glyph glyph-name="uni1EA2" unicode="&#x1ea2;" horiz-adv-x="1427" 
d="M723 1821q-85 0 -146 -64l-92 87q20 21 49 39t62 31t69.5 20.5t71.5 7.5q97 0 150.5 -44.5t53.5 -115.5q0 -62 -47 -104t-135 -60l-18 -53h-90q-20 18 -30 31.5t-10 30.5q0 21 27 41t59 33.5t59 34.5t27 44q0 41 -60 41zM1122 0l-110 313h-594l-109 -313h-258l543 1455
h241l546 -1455h-259zM493 527h444l-221 630h-2z" />
    <glyph glyph-name="uni1EA3" unicode="&#x1ea3;" horiz-adv-x="1252" 
d="M633 1348q-85 0 -146 -64l-92 87q42 43 112 70.5t140 27.5q97 0 150.5 -44.5t53.5 -115.5q0 -25 -7.5 -46.5t-22.5 -40t-37 -33.5t-51 -26t-64 -18l-18 -53h-90q-20 18 -30 31.5t-10 30.5q0 18 17.5 33.5t43 28.5t51 25.5t43 29.5t17.5 36q0 41 -60 41zM883 999h229v-999
h-219v134h-3q-114 -150 -318 -150q-82 0 -156.5 23.5t-134 68t-103 106t-67 142t-23.5 171.5q0 111 37 208t101 165t153 107t191 39q195 0 309 -135h4v120zM608 192q119 0 201.5 84.5t82.5 217.5q0 88 -36 159t-101 112t-146 41q-60 0 -112.5 -22t-91.5 -61.5t-61.5 -99
t-22.5 -129.5q0 -133 80 -217.5t207 -84.5z" />
    <glyph glyph-name="uni1EA4" unicode="&#x1ea4;" horiz-adv-x="1427" 
d="M1493 1953l-314 -297h-173l235 296zM710 1731l-111 -154h-224l231 301h206l241 -301h-225l-112 154h-6zM594 1455h241l546 -1455h-259l-110 313h-594l-109 -313h-258zM493 527h444l-221 630h-2z" />
    <glyph glyph-name="uni1EA5" unicode="&#x1ea5;" horiz-adv-x="1252" 
d="M1348 1617l-314 -297h-173l235 296zM622 1288l-111 -154h-224l231 301h206l241 -301h-225l-112 154h-6zM883 879v120h229v-999h-219v134h-3q-114 -150 -318 -150q-82 0 -156.5 23.5t-134 68t-103 106t-67 142t-23.5 171.5q0 111 37 208t101 165t153 107t191 39
q195 0 309 -135h4zM608 192q119 0 201.5 84.5t82.5 217.5t-80.5 222.5t-202.5 89.5q-60 0 -112.5 -22t-91.5 -61.5t-61.5 -99t-22.5 -129.5q0 -133 80 -217.5t207 -84.5z" />
    <glyph glyph-name="uni1EA6" unicode="&#x1ea6;" horiz-adv-x="1427" 
d="M1294 1657h-173l-254 297l253 -1zM710 1731l-111 -154h-224l231 301h206l241 -301h-225l-112 154h-6zM1122 0l-110 313h-594l-109 -313h-258l543 1455h241l546 -1455h-259zM493 527h444l-221 630h-2z" />
    <glyph glyph-name="uni1EA7" unicode="&#x1ea7;" horiz-adv-x="1252" 
d="M1110 1320h-173l-254 297l253 -1zM622 1288l-111 -154h-224l231 301h206l241 -301h-225l-112 154h-6zM883 999h229v-999h-219v134h-3q-114 -150 -318 -150q-103 0 -192.5 36.5t-153.5 102.5t-101 162t-37 210q0 111 37 208t101 165t153 107t191 39q195 0 309 -135h4v120z
M608 192q119 0 201.5 84.5t82.5 217.5t-80.5 222.5t-202.5 89.5q-123 0 -205.5 -85.5t-82.5 -226.5q0 -133 80 -217.5t207 -84.5z" />
    <glyph glyph-name="uni1EA8" unicode="&#x1ea8;" horiz-adv-x="1427" 
d="M1158 1850q-85 0 -146 -64l-92 87q42 43 112 70.5t140 27.5q90 0 142 -45t52 -115q0 -41 -21 -74t-59 -55.5t-92 -34.5l-18 -53h-90q-20 18 -30 31.5t-10 30.5q0 21 25.5 41t55.5 33.5t55.5 34.5t25.5 44q0 19 -13.5 30t-36.5 11zM709 1731l-111 -154h-224l231 301h206
l241 -301h-225l-112 154h-6zM1122 0l-110 313h-594l-109 -313h-258l543 1455h241l546 -1455h-259zM493 527h444l-221 630h-2z" />
    <glyph glyph-name="uni1EA9" unicode="&#x1ea9;" horiz-adv-x="1252" 
d="M993 1642q45 0 82 -12t61.5 -33.5t37.5 -51t13 -63.5q0 -61 -45 -103.5t-127 -60.5l-18 -53h-90q-20 18 -30 31.5t-10 30.5q0 18 16.5 33.5t40.5 28.5t48 25.5t40.5 29.5t16.5 36q0 13 -6 22t-17.5 14t-26.5 5q-85 0 -146 -64l-92 87q42 43 112 70.5t140 27.5zM619 1288
l-111 -154h-224l231 301h206l241 -301h-225l-112 154h-6zM883 879v120h229v-999h-219v134h-3q-114 -150 -318 -150q-82 0 -156.5 23t-134 68t-103 106.5t-67 142t-23.5 171.5q0 111 37 208t101 165t153 107t191 39q195 0 309 -135h4zM608 192q119 0 201.5 84.5t82.5 217.5
q0 88 -36 159t-101 112t-146 41q-60 0 -112.5 -22t-91.5 -61.5t-61.5 -99t-22.5 -129.5q0 -133 80 -217.5t207 -84.5z" />
    <glyph glyph-name="uni1EAA" unicode="&#x1eaa;" horiz-adv-x="1427" 
d="M596 1867q-20 0 -42.5 -19.5t-39.5 -51.5l-118 42q26 68 74 110t105 42q31 0 63 -9t44 -15l46 -23q52 -26 85 -26q63 0 99 71l116 -31q-25 -77 -75.5 -120.5t-115.5 -43.5q-26 0 -53 7t-43.5 14t-43.5 20q-24 12 -35.5 17t-30.5 10.5t-35 5.5zM706 1648l-123 -139h-211
l231 251h206l241 -251h-212l-124 139h-8zM1122 0l-110 313h-594l-109 -313h-258l543 1455h241l546 -1455h-259zM493 527h444l-221 630h-2z" />
    <glyph glyph-name="uni1EAB" unicode="&#x1eab;" horiz-adv-x="1252" 
d="M505 1573q-16 0 -34 -13t-34.5 -37t-29.5 -56l-140 64q32 102 88 163.5t125 61.5q19 0 37.5 -3t29.5 -5.5t28.5 -10.5t22 -10.5t24.5 -14.5t21 -13q3 -2 11.5 -7.5t12 -7.5t11 -7t11.5 -7t11 -6t12 -5.5t12 -4t12.5 -3.5t12 -2t12.5 -1q36 0 66.5 27.5t50.5 77.5l138 -46
q-30 -114 -89.5 -179t-137.5 -65q-26 0 -51 5t-49 16t-39.5 20t-39.5 24q-8 5 -21.5 13.5t-20.5 13t-17.5 9.5t-21.5 7t-24 2zM518 1435h206l241 -301h-225l-112 154h-6l-111 -154h-224zM883 999h229v-999h-219v134h-3q-114 -150 -318 -150q-82 0 -156.5 23t-134 68
t-103 106.5t-67 142t-23.5 171.5q0 111 37 208t101 165t153 107t191 39q195 0 309 -135h4v120zM608 192q119 0 201.5 84.5t82.5 217.5q0 88 -36 159t-101 112t-146 41q-123 0 -205.5 -85.5t-82.5 -226.5q0 -133 80 -217.5t207 -84.5z" />
    <glyph glyph-name="uni1EAC" unicode="&#x1eac;" horiz-adv-x="1427" 
d="M709 1761l-111 -154h-224l231 301h206l241 -301h-225l-112 154h-6zM1381 0h-259l-110 313h-594l-109 -313h-258l543 1455h241zM493 527h444l-221 630h-2zM717 -200q65 0 110 -44.5t45 -107.5q0 -41 -20.5 -76t-56 -55.5t-78.5 -20.5q-63 0 -108.5 45t-45.5 107
q0 31 12.5 59t33 48.5t49 32.5t59.5 12z" />
    <glyph glyph-name="uni1EAD" unicode="&#x1ead;" horiz-adv-x="1252" 
d="M619 1288l-111 -154h-224l231 301h206l241 -301h-225l-112 154h-6zM883 999h229v-999h-219v134h-3q-114 -150 -318 -150q-82 0 -156.5 23.5t-134 68t-103 106t-67 142t-23.5 171.5q0 111 37 208t101 165t153 107t191 39q195 0 309 -135h4v120zM608 192q119 0 201.5 84.5
t82.5 217.5t-80.5 222.5t-202.5 89.5q-60 0 -112.5 -22t-91.5 -61.5t-61.5 -99t-22.5 -129.5q0 -133 80 -217.5t207 -84.5zM602 -200q65 0 110 -44.5t45 -107.5t-45 -107.5t-110 -44.5q-41 0 -76.5 20.5t-56.5 55.5t-21 76q0 63 45.5 107.5t108.5 44.5z" />
    <glyph glyph-name="uni1EAE" unicode="&#x1eae;" horiz-adv-x="1427" 
d="M1070 1945l-274 -207h-183l215 206zM714 1521q-125 0 -212 63.5t-118 176.5h158q17 -54 62 -81.5t110 -27.5t110 27.5t62 81.5h158q-31 -113 -118 -176.5t-212 -63.5zM1122 0l-110 313h-594l-109 -313h-258l543 1455h241l546 -1455h-259zM493 527h444l-221 630h-2z" />
    <glyph glyph-name="uni1EAF" unicode="&#x1eaf;" horiz-adv-x="1252" 
d="M950 1755l-254 -297h-233l235 296zM620 1128q-83 0 -152.5 34t-115 103t-52.5 163h180q4 -61 41 -100t99 -39q59 0 97.5 38t41.5 101h180q-6 -87 -47 -155t-111.5 -106.5t-160.5 -38.5zM883 999h229v-999h-219v134h-3q-114 -150 -318 -150q-103 0 -192.5 36.5
t-153.5 102.5t-101 162t-37 210q0 111 37 208t101 165t153 107t191 39q195 0 309 -135h4v120zM608 192q119 0 201.5 84.5t82.5 217.5t-80.5 222.5t-202.5 89.5q-60 0 -112.5 -22t-91.5 -61.5t-61.5 -99t-22.5 -129.5q0 -133 80 -217.5t207 -84.5z" />
    <glyph glyph-name="uni1EB0" unicode="&#x1eb0;" horiz-adv-x="1427" 
d="M815 1738h-183l-274 207l242 -1zM542 1761q17 -54 62 -81.5t110 -27.5t110 27.5t62 81.5h158q-31 -113 -118 -176.5t-212 -63.5q-83 0 -150 28.5t-113.5 82.5t-66.5 129h158zM1122 0l-110 313h-594l-109 -313h-258l543 1455h241l546 -1455h-259zM493 527h444l-221 630h-2
z" />
    <glyph glyph-name="uni1EB1" unicode="&#x1eb1;" horiz-adv-x="1252" 
d="M735 1458h-233l-254 297l253 -1zM627 1289q59 0 97.5 38t41.5 101h180q-7 -87 -47.5 -155t-111 -106.5t-160.5 -38.5q-83 0 -152.5 34t-115 103t-52.5 163h180q4 -61 41 -100t99 -39zM883 999h229v-999h-219v134h-3q-114 -150 -318 -150q-82 0 -156.5 23t-134 68
t-103 106.5t-67 142t-23.5 171.5q0 111 37 208t101 165t153 107t191 39q195 0 309 -135h4v120zM608 192q119 0 201.5 84.5t82.5 217.5t-80.5 222.5t-202.5 89.5q-60 0 -112.5 -22t-91.5 -61.5t-61.5 -99t-22.5 -129.5q0 -133 80 -217.5t207 -84.5z" />
    <glyph glyph-name="uni1EB2" unicode="&#x1eb2;" horiz-adv-x="1427" 
d="M712 1879q-75 0 -130 -57l-81 77q36 38 98.5 62.5t124.5 24.5q79 0 125 -39.5t46 -101.5q0 -48 -40 -84t-111 -53l-16 -27h-50q-46 0 -46 35q0 19 21 36.5t45.5 29t45.5 28t21 33.5q0 36 -53 36zM714 1521q-83 0 -150 28.5t-113.5 82.5t-66.5 129h158q17 -54 62 -81.5
t110 -27.5q43 0 77.5 12t59 36.5t35.5 60.5h158q-31 -113 -118 -176.5t-212 -63.5zM1122 0l-110 313h-594l-109 -313h-258l543 1455h241l546 -1455h-259zM493 527h444l-221 630h-2z" />
    <glyph glyph-name="uni1EB3" unicode="&#x1eb3;" horiz-adv-x="1252" 
d="M634 1678q-85 0 -146 -64l-92 87q27 28 68 50t89 35t95 13q97 0 150.5 -44.5t53.5 -115.5q0 -62 -47 -104t-135 -60l-18 -53h-90q-20 18 -30 31.5t-10 30.5q0 21 27 41t59 33.5t59 34.5t27 44q0 41 -60 41zM625 1128q-83 0 -152.5 34t-115 103t-52.5 163h180
q4 -61 41 -100t99 -39q39 0 70 17t49 48.5t20 73.5h180q-10 -133 -96.5 -216.5t-222.5 -83.5zM883 999h229v-999h-219v134h-3q-114 -150 -318 -150q-103 0 -192.5 36.5t-153.5 102.5t-101 162t-37 210q0 111 37 208t101 165t153 107t191 39q195 0 309 -135h4v120zM608 192
q119 0 201.5 84.5t82.5 217.5t-80.5 222.5t-202.5 89.5q-123 0 -205.5 -85.5t-82.5 -226.5q0 -133 80 -217.5t207 -84.5z" />
    <glyph glyph-name="uni1EB4" unicode="&#x1eb4;" horiz-adv-x="1427" 
d="M596 1867q-20 0 -42.5 -19.5t-39.5 -51.5l-118 42q26 68 74 110t105 42q31 0 63 -9t44 -15l46 -23q52 -26 85 -26q63 0 99 71l116 -31q-25 -77 -75.5 -120.5t-115.5 -43.5q-26 0 -53 7t-43.5 14t-43.5 20q-24 12 -35.5 17t-30.5 10.5t-35 5.5zM714 1521q-125 0 -212 63.5
t-118 176.5h158q17 -54 62 -81.5t110 -27.5t110 27.5t62 81.5h158q-31 -113 -118 -176.5t-212 -63.5zM1122 0l-110 313h-594l-109 -313h-258l543 1455h241l546 -1455h-259zM493 527h444l-221 630h-2z" />
    <glyph glyph-name="uni1EB5" unicode="&#x1eb5;" horiz-adv-x="1252" 
d="M500 1573q-25 0 -52 -29t-46 -77l-140 64q32 102 88 163.5t125 61.5q17 0 31.5 -1.5t28.5 -5.5t23.5 -7t22.5 -9.5t18.5 -10t20 -12t18.5 -11.5q1 -1 14 -9t15.5 -9.5t13.5 -8t15 -8.5t13.5 -6.5t15.5 -5.5t14.5 -2.5t16.5 -1.5q36 0 66.5 27.5t50.5 77.5l138 -46
q-30 -114 -89.5 -179t-137.5 -65q-34 0 -69.5 11t-56.5 22.5t-53 31.5q-8 5 -26 16.5t-25.5 15.5t-22.5 8.5t-31 4.5zM621 1289q39 0 70 17t49 48.5t20 73.5h180q-6 -87 -47 -155t-111.5 -106.5t-160.5 -38.5q-83 0 -152.5 34t-115 103t-52.5 163h180q3 -40 19.5 -71
t48 -49.5t72.5 -18.5zM883 999h229v-999h-219v134h-3q-114 -150 -318 -150q-82 0 -156.5 23t-134 68t-103 106.5t-67 142t-23.5 171.5q0 111 37 208t101 165t153 107t191 39q195 0 309 -135h4v120zM608 192q119 0 201.5 84.5t82.5 217.5t-80.5 222.5t-202.5 89.5
q-123 0 -205.5 -85.5t-82.5 -226.5q0 -133 80 -217.5t207 -84.5z" />
    <glyph glyph-name="uni1EB6" unicode="&#x1eb6;" horiz-adv-x="1427" 
d="M714 1601q-83 0 -152.5 34t-115 103t-52.5 163h180q4 -61 41 -100t99 -39q59 0 97.5 38t41.5 101h180q-5 -65 -30 -120.5t-65.5 -95t-98.5 -62t-125 -22.5zM1381 0h-259l-110 313h-594l-109 -313h-258l543 1455h241zM493 527h444l-221 630h-2zM717 -200q65 0 110 -44.5
t45 -107.5q0 -41 -20.5 -76t-56 -55.5t-78.5 -20.5q-41 0 -76.5 20.5t-56.5 55.5t-21 76q0 31 12.5 59t33 48.5t49 32.5t59.5 12z" />
    <glyph glyph-name="uni1EB7" unicode="&#x1eb7;" horiz-adv-x="1252" 
d="M624 1128q-83 0 -152.5 34t-115 103t-52.5 163h180q4 -61 41 -100t99 -39q39 0 70 17t49 48.5t20 73.5h180q-7 -87 -47.5 -155t-111 -106.5t-160.5 -38.5zM883 999h229v-999h-219v134h-3q-114 -150 -318 -150q-82 0 -156.5 23.5t-134 68t-103 106t-67 142t-23.5 171.5
q0 111 37 208t101 165t153 107t191 39q195 0 309 -135h4v120zM608 192q119 0 201.5 84.5t82.5 217.5t-80.5 222.5t-202.5 89.5q-60 0 -112.5 -22t-91.5 -61.5t-61.5 -99t-22.5 -129.5q0 -133 80 -217.5t207 -84.5zM602 -200q65 0 110 -44.5t45 -107.5t-45 -107.5t-110 -44.5
q-63 0 -108.5 45t-45.5 107q0 63 45.5 107.5t108.5 44.5z" />
    <glyph glyph-name="uni1EB8" unicode="&#x1eb8;" horiz-adv-x="1244" 
d="M178 0v1455h915v-222h-668v-401h540v-222h-540v-388h711v-222h-958zM668 -200q43 0 78.5 -20.5t56 -55.5t20.5 -76q0 -63 -45 -107.5t-110 -44.5q-41 0 -76.5 20.5t-56.5 55.5t-21 76q0 63 45.5 107.5t108.5 44.5z" />
    <glyph glyph-name="uni1EB9" unicode="&#x1eb9;" horiz-adv-x="1150" 
d="M1062 511q0 -55 -6 -91h-728q22 -106 98.5 -167t186.5 -61q155 0 249 118l160 -137q-68 -87 -174.5 -138t-246.5 -51q-145 0 -261 63t-183 181.5t-67 271.5q0 113 37 209t102 163t155 104.5t193 37.5q145 0 256 -65t170 -179t59 -259zM589 806q-95 0 -164 -52.5
t-93 -148.5h500q-15 61 -46.5 105.5t-82 70t-114.5 25.5zM605 -200q65 0 110 -44.5t45 -107.5t-45 -107.5t-110 -44.5q-63 0 -108.5 45t-45.5 107q0 63 45.5 107.5t108.5 44.5z" />
    <glyph glyph-name="uni1EBA" unicode="&#x1eba;" horiz-adv-x="1244" 
d="M593 1565q-40 35 -40 62q0 21 27 41t59 33.5t59 34.5t27 44q0 41 -60 41q-85 0 -146 -64l-92 87q27 28 68 50t89 35t95 13q97 0 150.5 -44.5t53.5 -115.5q0 -62 -47 -104t-135 -60l-18 -53h-90zM178 0v1455h915v-222h-668v-401h540v-222h-540v-388h711v-222h-958z" />
    <glyph glyph-name="uni1EBB" unicode="&#x1ebb;" horiz-adv-x="1150" 
d="M605 1348q-85 0 -146 -64l-92 87q20 21 49 39t62 31t69.5 20.5t71.5 7.5q97 0 150.5 -44.5t53.5 -115.5q0 -62 -47 -104t-135 -60l-18 -53h-90q-20 18 -30 31.5t-10 30.5q0 18 17.5 33.5t43 28.5t51 25.5t43 29.5t17.5 36q0 41 -60 41zM1062 511q0 -55 -6 -91h-728
q22 -106 98.5 -167t186.5 -61q155 0 249 118l160 -137q-68 -87 -174.5 -138t-246.5 -51q-145 0 -261 63t-183 181.5t-67 271.5q0 113 37 209t102 163t155 104.5t193 37.5q145 0 256 -65t170 -179t59 -259zM589 806q-95 0 -164 -52.5t-93 -148.5h500q-15 61 -46.5 105.5
t-82 70t-114.5 25.5z" />
    <glyph glyph-name="uni1EBC" unicode="&#x1ebc;" horiz-adv-x="1244" 
d="M819 1606q-34 0 -69.5 11t-56.5 22.5t-53 31.5q-19 11 -30 17.5t-27 13.5t-30 10.5t-28 3.5q-76 0 -118 -106l-140 64q32 104 91.5 164.5t141.5 60.5q37 0 72 -10t52 -19t49 -28q3 -2 13 -8.5t13 -8.5t12 -7.5t13.5 -7.5t12.5 -6t13.5 -5.5t12.5 -3.5t14 -3t14 -1
q36 0 66.5 27.5t50.5 77.5l138 -46q-30 -114 -89.5 -179t-137.5 -65zM178 0v1455h915v-222h-668v-401h540v-222h-540v-388h711v-222h-958z" />
    <glyph glyph-name="uni1EBD" unicode="&#x1ebd;" horiz-adv-x="1150" 
d="M465 1243q-76 0 -118 -106l-140 64q32 104 91.5 164.5t141.5 60.5q37 0 72 -10t52 -19t49 -28q1 -1 14 -9t15.5 -9.5t13.5 -8t15 -8.5t13.5 -6.5t15.5 -5.5t14.5 -2.5t16.5 -1.5q24 0 46 12.5t40 36t31 56.5l138 -46q-20 -75 -53 -129.5t-77.5 -84.5t-96.5 -30
q-34 0 -69.5 11t-56.5 22.5t-53 31.5q-25 15 -40 23t-36 15t-39 7zM1062 511q0 -55 -6 -91h-728q22 -106 98.5 -167t186.5 -61q155 0 249 118l160 -137q-68 -87 -174.5 -138t-246.5 -51q-145 0 -261 63t-183 181.5t-67 271.5q0 113 37 209t102 163t155 104.5t193 37.5
q145 0 256 -65t170 -179t59 -259zM589 806q-95 0 -164 -52.5t-93 -148.5h500q-11 46 -32 82.5t-51 63t-71 41t-89 14.5z" />
    <glyph glyph-name="uni1EBE" unicode="&#x1ebe;" horiz-adv-x="1244" 
d="M1435 1953l-314 -297h-173l235 296zM652 1731l-111 -154h-224l231 301h206l241 -301h-225l-112 154h-6zM425 610v-388h711v-222h-958v1455h915v-222h-668v-401h540v-222h-540z" />
    <glyph glyph-name="uni1EBF" unicode="&#x1ebf;" horiz-adv-x="1150" 
d="M1320 1617l-314 -297h-173l235 296zM594 1288l-111 -154h-224l231 301h206l241 -301h-225l-112 154h-6zM577 1014q145 0 256 -65t170 -179t59 -259q0 -55 -6 -91h-728q23 -106 99 -167t186 -61q155 0 249 118l160 -137q-68 -87 -174.5 -138t-246.5 -51q-145 0 -261 63
t-183 181.5t-67 271.5q0 113 37 209t102 163t155 104.5t193 37.5zM589 806q-95 0 -164 -52.5t-93 -148.5h500q-15 61 -46.5 105.5t-82 70t-114.5 25.5z" />
    <glyph glyph-name="uni1EC0" unicode="&#x1ec0;" horiz-adv-x="1244" 
d="M1236 1657h-173l-254 297l253 -1zM652 1731l-111 -154h-224l231 301h206l241 -301h-225l-112 154h-6zM425 610v-388h711v-222h-958v1455h915v-222h-668v-401h540v-222h-540z" />
    <glyph glyph-name="uni1EC1" unicode="&#x1ec1;" horiz-adv-x="1150" 
d="M1082 1320h-173l-254 297l253 -1zM594 1288l-111 -154h-224l231 301h206l241 -301h-225l-112 154h-6zM577 1014q145 0 256 -65t170 -179t59 -259q0 -55 -6 -91h-728q22 -106 98.5 -167t186.5 -61q155 0 249 118l160 -137q-68 -87 -174.5 -138t-246.5 -51q-145 0 -261 63
t-183 181.5t-67 271.5q0 113 37 209t102 163t155 104.5t193 37.5zM589 806q-95 0 -164 -52.5t-93 -148.5h500q-15 61 -46.5 105.5t-82 70t-114.5 25.5z" />
    <glyph glyph-name="uni1EC2" unicode="&#x1ec2;" horiz-adv-x="1244" 
d="M1114 1971q60 0 104.5 -21t67 -57t22.5 -82q0 -61 -45 -103.5t-127 -60.5l-18 -53h-90q-20 18 -30 31.5t-10 30.5q0 21 25.5 41t55.5 33.5t55.5 34.5t25.5 44q0 19 -13.5 30t-36.5 11q-85 0 -146 -64l-92 87q42 43 112 70.5t140 27.5zM651 1731l-111 -154h-224l231 301
h206l241 -301h-225l-112 154h-6zM425 610v-388h711v-222h-958v1455h915v-222h-668v-401h540v-222h-540z" />
    <glyph glyph-name="uni1EC3" unicode="&#x1ec3;" horiz-adv-x="1150" 
d="M965 1642q90 0 142 -45t52 -115q0 -61 -45 -103.5t-127 -60.5l-18 -53h-90q-20 18 -30 31.5t-10 30.5q0 21 25.5 41t55.5 33.5t55.5 34.5t25.5 44q0 19 -13.5 30t-36.5 11q-85 0 -146 -64l-92 87q42 43 112 70.5t140 27.5zM591 1288l-111 -154h-224l231 301h206l241 -301
h-225l-112 154h-6zM577 1014q145 0 256 -65t170 -179t59 -259q0 -55 -6 -91h-728q23 -106 99 -167t186 -61q155 0 249 118l160 -137q-68 -87 -174.5 -138t-246.5 -51q-145 0 -261 63t-183 181.5t-67 271.5q0 113 37 209t102 163t155 104.5t193 37.5zM589 806
q-95 0 -164 -52.5t-93 -148.5h500q-15 61 -46.5 105.5t-82 70t-114.5 25.5z" />
    <glyph glyph-name="uni1EC4" unicode="&#x1ec4;" horiz-adv-x="1244" 
d="M538 1867q-13 0 -28 -9t-29 -25t-25 -37l-118 42q26 68 74 110t105 42q31 0 63 -9t44 -15l46 -23q52 -26 85 -26q63 0 99 71l116 -31q-17 -51 -44.5 -87.5t-65.5 -56.5t-81 -20q-26 0 -53 7t-43.5 14t-43.5 20q-15 7 -21 10t-19 8.5t-21 8t-19 4.5t-21 2zM648 1648
l-123 -139h-211l231 251h206l241 -251h-212l-124 139h-8zM425 222h711v-222h-958v1455h915v-222h-668v-401h540v-222h-540v-388z" />
    <glyph glyph-name="uni1EC5" unicode="&#x1ec5;" horiz-adv-x="1150" 
d="M477 1573q-25 0 -52 -29t-46 -77l-140 64q21 67 52.5 117t73 79t87.5 29q19 0 37.5 -3t29.5 -5.5t28.5 -10.5t22 -10.5t24 -14.5t21 -13t14.5 -9t15.5 -9.5t13.5 -8t15 -8.5t13.5 -6.5t15.5 -5.5t14.5 -2.5t16.5 -1.5q36 0 66.5 27.5t50.5 77.5l138 -46
q-30 -114 -89.5 -179t-137.5 -65q-34 0 -69.5 11t-56.5 22.5t-53 31.5q-8 5 -26 16.5t-25.5 15.5t-22.5 8.5t-31 4.5zM490 1435h206l241 -301h-225l-112 154h-6l-111 -154h-224zM1062 511q0 -55 -6 -91h-728q22 -106 98.5 -167t186.5 -61q155 0 249 118l160 -137
q-68 -87 -174.5 -138t-246.5 -51q-145 0 -261 63t-183 181.5t-67 271.5q0 113 37 209t102 163t155 104.5t193 37.5q145 0 256 -65t170 -179t59 -259zM589 806q-95 0 -164 -52.5t-93 -148.5h500q-11 46 -32 82.5t-51 63t-71 41t-89 14.5z" />
    <glyph glyph-name="uni1EC6" unicode="&#x1ec6;" horiz-adv-x="1244" 
d="M651 1761l-111 -154h-224l231 301h206l241 -301h-225l-112 154h-6zM425 222h711v-222h-958v1455h915v-222h-668v-401h540v-222h-540v-388zM668 -200q65 0 110 -44.5t45 -107.5t-45 -107.5t-110 -44.5q-63 0 -108.5 45t-45.5 107q0 41 21 76t56.5 55.5t76.5 20.5z" />
    <glyph glyph-name="uni1EC7" unicode="&#x1ec7;" horiz-adv-x="1150" 
d="M591 1288l-111 -154h-224l231 301h206l241 -301h-225l-112 154h-6zM1062 511q0 -55 -6 -91h-728q22 -106 98.5 -167t186.5 -61q155 0 249 118l160 -137q-68 -87 -174.5 -138t-246.5 -51q-145 0 -261 63t-183 181.5t-67 271.5q0 113 37 209t102 163t155 104.5t193 37.5
q145 0 256 -65t170 -179t59 -259zM589 806q-95 0 -164 -52.5t-93 -148.5h500q-15 61 -46.5 105.5t-82 70t-114.5 25.5zM605 -200q65 0 110 -44.5t45 -107.5t-45 -107.5t-110 -44.5q-63 0 -108.5 45t-45.5 107q0 63 45.5 107.5t108.5 44.5z" />
    <glyph glyph-name="uni1EC8" unicode="&#x1ec8;" horiz-adv-x="622" 
d="M244 1565q-40 35 -40 62q0 21 27 41t59 33.5t59 34.5t27 44q0 41 -60 41q-85 0 -146 -64l-92 87q42 43 112 70.5t140 27.5q97 0 150.5 -44.5t53.5 -115.5q0 -62 -47 -104t-135 -60l-18 -53h-90zM187 0v1455h248v-1455h-248z" />
    <glyph glyph-name="uni1EC9" unicode="&#x1ec9;" horiz-adv-x="557" 
d="M216 1092q-20 18 -30 31.5t-10 30.5q0 15 12.5 29t32 24t41.5 21.5t41.5 22t32 25.5t12.5 31q0 41 -60 41q-85 0 -146 -64l-92 87q42 43 112 70.5t140 27.5q97 0 150.5 -44.5t53.5 -115.5q0 -62 -47 -104t-135 -60l-18 -53h-90zM164 0v999h229v-999h-229z" />
    <glyph glyph-name="uni1ECA" unicode="&#x1eca;" horiz-adv-x="622" 
d="M187 0v1455h248v-1455h-248zM314 -200q65 0 110 -44.5t45 -107.5t-45 -107.5t-110 -44.5q-63 0 -108.5 45t-45.5 107q0 63 45.5 107.5t108.5 44.5z" />
    <glyph glyph-name="uni1ECB" unicode="&#x1ecb;" horiz-adv-x="557" 
d="M280 1148q-65 0 -110 44.5t-45 107.5t45 107.5t110 44.5q63 0 108.5 -45t45.5 -107q0 -41 -21 -76t-56.5 -55.5t-76.5 -20.5zM164 0v999h229v-999h-229zM277 -200q65 0 110 -44.5t45 -107.5t-45 -107.5t-110 -44.5q-63 0 -108.5 45t-45.5 107q0 63 45.5 107.5t108.5 44.5
z" />
    <glyph glyph-name="uni1ECC" unicode="&#x1ecc;" horiz-adv-x="1693" 
d="M848 -16q-161 0 -299 56.5t-233.5 155t-149.5 236t-54 296.5q0 158 54 295.5t149.5 236t233.5 155t299 56.5q156 0 291.5 -54t233 -150.5t153 -235.5t55.5 -303t-55.5 -303.5t-153 -235.5t-233 -150.5t-291.5 -54.5zM848 215q100 0 188 38.5t151 106t100 163t37 205.5
t-37 205.5t-100 162.5t-151 105.5t-188 38.5q-104 0 -194 -40t-152 -109t-97.5 -163t-35.5 -200t35.5 -200.5t97.5 -163.5t152 -109t194 -40zM847 -200q43 0 78.5 -20.5t56 -55.5t20.5 -76q0 -63 -45 -107.5t-110 -44.5q-63 0 -108.5 45t-45.5 107q0 63 45.5 107.5
t108.5 44.5z" />
    <glyph glyph-name="uni1ECD" unicode="&#x1ecd;" horiz-adv-x="1229" 
d="M615 -16q-116 0 -215 39t-166.5 107.5t-105.5 163.5t-38 204q0 147 64.5 264t185 184.5t275.5 67.5q152 0 271 -64.5t186 -182.5t67 -269q0 -150 -67 -267.5t-186.5 -182t-270.5 -64.5zM615 192q123 0 207 86.5t84 219.5q0 136 -83 222t-208 86q-130 0 -211 -88t-81 -220
q0 -130 82.5 -218t209.5 -88zM614 -200q65 0 110 -44.5t45 -107.5t-45 -107.5t-110 -44.5q-41 0 -76.5 20.5t-56.5 55.5t-21 76t21 76t56.5 55.5t76.5 20.5z" />
    <glyph glyph-name="uni1ECE" unicode="&#x1ece;" horiz-adv-x="1693" 
d="M786 1565q-10 9 -16 15t-12 14t-9 16t-3 17q0 21 27 41t59 33.5t59 34.5t27 44q0 41 -60 41q-85 0 -146 -64l-92 87q42 43 112 70.5t140 27.5q97 0 150.5 -44.5t53.5 -115.5q0 -62 -47 -104t-135 -60l-18 -53h-90zM848 -16q-161 0 -299 56.5t-233.5 155t-149.5 236
t-54 296.5q0 158 54 295.5t149.5 236t233.5 155t299 56.5q156 0 291.5 -54t233 -150.5t153 -235.5t55.5 -303t-55.5 -303.5t-153 -235.5t-233 -150.5t-291.5 -54.5zM848 215q100 0 188 38.5t151 106t100 163t37 205.5t-37 205.5t-100 162.5t-151 105.5t-188 38.5
q-104 0 -194 -40t-152 -109t-97.5 -163t-35.5 -200t35.5 -200.5t97.5 -163.5t152 -109t194 -40z" />
    <glyph glyph-name="uni1ECF" unicode="&#x1ecf;" horiz-adv-x="1229" 
d="M552 1092q-13 12 -21 20t-13.5 19t-5.5 23q0 18 17.5 33.5t43 28.5t51 25.5t43 29.5t17.5 36q0 41 -60 41q-85 0 -146 -64l-92 87q21 21 49.5 39t61.5 31t69.5 20.5t71.5 7.5q97 0 150.5 -44.5t53.5 -115.5q0 -62 -47 -104t-135 -60l-18 -53h-90zM615 -16
q-116 0 -215 39.5t-166.5 107.5t-105.5 163t-38 204q0 147 64.5 264t185 184.5t275.5 67.5q152 0 271 -64.5t186 -182.5t67 -269q0 -150 -67 -267.5t-186.5 -182t-270.5 -64.5zM615 192q123 0 207 86.5t84 219.5q0 136 -83 222t-208 86q-129 0 -210.5 -88t-81.5 -220
q0 -130 82.5 -218t209.5 -88z" />
    <glyph glyph-name="uni1ED0" unicode="&#x1ed0;" horiz-adv-x="1693" 
d="M1628 1953l-314 -297h-173l235 296zM845 1731l-111 -154h-224l231 301h206l241 -301h-225l-112 154h-6zM848 1471q156 0 291.5 -54t233 -150.5t153 -235.5t55.5 -303t-55.5 -303.5t-153 -235.5t-233 -150.5t-291.5 -54.5q-161 0 -299 56.5t-233.5 155t-149.5 236
t-54 296.5q0 158 54 295.5t149.5 236t233.5 155t299 56.5zM848 215q100 0 188 38.5t151.5 106t100 163t36.5 205.5t-36.5 205.5t-100 162.5t-151.5 105.5t-188 38.5q-104 0 -194 -40t-152 -109t-97.5 -163t-35.5 -200t35.5 -200.5t97.5 -163.5t152 -109t194 -40z" />
    <glyph glyph-name="uni1ED1" unicode="&#x1ed1;" horiz-adv-x="1229" 
d="M1339 1617l-314 -297h-173l235 296zM613 1288l-111 -154h-224l231 301h206l241 -301h-225l-112 154h-6zM615 1014q152 0 271 -64.5t186 -182.5t67 -269q0 -150 -67 -267.5t-186.5 -182t-270.5 -64.5q-116 0 -215 39.5t-166.5 107.5t-105.5 163t-38 204q0 224 145.5 370
t379.5 146zM615 192q123 0 207 86.5t84 219.5q0 136 -83 222t-208 86q-129 0 -210.5 -88t-81.5 -220q0 -130 82.5 -218t209.5 -88z" />
    <glyph glyph-name="uni1ED2" unicode="&#x1ed2;" horiz-adv-x="1693" 
d="M1429 1657h-173l-254 297l253 -1zM845 1731l-111 -154h-224l231 301h206l241 -301h-225l-112 154h-6zM848 1471q156 0 291.5 -54t233 -150.5t153 -235.5t55.5 -303t-55.5 -303.5t-153 -235.5t-233 -150.5t-291.5 -54.5q-161 0 -299 56.5t-233.5 155t-149.5 236t-54 296.5
q0 158 54 295.5t149.5 236t233.5 155t299 56.5zM848 215q100 0 188 38.5t151 106t100 163t37 205.5t-37 205.5t-100 162.5t-151 105.5t-188 38.5q-104 0 -194 -40t-152 -109t-97.5 -163t-35.5 -200t35.5 -200.5t97.5 -163.5t152 -109t194 -40z" />
    <glyph glyph-name="uni1ED3" unicode="&#x1ed3;" horiz-adv-x="1229" 
d="M1101 1320h-173l-254 297l253 -1zM613 1288l-111 -154h-224l231 301h206l241 -301h-225l-112 154h-6zM615 1014q152 0 271 -64.5t186 -182.5t67 -269q0 -150 -67 -267.5t-186.5 -182t-270.5 -64.5q-116 0 -215 39.5t-166.5 107.5t-105.5 163t-38 204q0 147 64.5 264
t185 184.5t275.5 67.5zM615 192q123 0 207 86.5t84 219.5q0 136 -83 222t-208 86q-130 0 -211 -88t-81 -220q0 -130 82.5 -218t209.5 -88z" />
    <glyph glyph-name="uni1ED4" unicode="&#x1ed4;" horiz-adv-x="1693" 
d="M1293 1850q-85 0 -146 -64l-92 87q42 43 112 70.5t140 27.5q60 0 104.5 -21t67 -57t22.5 -82q0 -61 -45 -103.5t-127 -60.5l-18 -53h-90q-20 18 -30 31.5t-10 30.5q0 21 25.5 41t55.5 33.5t55.5 34.5t25.5 44q0 19 -13.5 30t-36.5 11zM844 1731l-111 -154h-224l231 301
h206l241 -301h-225l-112 154h-6zM848 1471q156 0 291.5 -54t233 -150.5t153 -235.5t55.5 -303t-55.5 -303t-153 -235.5t-233 -151t-291.5 -54.5q-161 0 -299 56.5t-233.5 155t-149.5 236t-54 296.5t54 296t149.5 235.5t233.5 155t299 56.5zM848 215q100 0 188 38.5t151 106
t100 163t37 205.5t-37 205.5t-100 162.5t-151 105.5t-188 38.5q-104 0 -194 -40t-152 -109t-97.5 -163t-35.5 -200t35.5 -200t97.5 -163.5t152 -109.5t194 -40z" />
    <glyph glyph-name="uni1ED5" unicode="&#x1ed5;" horiz-adv-x="1229" 
d="M970 1521q-85 0 -146 -64l-92 87q42 43 112 70.5t140 27.5q90 0 142 -45t52 -115q0 -61 -45 -103.5t-127 -60.5l-18 -53h-90q-20 18 -30 31.5t-10 30.5q0 18 16.5 33.5t40.5 28.5t48 25.5t40.5 29.5t16.5 36t-13.5 30t-36.5 11zM610 1288l-111 -154h-224l231 301h206
l241 -301h-225l-112 154h-6zM615 1014q152 0 271 -64.5t186 -182.5t67 -269q0 -150 -67 -267.5t-186.5 -182t-270.5 -64.5q-116 0 -215 39t-166.5 107.5t-105.5 163.5t-38 204q0 147 64.5 264t185 184.5t275.5 67.5zM615 192q123 0 207 86.5t84 219.5q0 136 -83 222t-208 86
q-129 0 -210.5 -88t-81.5 -220q0 -130 82.5 -218t209.5 -88z" />
    <glyph glyph-name="uni1ED6" unicode="&#x1ed6;" horiz-adv-x="1693" 
d="M731 1867q-20 0 -42.5 -19.5t-39.5 -51.5l-118 42q26 68 74 110t105 42q31 0 63 -9t44 -15l46 -23q52 -26 85 -26q63 0 99 71l116 -31q-17 -51 -44.5 -87.5t-65.5 -56.5t-81 -20q-26 0 -53 7t-43.5 14t-43.5 20q-24 12 -35.5 17t-30.5 10.5t-35 5.5zM841 1648l-123 -139
h-211l231 251h206l241 -251h-212l-124 139h-8zM848 1471q156 0 291.5 -54t233 -150.5t153 -235.5t55.5 -303t-55.5 -303.5t-153 -235.5t-233 -150.5t-291.5 -54.5q-161 0 -299 56.5t-233.5 155t-149.5 236t-54 296.5q0 158 54 295.5t149.5 236t233.5 155t299 56.5zM848 215
q100 0 188 38.5t151 106t100 163t37 205.5t-37 205.5t-100 162.5t-151 105.5t-188 38.5q-104 0 -194 -40t-152.5 -109t-97.5 -163t-35 -200t35 -200.5t97.5 -163.5t152.5 -109t194 -40z" />
    <glyph glyph-name="uni1ED7" unicode="&#x1ed7;" horiz-adv-x="1229" 
d="M496 1573q-25 0 -52 -29t-46 -77l-140 64q21 67 52.5 117t73 79t87.5 29q17 0 31.5 -1.5t28.5 -5.5t23.5 -7t22.5 -9.5t18.5 -10t20 -12t18.5 -11.5q3 -2 13 -8.5t13 -8.5t12 -7.5t13.5 -7.5t12.5 -6t13.5 -5.5t12.5 -3.5t14 -3t14 -1q36 0 66.5 27.5t50.5 77.5l138 -46
q-30 -114 -89.5 -179t-137.5 -65q-34 0 -69.5 11t-56.5 22.5t-53 31.5q-8 5 -26 16.5t-25.5 15.5t-22.5 8.5t-31 4.5zM509 1435h206l241 -301h-225l-112 154h-6l-111 -154h-224zM615 1014q152 0 271 -64.5t186 -182.5t67 -269q0 -150 -67 -267.5t-186.5 -182t-270.5 -64.5
q-116 0 -215 39t-166.5 107.5t-105.5 163.5t-38 204q0 147 64.5 264t185 184.5t275.5 67.5zM615 192q123 0 207 86.5t84 219.5q0 136 -83 222t-208 86q-129 0 -210.5 -88t-81.5 -220q0 -130 82.5 -218t209.5 -88z" />
    <glyph glyph-name="uni1ED8" unicode="&#x1ed8;" horiz-adv-x="1693" 
d="M844 1761l-111 -154h-224l231 301h206l241 -301h-225l-112 154h-6zM848 1471q156 0 291.5 -54t233 -150.5t153 -235.5t55.5 -303t-55.5 -303.5t-153 -235.5t-233 -150.5t-291.5 -54.5q-161 0 -299 56.5t-233.5 155t-149.5 236t-54 296.5q0 158 54 295.5t149.5 236
t233.5 155t299 56.5zM848 215q100 0 188 38.5t151 106t100 163t37 205.5t-37 205.5t-100 162.5t-151 105.5t-188 38.5q-104 0 -194 -40t-152 -109t-97.5 -163t-35.5 -200t35.5 -200.5t97.5 -163.5t152 -109t194 -40zM847 -200q43 0 78.5 -20.5t56 -55.5t20.5 -76
q0 -63 -45 -107.5t-110 -44.5q-41 0 -76.5 20.5t-56.5 55.5t-21 76q0 63 45.5 107.5t108.5 44.5z" />
    <glyph glyph-name="uni1ED9" unicode="&#x1ed9;" horiz-adv-x="1229" 
d="M610 1288l-111 -154h-224l231 301h206l241 -301h-225l-112 154h-6zM615 1014q152 0 271 -64.5t186 -182.5t67 -269q0 -150 -67 -267.5t-186.5 -182t-270.5 -64.5q-116 0 -215 39.5t-166.5 107.5t-105.5 163t-38 204q0 147 64.5 264t185 184.5t275.5 67.5zM615 192
q123 0 207 86.5t84 219.5q0 136 -83 222t-208 86q-129 0 -210.5 -88t-81.5 -220q0 -130 82.5 -218t209.5 -88zM614 -200q65 0 110 -44.5t45 -107.5t-45 -107.5t-110 -44.5q-63 0 -108.5 45t-45.5 107q0 41 21 76t56.5 55.5t76.5 20.5z" />
    <glyph glyph-name="uni1EDA" unicode="&#x1eda;" horiz-adv-x="1782" 
d="M1230 1908l-254 -297h-233l235 296zM1500 1587h234v-147q0 -92 -25 -165.5t-75.5 -125.5t-123.5 -77l-1 -2q72 -157 72 -342q0 -164 -55.5 -303.5t-153 -235.5t-233 -150.5t-291.5 -54.5q-161 0 -299 56.5t-233.5 155t-149.5 236t-54 296.5q0 158 54 295.5t149.5 236
t233.5 155t299 56.5q176 0 323.5 -67t247.5 -190q14 7 25 16t19 17.5t14 23.5t10 24t6.5 29t4 29t2 33.5t0.5 33.5v36v131zM848 215q100 0 188 38.5t151 106t100 163t37 205.5t-37 205.5t-100 162.5t-151 105.5t-188 38.5q-104 0 -194 -40t-152 -109t-97.5 -163t-35.5 -200
t35.5 -200.5t97.5 -163.5t152 -109t194 -40z" />
    <glyph glyph-name="uni1EDB" unicode="&#x1edb;" horiz-adv-x="1394" 
d="M979 1435l-254 -297h-233l235 296zM1137 1159h234v-147q0 -146 -63 -244t-183 -131l-1 -1q16 -63 16 -138q0 -150 -67 -267.5t-186.5 -182t-270.5 -64.5q-116 0 -215 39t-166.5 107.5t-105.5 163.5t-38 204q0 147 64.5 264t185 184.5t275.5 67.5q145 0 260.5 -59.5
t183.5 -166.5q15 8 26 17t19 23l14 24q6 11 9.5 31.5t5 31t2.5 37t1 36.5v40v131zM616 192q123 0 207 86.5t84 219.5q0 136 -83 222t-208 86q-130 0 -211 -88t-81 -220q0 -130 82 -218t210 -88z" />
    <glyph glyph-name="uni1EDC" unicode="&#x1edc;" horiz-adv-x="1782" 
d="M964 1611h-233l-254 297l253 -1zM1500 1587h234v-147q0 -92 -25 -165.5t-75.5 -125.5t-123.5 -77l-1 -2q72 -157 72 -342q0 -164 -55.5 -303.5t-153 -235.5t-233 -150.5t-291.5 -54.5q-161 0 -299 56.5t-233.5 155t-149.5 236t-54 296.5q0 158 54 295.5t149.5 236
t233.5 155t299 56.5q176 0 323.5 -67t247.5 -190q14 7 25 16t19 17.5t14 23.5t10 24t6.5 29t4 29t2 33.5t0.5 33.5v36v131zM848 215q100 0 188 38.5t151 106t100 163t37 205.5t-37 205.5t-100 162.5t-151 105.5t-188 38.5q-104 0 -194 -40t-152 -109t-97.5 -163t-35.5 -200
t35.5 -200.5t97.5 -163.5t152 -109t194 -40z" />
    <glyph glyph-name="uni1EDD" unicode="&#x1edd;" horiz-adv-x="1394" 
d="M757 1138h-233l-254 297l253 -1zM1137 1159h234v-147q0 -146 -63 -244t-183 -131l-1 -1q16 -63 16 -138q0 -150 -67 -267.5t-186.5 -182t-270.5 -64.5q-116 0 -215 39t-166.5 107.5t-105.5 163.5t-38 204q0 147 64.5 264t185 184.5t275.5 67.5q145 0 260.5 -59.5
t183.5 -166.5q15 8 26 17t19 23l14 24q6 11 9.5 31.5t5 31t2.5 37t1 36.5v40v131zM616 192q123 0 207 86.5t84 219.5q0 136 -83 222t-208 86q-130 0 -211 -88t-81 -220q0 -130 82 -218t210 -88z" />
    <glyph glyph-name="uni1EDE" unicode="&#x1ede;" horiz-adv-x="1782" 
d="M858 1821q-85 0 -146 -64l-92 87q42 43 112 70.5t140 27.5q97 0 150.5 -44.5t53.5 -115.5q0 -62 -47 -104t-135 -60l-18 -53h-90q-20 18 -30 31.5t-10 30.5q0 21 27 41t59 33.5t59 34.5t27 44q0 41 -60 41zM1500 1587h234v-147q0 -139 -57.5 -234.5t-166.5 -133.5l-1 -2
q72 -157 72 -342q0 -164 -55.5 -303.5t-153 -235.5t-233 -150.5t-291.5 -54.5q-161 0 -299 56.5t-233.5 155t-149.5 236t-54 296.5q0 158 54 295.5t149.5 236t233.5 155t299 56.5q176 0 323.5 -67t247.5 -190q14 7 25 16t19 17.5t14 23.5t10 24t6.5 29t4 29t2 33.5t0.5 33.5
v36v131zM848 215q100 0 188 38.5t151 106t100 163t37 205.5t-37 205.5t-100 162.5t-151 105.5t-188 38.5q-104 0 -194 -40t-152.5 -109t-97.5 -163t-35 -200t35 -200.5t97.5 -163.5t152.5 -109t194 -40z" />
    <glyph glyph-name="uni1EDF" unicode="&#x1edf;" horiz-adv-x="1394" 
d="M625 1348q-85 0 -146 -64l-92 87q42 43 112 70.5t140 27.5q97 0 150.5 -44.5t53.5 -115.5q0 -62 -47 -104t-135 -60l-18 -53h-90q-20 18 -30 31.5t-10 30.5q0 18 17.5 33.5t43 28.5t51 25.5t43 29.5t17.5 36q0 41 -60 41zM1137 1159h234v-147q0 -146 -63 -244t-183 -131
l-1 -1q16 -63 16 -138q0 -150 -67 -267.5t-186.5 -182t-270.5 -64.5q-116 0 -215 39.5t-166.5 107.5t-105.5 163t-38 204q0 224 145.5 370t379.5 146q145 0 260.5 -59.5t183.5 -166.5q15 8 26 17t19 23.5t14 24.5t9.5 30.5t5 31t2.5 37t1 36.5v40v131zM616 192
q123 0 207 86.5t84 219.5q0 136 -83 222t-208 86q-130 0 -211 -88t-81 -220q0 -130 82.5 -218t209.5 -88z" />
    <glyph glyph-name="uni1EE0" unicode="&#x1ee0;" horiz-adv-x="1782" 
d="M718 1716q-76 0 -118 -106l-140 64q21 68 53 117.5t78.5 78.5t101.5 29q37 0 72 -10t52 -19t49 -28q3 -2 13 -8.5t13 -8.5t12 -7.5t13.5 -7.5t12.5 -6t13.5 -5.5t12.5 -3.5t14 -3t14 -1q36 0 66.5 27.5t50.5 77.5l138 -46q-30 -114 -89.5 -179t-137.5 -65q-21 0 -42.5 4
t-38 9.5t-36 15.5t-31.5 17t-31 19q-25 15 -40 23t-36 15t-39 7zM1500 1587h234v-147q0 -92 -25 -165.5t-75.5 -125.5t-123.5 -77l-1 -2q72 -157 72 -342q0 -164 -55.5 -303.5t-153 -235.5t-233 -150.5t-291.5 -54.5q-161 0 -299 56.5t-233.5 155t-149.5 236t-54 296.5
q0 158 54 295.5t149.5 236t233.5 155t299 56.5q176 0 323.5 -67t247.5 -190q14 7 25 16t19 17.5t14 23.5t10 24t6.5 29t4 29t2 33.5t0.5 32.5v37v131zM848 215q100 0 188 38.5t151 106t100 163t37 205.5t-37 205.5t-100 162.5t-151 105.5t-188 38.5q-104 0 -194 -40
t-152 -109t-97.5 -163t-35.5 -200t35.5 -200.5t97.5 -163.5t152 -109t194 -40z" />
    <glyph glyph-name="uni1EE1" unicode="&#x1ee1;" horiz-adv-x="1394" 
d="M485 1243q-76 0 -118 -106l-140 64q32 104 91.5 164.5t141.5 60.5q37 0 72 -10t52 -19t49 -28q3 -2 13 -8.5t13 -8.5t12 -7.5t13.5 -7.5t12.5 -6t13.5 -5.5t12.5 -3.5t14 -3t14 -1q36 0 66.5 27.5t50.5 77.5l138 -46q-30 -114 -89.5 -179t-137.5 -65q-34 0 -69.5 11
t-56.5 22.5t-53 31.5q-25 15 -40 23t-36 15t-39 7zM1137 1159h234v-147q0 -146 -63 -244t-183 -131l-1 -1q16 -63 16 -138q0 -150 -67 -267.5t-186.5 -182t-270.5 -64.5q-116 0 -215 39t-166.5 107.5t-105.5 163.5t-38 204q0 147 64.5 264t185 184.5t275.5 67.5
q145 0 260.5 -59.5t183.5 -166.5q15 8 26 17t19 23l14 24q6 11 9.5 31.5t5 31t2.5 37t1 36.5v40v131zM616 192q123 0 207 86.5t84 219.5q0 136 -83 222t-208 86q-130 0 -211 -88t-81 -220q0 -130 82 -218t210 -88z" />
    <glyph glyph-name="uni1EE2" unicode="&#x1ee2;" horiz-adv-x="1782" 
d="M1500 1587h234v-147q0 -92 -25 -165.5t-75.5 -125.5t-123.5 -77l-1 -2q72 -157 72 -342q0 -164 -55.5 -303.5t-153 -235.5t-233 -150.5t-291.5 -54.5q-161 0 -299 56.5t-233.5 155t-149.5 236t-54 296.5q0 158 54 295.5t149.5 236t233.5 155t299 56.5q176 0 323.5 -67
t247.5 -190q14 7 25 16t19 17.5t14 23.5t10 24t6.5 29t4 29t2 33.5t0.5 33.5v36v131zM848 215q100 0 188 38.5t151 106t100 163t37 205.5t-37 205.5t-100 162.5t-151 105.5t-188 38.5q-104 0 -194 -40t-152 -109t-97.5 -163t-35.5 -200t35.5 -200.5t97.5 -163.5t152 -109
t194 -40zM847 -200q65 0 110 -44.5t45 -107.5t-45 -107.5t-110 -44.5q-63 0 -108.5 45t-45.5 107q0 63 45.5 107.5t108.5 44.5z" />
    <glyph glyph-name="uni1EE3" unicode="&#x1ee3;" horiz-adv-x="1394" 
d="M1137 1159h234v-147q0 -146 -63 -244t-183 -131l-1 -1q16 -63 16 -138q0 -150 -67 -267.5t-186.5 -182t-270.5 -64.5q-116 0 -215 39t-166.5 107.5t-105.5 163.5t-38 204q0 147 64.5 264t185 184.5t275.5 67.5q145 0 260.5 -59.5t183.5 -166.5q15 8 26 17t19 23l14 24
q6 11 9.5 31.5t5 31t2.5 37t1 36.5v40v131zM616 192q123 0 207 86.5t84 219.5q0 136 -83 222t-208 86q-130 0 -211 -88t-81 -220q0 -130 82 -218t210 -88zM615 -200q65 0 110 -44.5t45 -107.5t-45 -107.5t-110 -44.5q-63 0 -108.5 45t-45.5 107q0 63 45.5 107.5t108.5 44.5z
" />
    <glyph glyph-name="uni1EE4" unicode="&#x1ee4;" horiz-adv-x="1473" 
d="M735 -16q-129 0 -235.5 41t-182.5 118.5t-118 193.5t-42 261v857h247v-838q0 -116 39 -206t114.5 -141.5t177.5 -51.5q149 0 241.5 107t92.5 292v838h247v-857q0 -284 -155 -449t-426 -165zM734 -200q65 0 110 -44.5t45 -107.5q0 -41 -20.5 -76t-56 -55.5t-78.5 -20.5
q-41 0 -76.5 20.5t-56.5 55.5t-21 76q0 31 12.5 59t33 48.5t49 32.5t59.5 12z" />
    <glyph glyph-name="uni1EE5" unicode="&#x1ee5;" horiz-adv-x="1183" 
d="M814 999h229v-999h-229v130h-3q-59 -71 -139 -108.5t-169 -37.5q-85 0 -151.5 22.5t-117 69.5t-77.5 126.5t-27 188.5v608h229v-546q0 -75 11.5 -125t36.5 -80t61 -42.5t89 -12.5q51 0 97 21.5t82 61.5t57 103.5t21 141.5v478zM597 -200q65 0 110 -44.5t45 -107.5
t-45 -107.5t-110 -44.5q-63 0 -108.5 45t-45.5 107q0 63 45.5 107.5t108.5 44.5z" />
    <glyph glyph-name="uni1EE6" unicode="&#x1ee6;" horiz-adv-x="1473" 
d="M673 1565q-20 18 -30 31.5t-10 30.5q0 21 27 41t59 33.5t59 34.5t27 44q0 41 -60 41q-85 0 -146 -64l-92 87q42 43 112 70.5t140 27.5q97 0 150.5 -44.5t53.5 -115.5q0 -62 -47 -104t-135 -60l-18 -53h-90zM735 -16q-129 0 -235.5 41t-182.5 118.5t-118 193.5t-42 261
v857h247v-838q0 -116 39 -206t114.5 -141.5t177.5 -51.5q149 0 241.5 107t92.5 292v838h247v-857q0 -284 -155 -449t-426 -165z" />
    <glyph glyph-name="uni1EE7" unicode="&#x1ee7;" horiz-adv-x="1183" 
d="M597 1348q-85 0 -146 -64l-92 87q42 43 112 70.5t140 27.5q97 0 150.5 -44.5t53.5 -115.5q0 -62 -47 -104t-135 -60l-18 -53h-90q-20 18 -30 31.5t-10 30.5q0 18 17.5 33.5t43 28.5t51 25.5t43 29.5t17.5 36q0 41 -60 41zM814 999h229v-999h-229v130h-3
q-40 -47 -89.5 -80t-104.5 -49.5t-114 -16.5q-85 0 -151.5 22.5t-117 69.5t-77.5 126.5t-27 188.5v608h229v-546q0 -99 21.5 -156.5t63.5 -80.5t113 -23q51 0 97 21.5t82 61.5t57 103.5t21 141.5v478z" />
    <glyph glyph-name="uni1EE8" unicode="&#x1ee8;" horiz-adv-x="1677" 
d="M1065 1908l-254 -297h-233l235 296zM1441 1587h234v-147q0 -178 -93 -282t-266 -108v-452q0 -284 -155 -449t-426 -165q-129 0 -235.5 41t-182.5 118.5t-118 193.5t-42 261v857h247v-838q0 -116 39 -206t114.5 -141.5t177.5 -51.5q149 0 241.5 107t92.5 292v838h247v-255
q21 4 37.5 11.5t29 15.5t21.5 21.5t15.5 24.5t10.5 30t6.5 31.5t3.5 36t1 37.5v40v2v3v3v131z" />
    <glyph glyph-name="uni1EE9" unicode="&#x1ee9;" horiz-adv-x="1407" 
d="M957 1435l-254 -297h-233l235 296zM1151 1159h234v-147q0 -173 -88.5 -277t-253.5 -113v-622h-229v130h-3q-59 -71 -139 -108.5t-169 -37.5q-85 0 -151.5 22.5t-117 69.5t-77.5 126.5t-27 188.5v608h229v-546q0 -75 11.5 -125t36.5 -80t61 -42.5t89 -12.5q51 0 97 21.5
t82 61.5t57 103.5t21 141.5v478h229v-223q23 7 40 18t28.5 23t19.5 32.5t12 35.5t5.5 43t2 44.5t0.5 49.5v6v131z" />
    <glyph glyph-name="uni1EEA" unicode="&#x1eea;" horiz-adv-x="1677" 
d="M891 1611h-233l-254 297l253 -1zM1441 1587h234v-147q0 -178 -93 -282t-266 -108v-452q0 -284 -155 -449t-426 -165q-129 0 -235.5 41t-182.5 118.5t-118 193.5t-42 261v857h247v-838q0 -116 39 -206t114.5 -141.5t177.5 -51.5q149 0 241.5 107t92.5 292v838h247v-255
q21 4 37.5 11.5t29 15.5t21.5 21.5t15.5 24.5t10.5 30t6.5 31.5t3.5 36t1 37.5v40v2v3v3v131z" />
    <glyph glyph-name="uni1EEB" unicode="&#x1eeb;" horiz-adv-x="1407" 
d="M752 1138h-233l-254 297l253 -1zM1151 1159h234v-147q0 -173 -88.5 -277t-253.5 -113v-622h-229v130h-3q-59 -71 -139 -108.5t-169 -37.5q-85 0 -151.5 22.5t-117 69.5t-77.5 126.5t-27 188.5v608h229v-546q0 -75 11.5 -125t36.5 -80t61 -42.5t89 -12.5q51 0 97 21.5
t82 61.5t57 103.5t21 141.5v478h229v-223q23 7 40 18t28.5 23t19.5 32.5t12 35.5t5.5 43t2 44.5t0.5 49.5v6v131z" />
    <glyph glyph-name="uni1EEC" unicode="&#x1eec;" horiz-adv-x="1677" 
d="M745 1821q-85 0 -146 -64l-92 87q42 43 112 70.5t140 27.5q97 0 150.5 -44.5t53.5 -115.5q0 -62 -47 -104t-135 -60l-18 -53h-90q-20 18 -30 31.5t-10 30.5q0 21 27 41t59 33.5t59 34.5t27 44q0 41 -60 41zM1441 1587h234v-147q0 -178 -93 -282t-266 -108v-452
q0 -284 -155 -449t-426 -165q-129 0 -235.5 41t-182.5 118.5t-118 193.5t-42 261v857h247v-838q0 -116 39 -206t114.5 -141.5t177.5 -51.5q149 0 241.5 107t92.5 292v838h247v-255q21 4 37.5 11.5t29 15.5t21.5 21.5t15.5 24.5t10.5 30t6.5 31.5t3.5 36t1 37.5v40v2v3v3v131
z" />
    <glyph glyph-name="uni1EED" unicode="&#x1eed;" horiz-adv-x="1407" 
d="M597 1348q-85 0 -146 -64l-92 87q42 43 112 70.5t140 27.5q97 0 150.5 -44.5t53.5 -115.5q0 -62 -47 -104t-135 -60l-18 -53h-90q-20 18 -30 31.5t-10 30.5q0 18 17.5 33.5t43 28.5t51 25.5t43 29.5t17.5 36q0 41 -60 41zM1151 1159h234v-147q0 -173 -88.5 -277
t-253.5 -113v-622h-229v130h-3q-59 -71 -139 -108.5t-169 -37.5q-85 0 -151.5 22.5t-117 69.5t-77.5 126.5t-27 188.5v608h229v-546q0 -99 21.5 -156.5t63.5 -80.5t113 -23q51 0 97 21.5t82 61.5t57 103.5t21 141.5v478h229v-223q23 7 40 18t28.5 23t19.5 32.5t12 35.5
t5.5 43t2 44.5t0.5 49.5v6v131z" />
    <glyph glyph-name="uni1EEE" unicode="&#x1eee;" horiz-adv-x="1677" 
d="M605 1716q-76 0 -118 -106l-140 64q32 104 91.5 164.5t141.5 60.5q37 0 72 -10t52 -19t49 -28q3 -2 13 -8.5t13 -8.5t12 -7.5t13.5 -7.5t12.5 -6t13.5 -5.5t12.5 -3.5t14 -3t14 -1q36 0 66.5 27.5t50.5 77.5l138 -46q-30 -114 -89.5 -179t-137.5 -65q-34 0 -69.5 11
t-56.5 22.5t-53 31.5q-25 15 -40 23t-36 15t-39 7zM1441 1587h234v-147q0 -178 -93 -282t-266 -108v-452q0 -284 -155 -449t-426 -165q-129 0 -235.5 41t-182.5 118.5t-118 193.5t-42 261v857h247v-838q0 -116 39 -206t114.5 -141.5t177.5 -51.5q149 0 241.5 107t92.5 292
v838h247v-255q21 4 37.5 11.5t29 15.5t21.5 21.5t15.5 24.5t10.5 30t6.5 31.5t3.5 36t1 37.5v40v2v3v3v131z" />
    <glyph glyph-name="uni1EEF" unicode="&#x1eef;" horiz-adv-x="1407" 
d="M457 1243q-76 0 -118 -106l-140 64q32 104 91.5 164.5t141.5 60.5q37 0 72 -10t52 -19t49 -28q1 -1 14 -9t15.5 -9.5t13.5 -8t15 -8.5t13.5 -6.5t15.5 -5.5t14.5 -2.5t16.5 -1.5q36 0 66.5 27.5t50.5 77.5l138 -46q-20 -75 -53 -129.5t-77.5 -84.5t-96.5 -30
q-34 0 -69.5 11t-56.5 22.5t-53 31.5q-19 11 -30 17.5t-27 13.5t-30 10.5t-28 3.5zM1151 1159h234v-147q0 -173 -88.5 -277t-253.5 -113v-622h-229v130h-3q-59 -71 -139 -108.5t-169 -37.5q-85 0 -151.5 22.5t-117 69.5t-77.5 126.5t-27 188.5v608h229v-546q0 -75 11 -125
t36.5 -80t61.5 -42.5t89 -12.5q51 0 97 21.5t82 61.5t57 103.5t21 141.5v478h229v-223q23 7 40 18t28.5 23t19.5 32.5t12 35.5t5.5 43t2 44.5t0.5 49.5v6v131z" />
    <glyph glyph-name="uni1EF0" unicode="&#x1ef0;" horiz-adv-x="1677" 
d="M1441 1587h234v-147q0 -178 -93 -282t-266 -108v-452q0 -284 -155 -449t-426 -165q-129 0 -235.5 41t-182.5 118.5t-118 193.5t-42 261v857h247v-838q0 -116 39 -206t114.5 -141.5t177.5 -51.5q149 0 241.5 107t92.5 292v838h247v-255q21 4 37.5 11.5t29 15.5t21.5 21.5
t15.5 24.5t10.5 30t6.5 31.5t3.5 36t1 37.5v40v2v3v3v131zM734 -200q65 0 110 -44.5t45 -107.5t-45 -107.5t-110 -44.5q-63 0 -108.5 45t-45.5 107q0 31 12.5 59t33 48.5t49 32.5t59.5 12z" />
    <glyph glyph-name="uni1EF1" unicode="&#x1ef1;" horiz-adv-x="1407" 
d="M1151 1159h234v-147q0 -173 -88.5 -277t-253.5 -113v-622h-229v130h-3q-59 -71 -139 -108.5t-169 -37.5q-85 0 -151.5 22.5t-117 69.5t-77.5 126.5t-27 188.5v608h229v-546q0 -75 11.5 -125t36.5 -80t61 -42.5t89 -12.5q51 0 97 21.5t82 61.5t57 103.5t21 141.5v478h229
v-223q23 7 40 18t28.5 23t19.5 32.5t12 35.5t5.5 43t2 44.5t0.5 49.5v6v131zM597 -200q43 0 78.5 -20.5t56 -55.5t20.5 -76q0 -63 -45 -107.5t-110 -44.5q-41 0 -76.5 20.5t-56.5 55.5t-21 76q0 63 45.5 107.5t108.5 44.5z" />
    <glyph glyph-name="Ygrave" unicode="&#x1ef2;" horiz-adv-x="1279" 
d="M774 1611h-233l-254 297l253 -1zM965 1455h286l-489 -812v-643h-248v643l-486 812h283l325 -564h6z" />
    <glyph glyph-name="ygrave" unicode="&#x1ef3;" horiz-adv-x="1095" 
d="M697 1138h-233l-254 297l253 -1zM815 999h240l-549 -1404h-241l180 461l-406 943h241l276 -674h2z" />
    <glyph glyph-name="uni1EF4" unicode="&#x1ef4;" horiz-adv-x="1279" 
d="M514 0v643l-486 812h283l325 -564h6l323 564h286l-489 -812v-643h-248zM637 -200q65 0 110 -44.5t45 -107.5t-45 -107.5t-110 -44.5q-63 0 -108.5 45t-45.5 107q0 63 45.5 107.5t108.5 44.5z" />
    <glyph glyph-name="uni1EF5" unicode="&#x1ef5;" horiz-adv-x="1095" 
d="M815 999h240l-549 -1404h-241l180 461l-406 943h241l276 -674h2zM825 -200q65 0 110 -44.5t45 -107.5t-45 -107.5t-110 -44.5q-63 0 -108.5 45t-45.5 107q0 63 45.5 107.5t108.5 44.5z" />
    <glyph glyph-name="uni1EF6" unicode="&#x1ef6;" horiz-adv-x="1279" 
d="M652 1821q-85 0 -146 -64l-92 87q42 43 112 70.5t140 27.5q97 0 150.5 -44.5t53.5 -115.5q0 -62 -47 -104t-135 -60l-18 -53h-90q-20 18 -30 31.5t-10 30.5q0 21 27 41t59 33.5t59 34.5t27 44q0 41 -60 41zM965 1455h286l-489 -812v-643h-248v643l-486 812h283l325 -564
h6z" />
    <glyph glyph-name="uni1EF7" unicode="&#x1ef7;" horiz-adv-x="1095" 
d="M558 1348q-85 0 -146 -64l-92 87q42 43 112 70.5t140 27.5q97 0 150.5 -44.5t53.5 -115.5q0 -62 -47 -104t-135 -60l-18 -53h-90q-20 18 -30 31.5t-10 30.5q0 18 17.5 33.5t43 28.5t51 25.5t43 29.5t17.5 36q0 41 -60 41zM815 999h240l-549 -1404h-241l180 461l-406 943
h241l276 -674h2z" />
    <glyph glyph-name="uni1EF8" unicode="&#x1ef8;" horiz-adv-x="1279" 
d="M512 1716q-76 0 -118 -106l-140 64q32 104 91.5 164.5t141.5 60.5q28 0 53 -4.5t48.5 -14.5t35.5 -17l36 -21q3 -2 13 -8.5t13 -8.5t12 -7.5t13.5 -7.5t12.5 -6t13.5 -5.5t12.5 -3.5t14 -3t14 -1q36 0 66.5 27.5t50.5 77.5l138 -46q-20 -75 -53 -129.5t-77.5 -84.5
t-96.5 -30q-34 0 -69.5 11t-56.5 22.5t-53 31.5q-25 15 -40 23t-36 15t-39 7zM965 1455h286l-489 -812v-643h-248v643l-486 812h283l325 -564h6z" />
    <glyph glyph-name="uni1EF9" unicode="&#x1ef9;" horiz-adv-x="1095" 
d="M418 1243q-76 0 -118 -106l-140 64q32 104 91.5 164.5t141.5 60.5q37 0 72 -10t52 -19t49 -28q1 -1 14 -9t15.5 -9.5t13.5 -8t15 -8.5t13.5 -6.5t15.5 -5.5t14.5 -2.5t16.5 -1.5q36 0 66.5 27.5t50.5 77.5l138 -46q-20 -75 -53 -129.5t-77.5 -84.5t-96.5 -30
q-34 0 -69.5 11t-56.5 22.5t-53 31.5q-25 15 -40 23t-36 15t-39 7zM815 999h240l-549 -1404h-241l180 461l-406 943h241l276 -674h2z" />
    <glyph glyph-name="uni2002" unicode="&#x2002;" horiz-adv-x="956" 
 />
    <glyph glyph-name="uni2003" unicode="&#x2003;" horiz-adv-x="1912" 
 />
    <glyph glyph-name="uni2009" unicode="&#x2009;" horiz-adv-x="60" 
 />
    <glyph glyph-name="endash" unicode="&#x2013;" horiz-adv-x="1174" 
d="M109 508v204h956v-204h-956z" />
    <glyph glyph-name="emdash" unicode="&#x2014;" horiz-adv-x="2130" 
d="M109 508v204h1912v-204h-1912z" />
    <glyph glyph-name="uni2015" unicode="&#x2015;" horiz-adv-x="2456" 
d="M109 508v204h2238v-204h-2238z" />
    <glyph glyph-name="quoteleft" unicode="&#x2018;" horiz-adv-x="440" 
d="M375 1452l-65 -519h-245l123 519h187z" />
    <glyph glyph-name="quoteright" unicode="&#x2019;" horiz-adv-x="440" 
d="M65 936l65 519h245l-123 -519h-187z" />
    <glyph glyph-name="quotesinglbase" unicode="&#x201a;" horiz-adv-x="488" 
d="M56 -270l65 518h245l-142 -518h-168z" />
    <glyph glyph-name="quotedblleft" unicode="&#x201c;" horiz-adv-x="793" 
d="M375 1453l-63 -519h-247l123 519h187zM728 1453l-65 -519h-245l123 519h187z" />
    <glyph glyph-name="quotedblright" unicode="&#x201d;" horiz-adv-x="793" 
d="M65 936l65 519h245l-123 -519h-187zM418 936l63 519h247l-123 -519h-187z" />
    <glyph glyph-name="quotedblbase" unicode="&#x201e;" horiz-adv-x="841" 
d="M56 -159l65 519h245l-123 -519h-187zM409 -159l63 519h247l-123 -519h-187z" />
    <glyph glyph-name="dagger" unicode="&#x2020;" horiz-adv-x="820" 
d="M412 479l-71 119l10 264l-2 223h-40l-197 -9v139l197 -8h39l-6 197h141l-9 -197h38l196 9v-140l-196 9h-40v-223l11 -264z" />
    <glyph glyph-name="daggerdbl" unicode="&#x2021;" horiz-adv-x="820" 
d="M342 113l7 195h-40l-197 -8v138l195 -7h43v142l-9 188l9 189v135h-41l-197 -8v137l195 -9h41l-8 199h141l-9 -199h38l198 9v-137l-199 8h-37v-135l9 -189l-11 -188l2 -142h38l198 8v-137l-198 6h-38l9 -195h-139z" />
    <glyph glyph-name="bullet" unicode="&#x2022;" horiz-adv-x="873" 
d="M436 419q-95 0 -162.5 66.5t-67.5 161.5q0 96 67 162.5t163 66.5q63 0 116 -30.5t84 -83t31 -115.5q0 -95 -67.5 -161.5t-163.5 -66.5z" />
    <glyph glyph-name="ellipsis" unicode="&#x2026;" horiz-adv-x="2048" 
d="M342 -16q-65 0 -110.5 44.5t-45.5 107.5q0 41 20.5 76.5t56.5 56t79 20.5q63 0 108.5 -45t45.5 -108t-45.5 -107.5t-108.5 -44.5zM1025 -16q-65 0 -110.5 44.5t-45.5 107.5q0 41 20.5 76.5t56.5 56t79 20.5q63 0 108.5 -45t45.5 -108t-45.5 -107.5t-108.5 -44.5z
M1708 -16q-65 0 -110.5 44.5t-45.5 107.5q0 41 20.5 76.5t56.5 56t79 20.5q63 0 108.5 -45t45.5 -108t-45.5 -107.5t-108.5 -44.5z" />
    <glyph glyph-name="perthousand" unicode="&#x2030;" horiz-adv-x="3017" 
d="M822 -45l-185 80l643 1449l184 -80zM505 657q-113 0 -207 50t-149.5 144t-55.5 214q0 111 51 203.5t145.5 147t215.5 54.5q113 0 207 -49.5t149.5 -143t55.5 -212.5q0 -112 -51 -204.5t-146 -148t-215 -55.5zM506 832q97 0 158 67t61 164q0 102 -63 165.5t-156 63.5
q-63 0 -112.5 -30.5t-76.5 -83t-27 -115.5q0 -102 62.5 -166.5t153.5 -64.5zM1589 -16q-113 0 -206.5 50.5t-149 144t-55.5 212.5q0 111 51 203.5t145.5 147t214.5 54.5q114 0 208 -50t149.5 -143t55.5 -212q0 -112 -50.5 -204t-146 -147.5t-216.5 -55.5zM2510 -16
q-113 0 -207 50.5t-149.5 144t-55.5 212.5q0 111 51 203.5t145.5 147t215.5 54.5q113 0 207 -50t150 -143t56 -212q0 -111 -51 -203.5t-146.5 -148t-215.5 -55.5zM1591 160q97 0 158 66.5t61 163.5q0 67 -29.5 119.5t-79.5 81t-110 28.5q-96 0 -157 -66t-61 -163
q0 -51 17 -94t46.5 -73t69.5 -46.5t85 -16.5zM2510 160q97 0 158 66.5t61 163.5q0 67 -29.5 119.5t-79 81t-110.5 28.5q-96 0 -156 -66t-60 -163q0 -101 62.5 -165.5t153.5 -64.5z" />
    <glyph glyph-name="guilsinglleft" unicode="&#x2039;" horiz-adv-x="631" 
d="M571 948l-250 -437l253 -445h-228l-252 445l248 437h229z" />
    <glyph glyph-name="guilsinglright" unicode="&#x203a;" horiz-adv-x="621" 
d="M60 67l250 437l-253 445h228l252 -445l-248 -437h-229z" />
    <glyph glyph-name="uni203D" unicode="&#x203d;" horiz-adv-x="948" 
d="M439 1524q83 0 158 -25t135 -73t95 -124.5t35 -172.5q0 -60 -14 -112.5t-42.5 -97t-56 -77t-67.5 -71.5q-17 -16 -49 -45.5t-49 -46.5t-37.5 -41t-30.5 -45.5t-11 -43.5l-5 -90h-188l-41 683h260l-14 -220h4q41 47 62 88t21 88q0 97 -50.5 147.5t-133.5 50.5
q-60 0 -119 -32t-97 -88l-171 159q70 90 175.5 139.5t230.5 49.5zM404 289q63 0 108.5 -45t45.5 -108t-45.5 -107.5t-108.5 -44.5q-43 0 -79 20.5t-56.5 55.5t-20.5 76t20.5 76.5t56.5 56t79 20.5z" />
    <glyph glyph-name="uni2042" unicode="&#x2042;" horiz-adv-x="1715" 
d="M778 791l8 221l-185 -117l-74 127l194 99l-195 104l75 127l185 -118l-8 221h145l-10 -221l187 116l73 -125l-195 -102l195 -101l-73 -127l-184 117l7 -221h-145zM345 104l8 221l-185 -117l-74 127l194 99l-195 104l75 127l185 -118l-8 221h145l-10 -221l187 116l73 -125
l-195 -102l195 -101l-73 -127l-184 117l7 -221h-145zM1227 104l8 221l-185 -117l-74 127l194 99l-195 104l75 127l185 -118l-8 221h145l-10 -221l187 116l73 -125l-195 -102l195 -101l-73 -127l-184 117l7 -221h-145z" />
    <glyph glyph-name="fraction" unicode="&#x2044;" horiz-adv-x="456" 
d="M33 -45l-185 80l642 1449l185 -80z" />
    <glyph glyph-name="uni2051" unicode="&#x2051;" horiz-adv-x="833" 
d="M345 791l8 221l-185 -117l-74 127l194 99l-195 104l75 127l185 -118l-8 221h145l-10 -221l187 116l73 -125l-195 -102l195 -101l-73 -127l-184 117l7 -221h-145zM345 64l8 221l-185 -117l-74 127l194 99l-195 104l75 127l185 -118l-8 221h145l-10 -221l187 116l73 -125
l-195 -102l195 -101l-73 -127l-184 117l7 -221h-145z" />
    <glyph glyph-name="uni2070" unicode="&#x2070;" horiz-adv-x="843" 
d="M421 877q-168 0 -265.5 119t-97.5 319q0 205 99.5 321.5t263.5 116.5q112 0 194.5 -54t126 -153t43.5 -231q0 -205 -100 -321.5t-264 -116.5zM422 1057q78 0 123 67t45 190q0 124 -45.5 192.5t-122.5 68.5q-79 0 -124.5 -68t-45.5 -193q0 -122 46 -189.5t124 -67.5z" />
    <glyph glyph-name="uni2074" unicode="&#x2074;" horiz-adv-x="739" 
d="M387 893v131h-354v118l395 594h150v-546h116v-166h-116v-131h-191zM244 1178h158v248z" />
    <glyph glyph-name="uni2075" unicode="&#x2075;" horiz-adv-x="719" 
d="M394 1436q113 0 191.5 -75t78.5 -192q0 -129 -90 -209.5t-227 -80.5q-197 0 -311 130l143 117q56 -72 148 -72q38 0 69.5 13.5t51 41t19.5 63.5q0 61 -38.5 91.5t-97.5 30.5q-71 0 -120 -49l-105 40l28 451h484v-174h-324l-11 -145q65 19 111 19z" />
    </font>
</defs>
</svg>
